<?xml version="1.0" standalone="no"?>
<!DOCTYPE svg PUBLIC "-//W3C//DTD SVG 1.1//EN" "http://www.w3.org/Graphics/SVG/1.1/DTD/svg11.dtd" >
<svg xmlns="http://www.w3.org/2000/svg" xmlns:xlink="http://www.w3.org/1999/xlink" version="1.1">
<metadata>
Created by FontForge 20170731 at Tue Apr 27 19:14:10 2021
 By Aleksey,,,
Copyright 2015 The Rubik Project Authors (https://github.com/googlefonts/rubik)
</metadata>
<defs>
<font id="Rubik-ExtraBold" horiz-adv-x="0" >
  <font-face 
    font-family="Rubik ExtraBold"
    font-weight="800"
    font-stretch="normal"
    units-per-em="1000"
    panose-1="0 0 0 0 0 0 0 0 0 0"
    ascent="800"
    descent="-200"
    x-height="520"
    cap-height="700"
    bbox="-215 -299 1205 938"
    underline-thickness="50"
    underline-position="-125"
    unicode-range="U+000D-FB4B"
  />
<missing-glyph horiz-adv-x="695" 
d="M102 -117q-22 0 -22 22v891q0 22 22 22h491q22 0 22 -22v-891q0 -22 -22 -22h-491zM181 -59h373v762zM141 -9l377 769h-377v-769z" />
    <glyph glyph-name="fi" unicode="fi" horiz-adv-x="731" 
d="M141 0q-11 0 -18.5 7.5t-7.5 18.5v341h-73q-11 0 -18.5 7.5t-7.5 18.5v101q0 11 7.5 18.5t18.5 7.5h73v25q0 75 30.5 117.5t84.5 60t124 17.5h299q11 0 18.5 -7.5t7.5 -18.5v-101q0 -11 -7.5 -18.5t-18.5 -7.5h-289q-28 0 -40 -12.5t-12 -34.5v-20h341q11 0 18.5 -7.5
t7.5 -18.5v-468q0 -11 -7.5 -18.5t-18.5 -7.5h-146q-10 0 -18 7.5t-8 18.5v341h-169v-341q0 -11 -7.5 -18.5t-18.5 -7.5h-145z" />
    <glyph glyph-name="fl" unicode="fl" horiz-adv-x="752" 
d="M141 0q-11 0 -18.5 7.5t-7.5 18.5v341h-73q-11 0 -18.5 7.5t-7.5 18.5v101q0 11 7.5 18.5t18.5 7.5h73v25q0 75 30.5 117.5t84.5 60t124 17.5h69q11 0 18.5 -7.5t7.5 -18.5v-101q0 -11 -7.5 -18.5t-18.5 -7.5h-59q-28 0 -40 -12.5t-12 -34.5v-20h190v194q0 11 7.5 18.5
t18.5 7.5h146q10 0 18 -7.5t8 -18.5v-688q0 -11 -8 -18.5t-18 -7.5h-146q-11 0 -18.5 7.5t-7.5 18.5v341h-190v-341q0 -11 -7.5 -18.5t-18.5 -7.5h-145z" />
    <glyph glyph-name="f_f" unicode="ff" horiz-adv-x="855" 
d="M141 0q-11 0 -18.5 7.5t-7.5 18.5v341h-73q-11 0 -18.5 7.5t-7.5 18.5v101q0 11 7.5 18.5t18.5 7.5h73v25q0 75 30.5 117.5t84.5 60t124 17.5h85q11 0 19 -7.5t8 -18.5v-101q0 -11 -8 -18.5t-19 -7.5h-75q-28 0 -40 -12.5t-12 -34.5v-20h190v25q0 75 31 117.5t85 60
t124 17.5h85q11 0 18.5 -7.5t7.5 -18.5v-101q0 -11 -7.5 -18.5t-18.5 -7.5h-75q-28 0 -40 -12.5t-12 -34.5v-20h117q11 0 18.5 -7.5t7.5 -18.5v-101q0 -11 -7.5 -18.5t-18.5 -7.5h-117v-341q0 -11 -8 -18.5t-18 -7.5h-146q-11 0 -18.5 7.5t-7.5 18.5v341h-190v-341
q0 -11 -7.5 -18.5t-18.5 -7.5h-145z" />
    <glyph glyph-name="f_f_i" unicode="ffi" horiz-adv-x="1118" 
d="M141 0q-11 0 -18.5 7.5t-7.5 18.5v341h-73q-11 0 -18.5 7.5t-7.5 18.5v101q0 11 7.5 18.5t18.5 7.5h73v25q0 75 30.5 117.5t84.5 60t124 17.5h85q11 0 19 -7.5t8 -18.5v-101q0 -11 -8 -18.5t-19 -7.5h-75q-28 0 -40 -12.5t-12 -34.5v-20h190v25q0 75 31 117.5t85 60
t124 17.5h298q11 0 19 -7.5t8 -18.5v-101q0 -11 -8 -18.5t-19 -7.5h-288q-28 0 -40 -12.5t-12 -34.5v-20h340q11 0 19 -7.5t8 -18.5v-468q0 -11 -8 -18.5t-19 -7.5h-145q-11 0 -18.5 7.5t-7.5 18.5v341h-169v-341q0 -11 -8 -18.5t-18 -7.5h-146q-11 0 -18.5 7.5t-7.5 18.5
v341h-190v-341q0 -11 -7.5 -18.5t-18.5 -7.5h-145z" />
    <glyph glyph-name="f_f_l" unicode="ffl" horiz-adv-x="1139" 
d="M141 0q-11 0 -18.5 7.5t-7.5 18.5v341h-73q-11 0 -18.5 7.5t-7.5 18.5v101q0 11 7.5 18.5t18.5 7.5h73v25q0 75 30.5 117.5t84.5 60t124 17.5h85q11 0 19 -7.5t8 -18.5v-101q0 -11 -8 -18.5t-19 -7.5h-75q-28 0 -40 -12.5t-12 -34.5v-20h190v25q0 75 31 117.5t85 60
t124 17.5h69q11 0 18.5 -7.5t7.5 -18.5v-101q0 -11 -7.5 -18.5t-18.5 -7.5h-59q-28 0 -40 -12.5t-12 -34.5v-20h190v194q0 11 7.5 18.5t18.5 7.5h145q11 0 18.5 -7.5t7.5 -18.5v-688q0 -11 -7.5 -18.5t-18.5 -7.5h-145q-11 0 -18.5 7.5t-7.5 18.5v341h-190v-341
q0 -11 -8 -18.5t-18 -7.5h-146q-11 0 -18.5 7.5t-7.5 18.5v341h-190v-341q0 -11 -7.5 -18.5t-18.5 -7.5h-145z" />
    <glyph glyph-name=".notdef" horiz-adv-x="695" 
d="M102 -117q-22 0 -22 22v891q0 22 22 22h491q22 0 22 -22v-891q0 -22 -22 -22h-491zM181 -59h373v762zM141 -9l377 769h-377v-769z" />
    <glyph glyph-name=".null" 
 />
    <glyph glyph-name="nonmarkingreturn" horiz-adv-x="333" 
 />
    <glyph glyph-name="CR" unicode="&#xd;" horiz-adv-x="200" 
 />
    <glyph glyph-name="space" unicode=" " horiz-adv-x="200" 
 />
    <glyph glyph-name="exclam" unicode="!" horiz-adv-x="310" 
d="M83 245q-11 0 -18.5 7.5t-7.5 18.5v403q0 11 7.5 18.5t18.5 7.5h144q11 0 19 -7.5t8 -18.5v-403q0 -11 -8 -18.5t-19 -7.5h-144zM81 0q-11 0 -18.5 7.5t-7.5 18.5v149q0 10 7.5 18t18.5 8h148q11 0 19 -8t8 -18v-149q0 -11 -8 -18.5t-19 -7.5h-148z" />
    <glyph glyph-name="quotedbl" unicode="&#x22;" horiz-adv-x="485" 
d="M324 427q-17 0 -23.5 9t-8.5 20l-25 221q-1 16 6 24.5t20 8.5h132q13 0 20 -8.5t5 -24.5l-24 -221q-1 -11 -7.5 -20t-24.5 -9h-70zM92 427q-17 0 -23.5 9t-8.5 20l-25 221q-2 16 5.5 24.5t20.5 8.5h132q13 0 20 -8.5t5 -24.5l-25 -221q-1 -11 -7 -20t-24 -9h-70z" />
    <glyph glyph-name="numbersign" unicode="#" horiz-adv-x="682" 
d="M135 39q-9 0 -16 6.5t-6 15.5l13 85h-59q-10 0 -17.5 7.5t-7.5 17.5v98q0 11 7.5 18t17.5 7h81l16 106h-71q-10 0 -17.5 7.5t-7.5 17.5v98q0 11 7.5 18t17.5 7h93l13 86q2 8 8 14.5t16 6.5h97q9 0 15.5 -6.5t6.5 -15.5l-13 -85h84l13 86q2 8 8 14.5t16 6.5h97
q9 0 15.5 -6.5t6.5 -15.5l-13 -85h59q11 0 17.5 -7t6.5 -18v-98q0 -10 -6.5 -17.5t-17.5 -7.5h-81l-16 -106h71q11 0 17.5 -7t6.5 -18v-98q0 -10 -6.5 -17.5t-17.5 -7.5h-93l-12 -86q-3 -21 -25 -21h-97q-9 0 -15.5 6.5t-6.5 15.5l13 85h-84l-12 -86q-3 -21 -25 -21h-97z
M291 294h84l16 106h-84z" />
    <glyph glyph-name="dollar" unicode="$" horiz-adv-x="689" 
d="M291 -100q-10 0 -18 7.5t-8 18.5v69q-78 11 -130 41t-78.5 72.5t-27.5 88.5q0 9 6 15t15 6h159q14 0 22 -4.5t17 -12.5q8 -11 20.5 -20.5t31.5 -15t44 -5.5q46 0 71 12.5t25 34.5q0 17 -13.5 28t-45.5 20t-87 19q-77 13 -133 38.5t-85.5 69t-29.5 107.5q0 84 59 141.5
t160 73.5v70q0 11 8 18.5t18 7.5h102q11 0 18.5 -7.5t7.5 -18.5v-72q71 -14 118.5 -46t73 -71.5t26.5 -75.5q0 -9 -6.5 -15.5t-14.5 -6.5h-167q-12 0 -20.5 4t-15.5 13q-5 14 -25 25t-51 11q-34 0 -52 -11.5t-18 -33.5q0 -15 11 -26t39 -19.5t78 -18.5q95 -14 153.5 -40
t85.5 -68t27 -105q0 -60 -30.5 -106.5t-85 -75.5t-126.5 -40v-70q0 -11 -7.5 -18.5t-18.5 -7.5h-102z" />
    <glyph glyph-name="percent" unicode="%" horiz-adv-x="826" 
d="M113 0q-23 0 -23 20q0 6 4 11l493 650q7 9 14.5 14t21.5 5h88q23 0 23 -20q0 -6 -4 -11l-494 -650q-7 -9 -14 -14t-21 -5h-88zM636 -5q-69 0 -111.5 36t-46.5 96q-2 26 -1.5 46.5t1.5 48.5q4 61 44.5 97t113.5 36t113.5 -36t43.5 -97q2 -28 2 -48.5t-2 -46.5
q-3 -60 -45.5 -96t-111.5 -36zM636 93q13 0 20 5.5t11 15t4 19.5q2 21 2 42t-2 41q-1 16 -9 28t-26 12q-19 0 -27 -12t-9 -28q-1 -20 -1 -41t1 -42q1 -10 4.5 -19.5t11 -15t20.5 -5.5zM191 346q-69 0 -111 35.5t-47 95.5q-2 26 -1.5 46.5t1.5 48.5q4 61 45 97t113 36
q73 0 113.5 -36t44.5 -97q2 -28 2 -48.5t-2 -46.5q-4 -60 -46.5 -95.5t-111.5 -35.5zM191 443q13 0 20 5.5t11 15t4 19.5q2 22 2 42.5t-2 40.5q-1 16 -8.5 28t-26.5 12t-27 -12t-9 -28q-1 -20 -1 -40.5t1 -42.5q1 -10 4.5 -19.5t11.5 -15t20 -5.5z" />
    <glyph glyph-name="ampersand" unicode="&#x26;" horiz-adv-x="763" 
d="M305 -10q-81 0 -141 24t-92.5 71t-32.5 113q0 42 15.5 76t45.5 62t72 52q-35 38 -50.5 72.5t-15.5 68.5q0 48 25 89t76.5 66.5t129.5 25.5q72 0 120 -25t73 -65.5t25 -86.5q0 -39 -16 -70.5t-46 -57.5t-71 -51l96 -98q4 6 19.5 30t31.5 68q3 12 20 12h126q9 0 14 -5
t5 -14q0 -17 -11 -42.5t-28 -54t-36 -54.5t-35 -45l115 -119q6 -7 6 -15q0 -7 -5 -12t-13 -5h-170q-10 0 -15.5 3.5t-9.5 6.5l-36 33q-42 -30 -88.5 -41.5t-102.5 -11.5zM305 137q25 0 45.5 5.5t36.5 19.5l-111 112q-20 -11 -34 -28t-14 -39q0 -21 11.5 -37t29 -24.5
t36.5 -8.5zM323 460q19 9 33.5 18.5t22.5 21.5t8 26q0 22 -14 35t-37 13q-19 0 -34.5 -13t-15.5 -35q0 -10 3.5 -20t12.5 -21.5t21 -24.5z" />
    <glyph glyph-name="quotesingle" unicode="'" horiz-adv-x="253" 
d="M92 427q-17 0 -23.5 9t-8.5 20l-25 221q-2 16 5.5 24.5t20.5 8.5h132q13 0 20 -8.5t5 -24.5l-25 -221q-1 -11 -7 -20t-24 -9h-70z" />
    <glyph glyph-name="parenleft" unicode="(" horiz-adv-x="404" 
d="M355 -159q-70 0 -128.5 26t-101.5 82t-66 145t-23 215q0 127 23 216t66 144t101.5 81t128.5 26q11 0 18.5 -7.5t7.5 -18.5v-106q0 -10 -7.5 -17.5t-18.5 -8.5q-40 -3 -67 -26.5t-42 -65t-21.5 -96.5t-6.5 -121t6.5 -121.5t21.5 -96.5t42 -65t67 -27q11 -1 18.5 -8
t7.5 -18v-106q0 -11 -7.5 -18.5t-18.5 -7.5z" />
    <glyph glyph-name="parenright" unicode=")" horiz-adv-x="404" 
d="M49 -159q-11 0 -18.5 7.5t-7.5 18.5v106q0 11 7.5 18t17.5 8q41 3 67.5 27t42 65t21.5 96.5t6 121.5t-6 121t-21.5 96.5t-42 65t-67.5 26.5q-10 1 -17.5 8.5t-7.5 17.5v106q0 11 7.5 18.5t18.5 7.5q70 0 128.5 -26t101.5 -81t66 -144t23 -216q0 -126 -23 -215t-66 -145
t-101.5 -82t-128.5 -26z" />
    <glyph glyph-name="asterisk" unicode="*" horiz-adv-x="444" 
d="M158 374l-84 63q-7 5 -8 14t3 16q0 1 5 6l62 50l-79 4l-4.5 1.5t-2.5 0.5q-8 2 -12.5 10.5t-2.5 17.5l33 100q2 8 11 12t16 2q2 0 8 -4l66 -42l-20 75q-1 3 -1 5v3q0 8 6.5 15t15.5 7h105q9 0 15.5 -7t6.5 -15v-3t-1 -5l-21 -76l66 43q6 4 8 4q8 2 16.5 -2t10.5 -12
l33 -100q2 -9 -2 -17.5t-12 -10.5q-1 0 -2.5 -0.5t-5.5 -1.5l-79 -4l62 -50q5 -5 5 -6q5 -7 4 -16t-9 -14l-84 -63q-8 -4 -17 -2.5t-14 8.5q-1 2 -2 3.5t-3 2.5l-28 74l-28 -74q-1 -1 -2 -2.5t-3 -3.5q-4 -7 -13.5 -8.5t-17.5 2.5z" />
    <glyph glyph-name="plus" unicode="+" horiz-adv-x="600" 
d="M250 33q-11 0 -18.5 7.5t-7.5 18.5v172h-167q-11 0 -18.5 7.5t-7.5 18.5v91q0 11 7.5 18.5t18.5 7.5h167v167q0 11 7.5 18.5t18.5 7.5h102q11 0 18.5 -7.5t7.5 -18.5v-167h165q11 0 18.5 -7.5t7.5 -18.5v-91q0 -11 -7.5 -18.5t-18.5 -7.5h-165v-172q0 -11 -7.5 -18.5
t-18.5 -7.5h-102z" />
    <glyph glyph-name="comma" unicode="," horiz-adv-x="291" 
d="M46 -75q-9 0 -15 6.5t-5 15.5l33 219q2 14 11.5 25.5t28.5 11.5h138q9 0 15 -6.5t6 -14.5q0 -5 -1 -9l-86 -218q-4 -10 -12.5 -20t-27.5 -10h-85z" />
    <glyph glyph-name="hyphen" unicode="-" horiz-adv-x="474" 
d="M77 215q-10 0 -18 7.5t-8 18.5v118q0 11 8 18.5t18 7.5h320q11 0 18.5 -7.5t7.5 -18.5v-118q0 -11 -7.5 -18.5t-18.5 -7.5h-320z" />
    <glyph glyph-name="period" unicode="." horiz-adv-x="298" 
d="M74 0q-11 0 -18.5 7.5t-7.5 18.5v150q0 11 7.5 19t18.5 8h150q11 0 19 -8t8 -19v-150q0 -11 -8 -18.5t-19 -7.5h-150z" />
    <glyph glyph-name="slash" unicode="/" horiz-adv-x="557" 
d="M44 -84q-9 0 -15.5 6.5t-6.5 15.5q0 4 2 9l337 812q4 10 13.5 18.5t26.5 8.5h112q9 0 15.5 -6.5t6.5 -15.5q0 -4 -3 -9l-339 -812q-3 -9 -12 -18t-28 -9h-109z" />
    <glyph glyph-name="zero" unicode="0" horiz-adv-x="699" 
d="M349 -10q-74 0 -129 20t-91.5 55t-56.5 82.5t-23 102.5q-2 27 -2.5 64t0 74.5t2.5 65.5q3 55 23.5 101.5t58.5 81t92 54t126 19.5q71 0 125.5 -19.5t92 -54t58 -81t24.5 -101.5q2 -28 2 -65.5v-74.5t-2 -64q-4 -55 -23.5 -102.5t-56.5 -82.5t-92 -55t-128 -20zM349 161
q40 0 58 26t19 68q2 29 2 63v68.5t-2 61.5q-1 40 -18.5 66.5t-58.5 27.5q-41 -1 -58 -27.5t-19 -66.5q-1 -27 -1.5 -61.5t0 -68.5t1.5 -63q2 -42 19.5 -68t57.5 -26z" />
    <glyph glyph-name="one" unicode="1" horiz-adv-x="527" 
d="M278 0q-11 0 -18.5 7.5t-7.5 18.5v440l-125 -96q-10 -6 -19.5 -4t-17.5 12l-73 95q-5 9 -3.5 20t11.5 17l236 183q5 4 10 5.5t12 1.5h157q11 0 19 -7.5t8 -18.5v-648q0 -11 -8 -18.5t-19 -7.5h-162z" />
    <glyph glyph-name="two" unicode="2" horiz-adv-x="677" 
d="M64 0q-11 0 -18.5 7.5t-7.5 18.5v87q0 7 3.5 23t21.5 29l58 55q92 69 153 116t91.5 82t30.5 65q0 24 -11.5 41.5t-45.5 17.5q-25 0 -40 -11t-22.5 -27t-11.5 -30t-14 -18.5t-23 -4.5h-156q-10 0 -16 6t-6 15q1 53 22.5 96.5t59.5 76.5t90.5 50.5t115.5 17.5q88 0 151 -27
t97 -76t34 -117q0 -52 -24 -96.5t-68 -85.5t-104 -84l-49 -48h234q11 0 18.5 -8t7.5 -19v-126q0 -11 -7.5 -18.5t-18.5 -7.5h-545z" />
    <glyph glyph-name="three" unicode="3" horiz-adv-x="684" 
d="M336 -10q-83 0 -141.5 20t-95 50.5t-53.5 65.5t-18 65q0 9 6 15.5t15 6.5h166q13 0 20 -4.5t13 -13.5q7 -12 19 -20.5t29 -12t41 -3.5q43 0 65 19.5t22 51.5t-22 46.5t-63 14.5h-118q-11 0 -18.5 8t-7.5 18v69q0 14 5.5 23.5t12.5 13.5l151 107h-270q-11 0 -18.5 8
t-7.5 18v118q0 11 7.5 18.5t18.5 7.5h486q11 0 18.5 -7.5t7.5 -18.5v-106q0 -13 -5 -22t-12 -14l-135 -110l4 -2q53 -10 96 -33.5t68 -65.5t25 -106q0 -68 -40.5 -118.5t-110 -78.5t-160.5 -28z" />
    <glyph glyph-name="four" unicode="4" horiz-adv-x="709" 
d="M384 0q-11 0 -18.5 7.5t-7.5 18.5v99h-305q-11 0 -18.5 7.5t-7.5 18.5v119q0 11 3.5 18.5t7.5 12.5l287 382q14 17 37 17h177q11 0 18.5 -7.5t7.5 -18.5v-373h88q12 0 19 -7.5t7 -18.5v-124q0 -11 -7.5 -18.5t-18.5 -7.5h-88v-99q0 -11 -7.5 -18.5t-18.5 -7.5h-155z
M227 292h137v190z" />
    <glyph glyph-name="five" unicode="5" horiz-adv-x="668" 
d="M332 -12q-100 0 -167 30.5t-101 80t-36 106.5q0 9 6.5 15.5t15.5 6.5h167q15 0 23 -6t11 -12q10 -17 21 -28.5t26 -17t35 -5.5q22 0 41 9.5t30.5 28t11.5 45.5q0 23 -10.5 40.5t-29 28.5t-43.5 11q-20 0 -32.5 -4.5t-20.5 -10.5t-14.5 -10.5t-14.5 -4.5h-165
q-9 0 -15.5 6.5t-6.5 15.5l38 355q2 16 12.5 24t23.5 8h424q11 0 18.5 -7.5t7.5 -18.5v-118q0 -10 -7.5 -18t-18.5 -8h-291l-10 -100q25 17 53.5 25.5t79.5 8.5q47 0 90.5 -16.5t78 -47t54.5 -72.5t20 -93q0 -68 -35 -124t-103 -89.5t-167 -33.5z" />
    <glyph glyph-name="six" unicode="6" horiz-adv-x="671" 
d="M340 -10q-91 0 -161.5 31t-111 88.5t-40.5 135.5q0 31 10 63t25 60.5t30 51t25 35.5l170 225q4 5 13 12.5t24 7.5h167q9 0 15.5 -6.5t6.5 -15.5q0 -4 -1.5 -7.5t-3.5 -5.5l-130 -175q4 0 9.5 0.5t8.5 0.5q41 -2 85 -19.5t81.5 -48t61 -74.5t23.5 -100q0 -72 -38.5 -131
t-107.5 -93.5t-161 -34.5zM338 160q24 0 44.5 9.5t33 29t12.5 47.5q0 27 -12.5 46t-32.5 29t-45 10q-24 0 -45 -10t-33 -29t-12 -46q0 -28 12.5 -47.5t33 -29t44.5 -9.5z" />
    <glyph glyph-name="seven" unicode="7" horiz-adv-x="599" 
d="M138 0q-9 0 -15.5 6.5t-6.5 15.5q0 5 2 9l224 491h-288q-11 0 -18.5 7.5t-7.5 18.5v126q0 11 7.5 18.5t18.5 7.5h493q12 0 19 -7.5t7 -18.5v-110q0 -16 -3.5 -27.5t-8.5 -21.5l-224 -492q-4 -5 -12.5 -14t-26.5 -9h-160z" />
    <glyph glyph-name="eight" unicode="8" horiz-adv-x="694" 
d="M346 -10q-81 0 -139 18.5t-95 50t-54 71.5t-17 84q0 53 26 93.5t65 63.5q-32 23 -49 57t-17 77q0 54 28 101t90 75.5t162 28.5q101 0 162 -28.5t89 -74.5t28 -100q0 -44 -16 -78t-49 -58q43 -21 68.5 -63.5t25.5 -95.5q0 -58 -32 -108.5t-100 -82t-176 -31.5zM346 138
q26 0 47 9t33 26t12 40q0 24 -12 41t-33 26t-47 9q-25 0 -46 -9t-33 -26t-12 -41q0 -23 12 -40t33 -26t46 -9zM346 427q25 1 43.5 9.5t29 23.5t10.5 34q0 20 -10.5 35t-29 23.5t-43.5 8.5q-24 0 -42.5 -8.5t-28.5 -23.5t-10 -35q0 -19 10 -34t28.5 -24t42.5 -9z" />
    <glyph glyph-name="nine" unicode="9" horiz-adv-x="662" 
d="M166 0q-9 0 -15.5 6.5t-6.5 15.5q0 5 2 8t3 5l136 184q-10 -2 -19 -1q-40 3 -82.5 20t-78.5 46.5t-58 72.5t-22 98q0 49 19 95t57 82t94.5 57t130.5 21q75 0 132.5 -18.5t96.5 -52t59.5 -78.5t20.5 -98q0 -47 -18 -88.5t-45 -79.5t-55 -77l-146 -198q-4 -5 -12.5 -12.5
t-25.5 -7.5h-167zM329 371q25 0 43.5 10t29.5 29t11 45q0 27 -11 46t-30 29t-43 10q-25 0 -44 -10t-30 -29t-11 -46q0 -26 11 -45t30 -29t44 -10z" />
    <glyph glyph-name="colon" unicode=":" horiz-adv-x="307" 
d="M78 350q-11 0 -18.5 7.5t-7.5 18.5v142q0 11 7.5 19t18.5 8h151q10 0 18 -8t8 -19v-142q0 -11 -8 -18.5t-18 -7.5h-151zM78 0q-11 0 -18.5 7.5t-7.5 18.5v142q0 11 7.5 19t18.5 8h151q10 0 18 -8t8 -19v-142q0 -11 -8 -18.5t-18 -7.5h-151z" />
    <glyph glyph-name="semicolon" unicode=";" horiz-adv-x="313" 
d="M50 -75q-9 0 -15 6.5t-6 15.5l34 219q2 14 11.5 25.5t28.5 11.5h138q9 0 15 -6.5t6 -14.5q0 -5 -2 -9l-85 -218q-4 -10 -13 -20t-27 -10h-85zM92 350q-11 0 -18.5 7.5t-7.5 18.5v142q0 11 7.5 19t18.5 8h150q11 0 18.5 -8t7.5 -19v-142q0 -11 -7.5 -18.5t-18.5 -7.5h-150
z" />
    <glyph glyph-name="less" unicode="&#x3c;" horiz-adv-x="527" 
d="M450 -1q-2 0 -6 1t-8 4l-380 257q-14 10 -21.5 19t-7.5 24v36q0 16 7.5 25t21.5 18l380 258q4 2 8 3t6 1q9 0 15 -5.5t6 -14.5v-135q0 -18 -10 -27t-20 -15l-196 -126l196 -127q10 -5 20 -13.5t10 -26.5v-135q0 -9 -6 -15t-15 -6z" />
    <glyph glyph-name="equal" unicode="=" horiz-adv-x="565" 
d="M83 351q-11 0 -18.5 7.5t-7.5 18.5v96q0 11 7.5 19t18.5 8h399q11 0 18.5 -8t7.5 -19v-96q0 -11 -7.5 -18.5t-18.5 -7.5h-399zM83 101q-11 0 -18.5 7.5t-7.5 18.5v96q0 11 7.5 19t18.5 8h399q11 0 18.5 -8t7.5 -19v-96q0 -11 -7.5 -18.5t-18.5 -7.5h-399z" />
    <glyph glyph-name="greater" unicode="&#x3e;" horiz-adv-x="527" 
d="M77 -2q-9 0 -15 6t-6 15v135q0 18 10.5 26.5t19.5 14.5l197 127l-197 126q-9 5 -19.5 14.5t-10.5 26.5v135q0 9 6 15t15 6q3 0 6.5 -1.5t7.5 -3.5l381 -258q14 -9 21.5 -18t7.5 -24v-37q0 -15 -7.5 -24t-21.5 -18l-381 -258q-4 -2 -7.5 -3.5t-6.5 -1.5z" />
    <glyph glyph-name="question" unicode="?" horiz-adv-x="625" 
d="M230 232q-8 0 -14 6t-6 13v8t1 8q8 31 25.5 57.5t40 49.5t44 42.5t35.5 38t15 35.5q0 16 -7.5 27.5t-20 17.5t-28.5 6q-35 0 -52 -15.5t-25 -40.5q-4 -11 -11 -18t-23 -7h-154q-9 0 -16.5 8t-7.5 21q1 39 20 78t56.5 71.5t94 52t133.5 19.5q81 0 133 -19t81.5 -48.5
t41.5 -61.5t11 -58q0 -34 -11.5 -62t-29.5 -51.5t-38 -45t-38 -42t-31 -42.5q-2 -5 -4.5 -9.5t-4.5 -10.5q-8 -14 -14.5 -21t-18.5 -7h-177zM236 0q-11 0 -18.5 7.5t-7.5 18.5v136q0 11 7.5 19t18.5 8h156q10 0 18 -8t8 -19v-136q0 -11 -8 -18.5t-18 -7.5h-156z" />
    <glyph glyph-name="at" unicode="@" horiz-adv-x="850" 
d="M436 -136q-128 0 -212 42.5t-127 115.5t-52 163q-1 14 -1.5 37.5t-0.5 49.5t0.5 48.5t1.5 35.5q6 62 31 119.5t71.5 103.5t114.5 73.5t158 27.5q109 0 182 -25t117.5 -69.5t66 -103t26.5 -126.5q2 -18 2 -41t-0.5 -45t-1.5 -38q-3 -49 -26.5 -83.5t-59 -52t-74.5 -17.5
q-33 0 -58.5 8t-42.5 19t-26 21q-7 -12 -20 -25.5t-39 -23t-71 -9.5q-75 0 -117.5 56t-42.5 148q0 93 41 149t115 56q38 0 61 -12t38 -33v11q0 11 8 18.5t18 7.5h62q11 0 18.5 -7.5t7.5 -18.5v-198q0 -28 12.5 -43t35.5 -15q18 0 28.5 8.5t15 21.5t4.5 28q0 24 0.5 51
t-1.5 54q-3 76 -30 124.5t-86.5 72t-162.5 23.5q-86 0 -141 -28.5t-83.5 -78t-36.5 -113.5q-2 -17 -2.5 -48t0 -62.5t2.5 -50.5q12 -101 77 -159t200 -58q59 0 94 6t58 17t42 26q10 7 16.5 10.5t16.5 3.5h84q11 0 19 -7t7 -20q0 -4 -2 -7.5t-4 -7.5q-29 -33 -73.5 -63
t-108 -48.5t-149.5 -18.5zM419 178q35 0 53 21.5t18 73.5t-18 74t-53 22q-33 0 -52 -22t-19 -74q0 -33 8.5 -54.5t24.5 -31t38 -9.5z" />
    <glyph glyph-name="A" unicode="A" horiz-adv-x="735" 
d="M26 0q-9 0 -15 6.5t-6 15.5q0 4 1 7l228 640q4 11 14 21t28 10h183q19 0 29 -10t13 -21l229 -640q1 -3 1 -7q0 -9 -6.5 -15.5t-15.5 -6.5h-154q-17 0 -25 8t-11 15l-31 84h-241l-31 -84q-3 -7 -10.5 -15t-25.5 -8h-154zM293 276h149l-75 225z" />
    <glyph glyph-name="B" unicode="B" horiz-adv-x="719" 
d="M88 0q-10 0 -18 7.5t-8 18.5v648q0 11 8 18.5t18 7.5h319q91 0 149 -24t86 -69t28 -111q0 -34 -13.5 -60.5t-32.5 -44t-36 -25.5q39 -17 68 -57.5t29 -92.5q0 -70 -31.5 -118t-91 -73t-145.5 -25h-329zM277 151h117q34 0 50 20.5t16 45.5q0 26 -17 45.5t-49 19.5h-117
v-131zM277 429h107q32 0 47 18t15 42t-15 42t-47 18h-107v-120z" />
    <glyph glyph-name="C" unicode="C" horiz-adv-x="718" 
d="M364 -10q-95 0 -166 29.5t-111.5 89.5t-44.5 152q-1 41 -1 88t1 90q4 90 45.5 150.5t113 90.5t163.5 30q66 0 123.5 -15.5t102.5 -47t71 -77.5t27 -108q0 -9 -6.5 -15.5t-15.5 -6.5h-169q-15 0 -22 6t-12 21q-13 43 -38 58t-61 15q-44 0 -70 -23.5t-28 -82.5
q-3 -82 0 -168q2 -59 28 -82.5t70 -23.5q36 0 61.5 16t37.5 57q4 16 11.5 21.5t22.5 5.5h169q9 0 15.5 -6t6.5 -15q-1 -62 -27 -108.5t-71 -78t-102.5 -47t-123.5 -15.5z" />
    <glyph glyph-name="D" unicode="D" horiz-adv-x="728" 
d="M88 0q-10 0 -18 7.5t-8 18.5v648q0 11 8 18.5t18 7.5h274q97 0 168 -31.5t112 -92.5t44 -150q2 -43 2 -76t-2 -75q-4 -94 -42.5 -155t-108.5 -90.5t-168 -29.5h-279zM277 170h85q33 0 56 11t36 34.5t14 60.5q1 29 1.5 52t0 46t-1.5 51q-2 55 -31.5 80t-79.5 25h-80v-360z
" />
    <glyph glyph-name="E" unicode="E" horiz-adv-x="653" 
d="M88 0q-10 0 -18 7.5t-8 18.5v648q0 11 8 18.5t18 7.5h490q11 0 19 -7.5t8 -18.5v-118q0 -10 -8 -18t-19 -8h-309v-99h287q11 0 19 -7.5t8 -18.5v-108q0 -11 -8 -18.5t-19 -7.5h-287v-101h317q11 0 19 -8t8 -19v-117q0 -11 -8 -18.5t-19 -7.5h-498z" />
    <glyph glyph-name="F" unicode="F" horiz-adv-x="632" 
d="M88 0q-10 0 -18 7.5t-8 18.5v648q0 11 8 18.5t18 7.5h482q11 0 19 -7.5t8 -18.5v-127q0 -10 -8 -18t-19 -8h-297v-110h277q11 0 19 -7.5t8 -18.5v-126q0 -11 -8 -18.5t-19 -7.5h-277v-207q0 -11 -7.5 -18.5t-18.5 -7.5h-159z" />
    <glyph glyph-name="G" unicode="G" horiz-adv-x="736" 
d="M367 -10q-99 0 -170 30.5t-111 91.5t-43 151q-1 42 -1 90.5t1 91.5q3 87 43.5 146t112.5 89t168 30q77 0 137 -18t102.5 -49t65 -69.5t23.5 -79.5q0 -9 -6.5 -15t-15.5 -6h-184q-10 0 -16 3t-11 9q-5 10 -15.5 23t-29.5 22.5t-50 9.5q-47 0 -73 -24t-28 -76
q-3 -84 0 -172q2 -57 29.5 -82.5t74.5 -25.5q31 0 55.5 10t38.5 31.5t14 55.5v10h-71q-11 0 -18.5 8t-7.5 18v93q0 11 7.5 18.5t18.5 7.5h263q11 0 19 -7.5t8 -18.5v-122q0 -88 -42 -149t-116 -93t-172 -32z" />
    <glyph glyph-name="H" unicode="H" horiz-adv-x="759" 
d="M88 0q-10 0 -18 7t-8 19v648q0 11 8 18.5t18 7.5h163q11 0 18.5 -7.5t7.5 -18.5v-226h204v226q0 11 8 18.5t18 7.5h163q11 0 18.5 -7.5t7.5 -18.5v-648q0 -11 -7.5 -18.5t-18.5 -7.5h-163q-10 0 -18 7.5t-8 18.5v232h-204v-232q0 -11 -7.5 -18.5t-18.5 -7.5h-163z" />
    <glyph glyph-name="I" unicode="I" horiz-adv-x="346" 
d="M88 0q-10 0 -18 7.5t-8 18.5v648q0 11 8 18.5t18 7.5h170q11 0 18.5 -7.5t7.5 -18.5v-648q0 -11 -7.5 -18.5t-18.5 -7.5h-170z" />
    <glyph glyph-name="J" unicode="J" horiz-adv-x="686" 
d="M320 -10q-60 0 -114 15.5t-96.5 45.5t-67 74t-25.5 102q0 9 6 15.5t15 6.5h170q16 0 23.5 -7t13.5 -23q7 -20 17.5 -33.5t26.5 -19.5t37 -6q39 0 60.5 25t21.5 79v260h-311q-11 0 -18.5 7.5t-7.5 18.5v124q0 11 7.5 18.5t18.5 7.5h507q11 0 18.5 -7.5t7.5 -18.5v-417
q0 -89 -40.5 -148.5t-111 -89t-158.5 -29.5z" />
    <glyph glyph-name="K" unicode="K" horiz-adv-x="689" 
d="M88 0q-10 0 -18 7.5t-8 18.5v648q0 11 8 18.5t18 7.5h159q11 0 18.5 -7.5t7.5 -18.5v-210l149 215q5 7 14 14t25 7h183q9 0 15.5 -6.5t6.5 -15.5q0 -6 -4 -11l-210 -302l228 -332q4 -4 4 -11q0 -9 -6.5 -15.5t-15.5 -6.5h-188q-20 0 -29.5 9t-11.5 13l-160 232v-228
q0 -11 -7.5 -18.5t-18.5 -7.5h-159z" />
    <glyph glyph-name="L" unicode="L" horiz-adv-x="611" 
d="M88 0q-10 0 -18 7.5t-8 18.5v648q0 11 8 18.5t18 7.5h166q11 0 19 -7.5t8 -18.5v-496h289q11 0 19 -7.5t8 -18.5v-126q0 -11 -8 -18.5t-19 -7.5h-482z" />
    <glyph glyph-name="M" unicode="M" horiz-adv-x="842" 
d="M89 0q-11 0 -19 7.5t-8 18.5v648q0 11 8 18.5t19 7.5h133q18 0 27 -10t12 -14l160 -278l160 278q3 4 12 14t27 10h133q11 0 18.5 -7.5t7.5 -18.5v-648q0 -11 -7.5 -18.5t-18.5 -7.5h-150q-11 0 -18.5 7.5t-7.5 18.5v324l-90 -158q-5 -8 -13 -16t-23 -8h-61q-14 0 -22 8
t-13 16l-90 158v-324q0 -11 -7.5 -18.5t-18.5 -7.5h-150z" />
    <glyph glyph-name="N" unicode="N" horiz-adv-x="730" 
d="M88 0q-10 0 -18 7.5t-8 18.5v648q0 11 8 18.5t18 7.5h133q18 0 26 -8t11 -13l206 -331v326q0 11 8 18.5t19 7.5h150q11 0 18.5 -7.5t7.5 -18.5v-648q0 -11 -7.5 -18.5t-18.5 -7.5h-132q-18 0 -26.5 8.5t-11.5 12.5l-206 313v-308q0 -11 -7.5 -18.5t-18.5 -7.5h-151z" />
    <glyph glyph-name="O" unicode="O" horiz-adv-x="727" 
d="M364 -10q-96 0 -166.5 30t-111 90.5t-43.5 150.5q-1 42 -1 86.5t1 88.5q3 89 43.5 150t111.5 92.5t166 31.5q94 0 165 -31.5t112 -92.5t43 -150q2 -44 2 -88.5t-2 -86.5q-3 -90 -43.5 -150.5t-111 -90.5t-165.5 -30zM364 160q42 0 69 25.5t28 81.5q2 43 2 83.5t-2 82.5
q-1 37 -13.5 61t-34 35t-49.5 11t-50 -11t-34.5 -35t-13.5 -61q-1 -42 -1 -82.5t1 -83.5q2 -56 28.5 -81.5t69.5 -25.5z" />
    <glyph glyph-name="P" unicode="P" horiz-adv-x="691" 
d="M88 0q-10 0 -18 7.5t-8 18.5v648q0 11 8 18.5t18 7.5h292q87 0 151.5 -26t100.5 -79t36 -133t-36 -131.5t-100.5 -75.5t-151.5 -24h-95v-205q0 -11 -7.5 -18.5t-18.5 -7.5h-171zM281 392h94q29 0 49.5 17.5t20.5 54.5q0 29 -16 51.5t-54 22.5h-94v-146z" />
    <glyph glyph-name="Q" unicode="Q" horiz-adv-x="727" 
d="M507 -65q-17 0 -26 8.5t-14 14.5l-31 40q-33 -8 -73 -8q-95 0 -166 30t-111 90.5t-44 150.5q-1 42 -1 86.5t1 88.5q4 89 44 150t111 92.5t166 31.5q94 0 165 -31.5t112 -92.5t44 -150q2 -44 2 -88.5t-2 -86.5q-6 -118 -73 -186l77 -109q1 -1 2 -4t1 -5q1 -9 -5.5 -15.5
t-14.5 -6.5h-164zM363 160q43 0 69.5 25.5t28.5 81.5q2 43 2 83.5t-2 82.5q-2 37 -14.5 61t-34 35t-49.5 11t-49.5 -11t-34.5 -35t-14 -61q-1 -42 -1 -82.5t1 -83.5q2 -56 28.5 -81.5t69.5 -25.5z" />
    <glyph glyph-name="R" unicode="R" horiz-adv-x="707" 
d="M88 0q-10 0 -18 7.5t-8 18.5v648q0 11 8 18.5t18 7.5h285q136 0 213.5 -62t77.5 -173q0 -70 -32 -119t-84 -77l130 -236q3 -6 3 -11q0 -9 -6 -15.5t-15 -6.5h-169q-19 0 -29 9.5t-13 17.5l-100 206h-72v-207q0 -11 -7.5 -18.5t-18.5 -7.5h-163zM277 398h95q35 0 52 19.5
t17 48.5q0 30 -16.5 51t-52.5 21h-95v-140z" />
    <glyph glyph-name="S" unicode="S" horiz-adv-x="680" 
d="M339 -10q-105 0 -174.5 29.5t-104 77t-36.5 100.5q0 9 6 15t15 6h159q14 0 22 -4.5t17 -12.5q9 -11 21 -20.5t31 -15t44 -5.5q46 0 71 12.5t25 34.5q0 17 -13.5 28t-45.5 20t-87 19q-77 13 -133 38.5t-85.5 69t-29.5 107.5q0 65 36.5 115t102 78t152.5 28q72 0 127.5 -19
t93.5 -49.5t58 -65.5t21 -67q0 -9 -6.5 -15.5t-14.5 -6.5h-167q-12 0 -20 4t-16 13q-5 14 -25 25t-51 11q-34 0 -52 -11.5t-18 -33.5q0 -15 11 -26t39 -19.5t78 -18.5q95 -14 153.5 -40t85.5 -68t27 -105q0 -71 -41 -122t-112.5 -78.5t-163.5 -27.5z" />
    <glyph glyph-name="T" unicode="T" horiz-adv-x="652" 
d="M243 0q-11 0 -18.5 7.5t-7.5 18.5v488h-172q-11 0 -18.5 7.5t-7.5 18.5v134q0 11 7.5 18.5t18.5 7.5h562q11 0 18.5 -7.5t7.5 -18.5v-134q0 -11 -7.5 -18.5t-18.5 -7.5h-172v-488q0 -11 -7.5 -18.5t-18.5 -7.5h-166z" />
    <glyph glyph-name="U" unicode="U" horiz-adv-x="736" 
d="M369 -10q-93 0 -163.5 29t-110 90.5t-39.5 155.5v409q0 11 8 18.5t18 7.5h163q11 0 18.5 -7.5t7.5 -18.5v-406q0 -51 25 -77t72 -26t71.5 26t24.5 77v406q0 11 8 18.5t19 7.5h162q11 0 18.5 -7.5t7.5 -18.5v-409q0 -94 -39 -155.5t-109 -90.5t-162 -29z" />
    <glyph glyph-name="V" unicode="V" horiz-adv-x="710" 
d="M260 0q-19 0 -29.5 10t-13.5 21l-197 640q-1 4 -1 7q0 9 6.5 15.5t15.5 6.5h155q18 0 28 -10t13 -20l118 -417l118 417q3 10 13 20t28 10h155q9 0 15 -6.5t6 -15.5q0 -3 -1 -7l-196 -640q-3 -11 -13.5 -21t-29.5 -10h-190z" />
    <glyph glyph-name="W" unicode="W" horiz-adv-x="843" 
d="M172 0q-19 0 -29.5 11t-13.5 24l-100 639v2v2q0 9 6 15.5t15 6.5h155q31 0 34 -25l49 -336l57 178q2 8 9 18t24 10h87q17 0 24 -10t10 -18l56 -177l50 335q3 25 33 25h155q9 0 15.5 -6.5t6.5 -15.5v-2t-1 -2l-100 -639q-1 -13 -12.5 -24t-30.5 -11h-119q-18 0 -27 9.5
t-12 16.5l-91 246l-92 -246q-2 -7 -11.5 -16.5t-27.5 -9.5h-119z" />
    <glyph glyph-name="X" unicode="X" horiz-adv-x="715" 
d="M27 0q-9 0 -15 6.5t-6 15.5q0 2 0.5 4.5t2.5 6.5l214 325l-195 309q-4 6 -4 11q0 9 6.5 15.5t15.5 6.5h181q17 0 26 -9t12 -14l95 -152l99 152q3 5 12 14t26 9h172q9 0 15.5 -6.5t6.5 -15.5q0 -6 -3 -11l-199 -307l217 -327q2 -4 2.5 -6.5t0.5 -4.5q0 -9 -6.5 -15.5
t-14.5 -6.5h-188q-16 0 -25.5 8.5t-11.5 13.5l-110 163l-107 -163q-2 -5 -11 -13.5t-26 -8.5h-182z" />
    <glyph glyph-name="Y" unicode="Y" horiz-adv-x="695" 
d="M266 0q-11 0 -18.5 7.5t-7.5 18.5v206l-228 437q-1 2 -2 4.5t-1 4.5q0 9 6.5 15.5t15.5 6.5h156q18 0 27 -9t12 -14l122 -230l122 230q2 5 11.5 14t26.5 9h157q8 0 14.5 -6.5t6.5 -15.5q0 -2 -0.5 -4.5t-1.5 -4.5l-229 -437v-206q0 -11 -7.5 -18.5t-18.5 -7.5h-163z" />
    <glyph glyph-name="Z" unicode="Z" horiz-adv-x="672" 
d="M62 0q-10 0 -18 7.5t-8 18.5v121q0 14 6 23t9 13l302 341h-281q-11 0 -18.5 7.5t-7.5 18.5v124q0 11 7.5 18.5t18.5 7.5h526q11 0 19 -7.5t8 -18.5v-119q0 -11 -4 -19.5t-9 -14.5l-289 -343h288q11 0 18.5 -7.5t7.5 -18.5v-126q0 -11 -7.5 -18.5t-18.5 -7.5h-549z" />
    <glyph glyph-name="bracketleft" unicode="[" horiz-adv-x="407" 
d="M82 -159q-11 0 -18.5 7.5t-7.5 18.5v883q0 11 7.5 18.5t18.5 7.5h275q10 0 18 -7.5t8 -18.5v-107q0 -11 -8 -19t-18 -8h-118v-601h118q10 0 18 -7.5t8 -18.5v-122q0 -11 -8 -18.5t-18 -7.5h-275z" />
    <glyph glyph-name="backslash" unicode="\" horiz-adv-x="556" 
d="M402 -84q-18 0 -27 9t-13 18l-339 812q-2 5 -2 9q0 9 6.5 15.5t15.5 6.5h112q17 0 26.5 -8.5t13.5 -18.5l336 -812q3 -5 3 -9q0 -9 -6.5 -15.5t-15.5 -6.5h-110z" />
    <glyph glyph-name="bracketright" unicode="]" horiz-adv-x="407" 
d="M51 -159q-11 0 -18.5 7.5t-7.5 18.5v122q0 11 7.5 18.5t18.5 7.5h118v601h-118q-11 0 -18.5 8t-7.5 19v107q0 11 7.5 18.5t18.5 7.5h274q11 0 18.5 -7.5t7.5 -18.5v-883q0 -11 -7.5 -18.5t-18.5 -7.5h-274z" />
    <glyph glyph-name="asciicircum" unicode="^" horiz-adv-x="478" 
d="M55 591q-15 0 -15 15q0 8 6 15l107 115q11 11 18.5 14.5t17.5 3.5h100q10 0 18 -3.5t18 -14.5l107 -115q6 -7 6 -15q0 -15 -15 -15h-57q-9 0 -18 1.5t-19 5.5l-90 46l-90 -46q-9 -4 -18.5 -5.5t-18.5 -1.5h-57z" />
    <glyph glyph-name="underscore" unicode="_" horiz-adv-x="730" 
d="M65 -85q-10 0 -18 7.5t-8 18.5v118q0 11 8 18.5t18 7.5h600q11 0 18.5 -7.5t7.5 -18.5v-118q0 -11 -7.5 -18.5t-18.5 -7.5h-600z" />
    <glyph glyph-name="grave" unicode="`" horiz-adv-x="424" 
d="M241 595q-15 0 -23.5 4.5t-16.5 11.5l-140 115q-5 5 -5 12q0 20 19 20h159q12 0 19.5 -3.5t17.5 -15.5l94 -115q5 -5 5 -13q0 -16 -16 -16h-113z" />
    <glyph glyph-name="a" unicode="a" horiz-adv-x="606" 
d="M213 -10q-55 0 -98.5 21t-68 56.5t-24.5 79.5q0 72 58.5 113.5t156.5 57.5l116 18v7q0 31 -10 46.5t-40 15.5q-21 0 -34 -8t-24 -23q-10 -11 -26 -11h-141q-10 0 -16.5 6t-5.5 16q1 18 15 42.5t43.5 48t76.5 39t113 15.5q67 0 115 -15t79 -42t46 -65.5t15 -85.5v-296
q0 -11 -7.5 -18.5t-18.5 -7.5h-145q-11 0 -19 7.5t-8 18.5v32q-13 -20 -34.5 -35t-50 -24t-63.5 -9zM271 121q25 0 44 10.5t29.5 32.5t10.5 55v7l-72 -14q-37 -7 -52 -20t-15 -30q0 -12 7 -21t19.5 -14.5t28.5 -5.5z" />
    <glyph glyph-name="b" unicode="b" horiz-adv-x="646" 
d="M397 -10q-54 0 -90.5 17.5t-61.5 46.5v-28q0 -11 -7.5 -18.5t-18.5 -7.5h-141q-11 0 -18.5 7.5t-7.5 18.5v658q0 11 7.5 18.5t18.5 7.5h154q10 0 18 -7.5t8 -18.5v-207q24 24 58.5 38.5t80.5 14.5q47 0 85 -15.5t66 -44.5t44 -72.5t18 -99.5q1 -21 1 -37t-1 -38
q-3 -59 -19 -103t-44 -73t-65.5 -43t-84.5 -14zM329 146q26 0 40.5 10.5t21 29t8.5 42.5q3 32 0 64q-2 24 -8.5 42.5t-21 29t-40.5 10.5q-25 0 -40 -10t-22.5 -26t-8.5 -37q-1 -20 -1 -36.5t1 -38.5t7.5 -40t22 -29t41.5 -11z" />
    <glyph glyph-name="c" unicode="c" horiz-adv-x="606" 
d="M304 -10q-75 0 -134.5 26.5t-95 78t-39.5 124.5q-1 16 -1 40t1 41q4 74 39 125.5t95 78t135 26.5q74 0 126.5 -21t85 -52t48.5 -62t17 -52q1 -11 -7.5 -18.5t-18.5 -7.5h-161q-11 0 -17 5t-11 15q-10 22 -23 32.5t-35 10.5q-31 0 -46 -21.5t-16 -63.5q-2 -41 0 -71
q2 -43 16.5 -63.5t45.5 -20.5q25 0 37 10.5t21 32.5q4 10 10.5 15.5t17.5 5.5h161q10 0 18.5 -8t7.5 -19q-1 -14 -10.5 -37.5t-29 -49t-51.5 -48.5t-78 -37.5t-108 -14.5z" />
    <glyph glyph-name="d" unicode="d" horiz-adv-x="646" 
d="M249 -10q-46 0 -84 14t-66 43t-44 73t-19 103q-1 22 -1 38t1 37q2 56 18 99.5t44 72.5t66.5 44.5t84.5 15.5q45 0 80 -14.5t59 -38.5v207q0 11 8 18.5t18 7.5h154q11 0 18.5 -7.5t7.5 -18.5v-658q0 -11 -7.5 -18.5t-18.5 -7.5h-141q-11 0 -19 7.5t-8 18.5v28
q-24 -29 -60.5 -46.5t-90.5 -17.5zM317 146q26 0 41.5 11t22 29t7.5 40q2 22 2 38.5t-2 36.5q-1 21 -8.5 37t-22.5 26t-40 10t-40 -10.5t-21.5 -29t-8.5 -42.5q-3 -32 0 -64q2 -24 8.5 -42.5t21.5 -29t40 -10.5z" />
    <glyph glyph-name="e" unicode="e" horiz-adv-x="609" 
d="M307 -10q-125 0 -198.5 64.5t-75.5 197.5v10.5v9.5q3 83 36.5 140.5t94 87.5t142.5 30q92 0 152.5 -36.5t90.5 -97t30 -135.5v-28q0 -10 -8 -18t-19 -8h-308v-2v-4q0 -24 6.5 -42.5t20.5 -29t34 -10.5q13 0 22 4t16 10.5t12 12.5q9 9 14.5 11.5t17.5 2.5h157q9 0 15.5 -6
t5.5 -15q-1 -18 -17 -43.5t-47.5 -49.5t-80.5 -40t-113 -16zM244 319h124v2q0 27 -7 46t-21 28.5t-34 9.5t-34 -9.5t-21 -28.5t-7 -46v-2z" />
    <glyph glyph-name="f" unicode="f" horiz-adv-x="467" 
d="M141 0q-11 0 -18.5 7.5t-7.5 18.5v341h-73q-11 0 -18.5 7.5t-7.5 18.5v101q0 11 7.5 18.5t18.5 7.5h73v25q0 75 30.5 117.5t84.5 60t124 17.5h85q11 0 19 -7.5t8 -18.5v-101q0 -11 -8 -18.5t-19 -7.5h-75q-28 0 -40 -12.5t-12 -34.5v-20h117q11 0 19 -7.5t8 -18.5v-101
q0 -11 -8 -18.5t-19 -7.5h-117v-341q0 -11 -7.5 -18.5t-18.5 -7.5h-145z" />
    <glyph glyph-name="g" unicode="g" horiz-adv-x="650" 
d="M326 -220q-81 0 -134.5 20.5t-85.5 50t-45.5 58t-14.5 44.5q-1 11 7 18.5t19 7.5h161q10 0 16.5 -5t10.5 -15q5 -9 11.5 -18t18.5 -14t31 -5q23 0 37.5 8t22 25t7.5 45v67q-24 -23 -58.5 -36.5t-81.5 -13.5q-49 0 -87.5 13.5t-65 41.5t-42 71t-17.5 103q-1 26 0 52
q2 56 17 99.5t42 72.5t65.5 44.5t87.5 15.5q52 0 90 -19.5t62 -50.5v34q0 11 7.5 18.5t18.5 7.5h145q11 0 18.5 -7.5t7.5 -18.5l1 -478q0 -81 -34.5 -133t-95.5 -77.5t-142 -25.5zM317 169q24 0 39 10t22.5 26.5t9.5 37.5q1 9 1 29t-1 28q-2 21 -9.5 37.5t-22.5 26.5t-39 10
q-26 0 -41 -10.5t-21.5 -29t-8.5 -42.5q-2 -21 0 -41q2 -24 8.5 -42.5t21.5 -29t41 -10.5z" />
    <glyph glyph-name="h" unicode="h" horiz-adv-x="667" 
d="M78 0q-11 0 -18.5 7.5t-7.5 18.5v658q0 11 7.5 18.5t18.5 7.5h162q10 0 18 -7.5t8 -18.5v-219q26 30 65.5 47.5t89.5 17.5q54 0 99.5 -25t73 -75t27.5 -126v-278q0 -11 -8 -18.5t-18 -7.5h-163q-11 0 -18.5 7.5t-7.5 18.5v271q0 37 -18 57t-51 20t-52 -20t-19 -57v-271
q0 -11 -8 -18.5t-18 -7.5h-162z" />
    <glyph glyph-name="i" unicode="i" horiz-adv-x="304" 
d="M78 0q-11 0 -18.5 7.5t-7.5 18.5v468q0 11 7.5 18.5t18.5 7.5h148q11 0 19 -7.5t8 -18.5v-468q0 -11 -8 -18.5t-19 -7.5h-148zM80 585q-11 0 -18.5 7.5t-7.5 18.5v105q0 11 7.5 19t18.5 8h144q11 0 19 -8t8 -19v-105q0 -11 -8 -18.5t-19 -7.5h-144z" />
    <glyph glyph-name="j" unicode="j" horiz-adv-x="324" 
d="M-36 -190q-10 0 -18 7.5t-8 18.5v101q0 11 8 18.5t18 7.5h48q20 0 31.5 7.5t16 22t4.5 31.5v470q0 11 7.5 18.5t18.5 7.5h156q11 0 18.5 -7.5t7.5 -18.5v-475q0 -69 -29.5 -115.5t-82.5 -70t-123 -23.5h-73zM92 585q-11 0 -18.5 7.5t-7.5 18.5v105q0 11 7.5 19t18.5 8
h152q11 0 18.5 -8t7.5 -19v-105q0 -11 -7.5 -18.5t-18.5 -7.5h-152z" />
    <glyph glyph-name="k" unicode="k" horiz-adv-x="614" 
d="M78 0q-11 0 -18.5 7.5t-7.5 18.5v658q0 11 7.5 18.5t18.5 7.5h145q11 0 18.5 -7.5t7.5 -18.5v-330l114 149q4 5 11 11t20 6h168q10 0 16.5 -6.5t6.5 -16.5q0 -4 -1.5 -9t-4.5 -7l-159 -195l184 -248q5 -8 5 -15q0 -10 -6.5 -16.5t-16.5 -6.5h-174q-15 0 -21.5 6.5
t-11.5 10.5l-130 180v-171q0 -11 -7.5 -18.5t-18.5 -7.5h-145z" />
    <glyph glyph-name="l" unicode="l" horiz-adv-x="305" 
d="M78 0q-11 0 -18.5 7.5t-7.5 18.5v658q0 11 7.5 18.5t18.5 7.5h149q10 0 18 -7.5t8 -18.5v-658q0 -11 -8 -18.5t-18 -7.5h-149z" />
    <glyph glyph-name="m" unicode="m" horiz-adv-x="927" 
d="M78 0q-11 0 -18.5 7.5t-7.5 18.5v468q0 11 7.5 18.5t18.5 7.5h137q11 0 18.5 -7.5t7.5 -18.5v-33q19 24 55 45.5t85 23.5q117 3 158 -84q23 36 65.5 60t90.5 24q52 0 93.5 -23.5t66.5 -72t25 -126.5v-282q0 -11 -7.5 -18.5t-18.5 -7.5h-146q-11 0 -18.5 7.5t-7.5 18.5
v276q0 26 -8 41.5t-20.5 23t-29.5 7.5q-16 0 -29 -7.5t-20.5 -23t-7.5 -41.5v-276q0 -11 -7.5 -18.5t-18.5 -7.5h-146q-11 0 -18.5 7.5t-7.5 18.5v276q0 26 -8 41.5t-20.5 23t-29.5 7.5q-16 0 -29 -8t-21 -23t-8 -41v-276q0 -11 -7.5 -18.5t-18.5 -7.5h-149z" />
    <glyph glyph-name="n" unicode="n" horiz-adv-x="658" 
d="M78 0q-11 0 -18.5 7.5t-7.5 18.5v468q0 11 7.5 18.5t18.5 7.5h145q11 0 18.5 -7.5t7.5 -18.5v-36q26 30 69 51t98 21q54 0 98 -25t71 -75t27 -126v-278q0 -11 -8 -18.5t-19 -7.5h-158q-11 0 -18.5 7.5t-7.5 18.5v271q0 37 -18 57t-51 20t-52 -20t-19 -57v-271
q0 -11 -7.5 -18.5t-18.5 -7.5h-157z" />
    <glyph glyph-name="o" unicode="o" horiz-adv-x="626" 
d="M313 -10q-88 0 -148.5 26t-92.5 76.5t-36 121.5q-1 21 -1 46t1 46q4 72 38 122t94.5 76t144.5 26t144.5 -26t94.5 -76t38 -122q2 -21 2 -46t-2 -46q-4 -71 -36 -121.5t-92.5 -76.5t-148.5 -26zM313 131q37 0 51 22t16 66q1 15 1 41t-1 41q-2 43 -16 65.5t-51 22.5
q-36 0 -50 -22.5t-17 -65.5q-1 -15 -1 -41t1 -41q3 -44 17 -66t50 -22z" />
    <glyph glyph-name="p" unicode="p" horiz-adv-x="646" 
d="M78 -190q-11 0 -18.5 7.5t-7.5 18.5v658q0 11 7.5 18.5t18.5 7.5h141q11 0 18.5 -7.5t7.5 -18.5v-33q24 30 61 49.5t91 19.5q47 0 84.5 -14t65.5 -42.5t44 -72.5t19 -103q1 -21 1 -38t-1 -39q-2 -56 -18 -99t-44 -72.5t-66 -44.5t-85 -15q-46 0 -81 15.5t-58 48.5v-218
q0 -11 -8 -18.5t-18 -7.5h-154zM329 146q26 0 40.5 10.5t21 29t8.5 42.5q3 32 0 64q-2 24 -8.5 42.5t-21 29t-40.5 10.5t-41.5 -11t-22 -29t-7.5 -40q-1 -21 -1 -37.5t1 -37.5t8.5 -37t22.5 -26t40 -10z" />
    <glyph glyph-name="q" unicode="q" horiz-adv-x="646" 
d="M415 -190q-11 0 -19 7.5t-8 18.5v218q-22 -33 -57.5 -48.5t-81.5 -15.5t-84.5 15t-66.5 44.5t-43.5 72.5t-17.5 99q-1 22 -1 39t1 38q2 59 18 103t44 72.5t66 42.5t84 14q54 0 91.5 -19.5t60.5 -49.5v33q0 11 7.5 18.5t18.5 7.5h141q11 0 18.5 -7.5t7.5 -18.5v-658
q0 -11 -7.5 -18.5t-18.5 -7.5h-153zM317 146q25 0 40 10t22.5 26t8.5 37q2 21 2 37.5t-2 37.5q-1 22 -7.5 40t-21.5 29t-42 11q-25 0 -40 -10.5t-21.5 -29t-8.5 -42.5q-3 -32 0 -64q2 -24 8.5 -42.5t21.5 -29t40 -10.5z" />
    <glyph glyph-name="r" unicode="r" horiz-adv-x="486" 
d="M78 0q-11 0 -18.5 7.5t-7.5 18.5v468q0 11 7.5 18.5t18.5 7.5h145q11 0 18.5 -7.5t7.5 -18.5v-37q30 29 68.5 46t84.5 17h45q11 0 19 -7.5t8 -18.5v-129q0 -11 -8 -18.5t-19 -7.5h-112q-36 0 -55 -19t-19 -55v-239q0 -11 -7.5 -18.5t-18.5 -7.5h-157z" />
    <glyph glyph-name="s" unicode="s" horiz-adv-x="572" 
d="M281 -10q-68 0 -116 14.5t-78.5 36.5t-44.5 45.5t-15 41.5q-1 11 6.5 18.5t16.5 7.5h145q1 0 3 -0.5t4 -2.5q13 -4 24.5 -13t26 -16t34.5 -7q17 0 30.5 7.5t13.5 21.5q0 12 -7.5 21t-31.5 17.5t-77 18.5q-49 10 -89.5 29.5t-64 52.5t-23.5 81q0 41 27 79t80.5 62.5
t131.5 24.5q59 0 104.5 -14t77 -35t48 -45t17.5 -43q1 -11 -6 -18.5t-16 -7.5h-131q-3 0 -6.5 0.5t-5.5 2.5q-14 3 -25.5 11.5t-24.5 16t-33 7.5q-17 0 -27.5 -8t-10.5 -21q0 -11 7 -20t32 -17t79 -17q70 -11 112 -36.5t60 -59.5t18 -68q0 -51 -30.5 -89t-90 -58.5
t-144.5 -20.5z" />
    <glyph glyph-name="t" unicode="t" horiz-adv-x="500" 
d="M346 0q-68 0 -119.5 20t-80 65.5t-28.5 120.5v161h-79q-11 0 -18.5 7.5t-7.5 18.5v101q0 11 7.5 18.5t18.5 7.5h79v164q0 11 7.5 18.5t18.5 7.5h145q11 0 18.5 -7.5t7.5 -18.5v-164h126q11 0 18.5 -7.5t7.5 -18.5v-101q0 -11 -7.5 -18.5t-18.5 -7.5h-126v-144
q0 -29 12 -45.5t38 -16.5h84q11 0 18.5 -7.5t7.5 -18.5v-109q0 -11 -7.5 -18.5t-18.5 -7.5h-103z" />
    <glyph glyph-name="u" unicode="u" horiz-adv-x="657" 
d="M242 -10q-53 0 -97.5 25t-71 75t-26.5 126v278q0 11 7.5 18.5t18.5 7.5h158q11 0 18.5 -7.5t7.5 -18.5v-271q0 -77 69 -77q33 0 51.5 20t18.5 57v271q0 11 7.5 18.5t18.5 7.5h158q10 0 18 -7.5t8 -18.5v-468q0 -11 -8 -18.5t-18 -7.5h-146q-11 0 -18.5 7.5t-7.5 18.5v36
q-25 -37 -68 -54.5t-98 -17.5z" />
    <glyph glyph-name="v" unicode="v" horiz-adv-x="612" 
d="M240 0q-15 0 -22 8t-12 17l-191 464q-1 4 -1 8q0 9 7 16t16 7h142q14 0 21 -7.5t10 -14.5l96 -271l97 271q3 7 10 14.5t21 7.5h141q10 0 16.5 -7t6.5 -16q0 -4 -1 -8l-190 -464q-4 -9 -11.5 -17t-22.5 -8h-133z" />
    <glyph glyph-name="w" unicode="w" horiz-adv-x="853" 
d="M200 0q-15 0 -22.5 7.5t-10.5 17.5l-145 463q-1 5 -1 9q0 9 6.5 16t16.5 7h129q14 0 22 -7.5t9 -14.5l73 -247l77 246q2 7 10 15t23 8h79q15 0 23 -8t10 -15l77 -246l73 247q2 7 10 14.5t22 7.5h129q9 0 16 -7t7 -16q0 -4 -1 -9l-145 -463q-4 -10 -11 -17.5t-22 -7.5
h-112q-15 0 -22.5 7.5t-11.5 17.5l-81 238l-82 -238q-3 -10 -10.5 -17.5t-22.5 -7.5h-112z" />
    <glyph glyph-name="x" unicode="x" horiz-adv-x="609" 
d="M33 0q-10 0 -16.5 7t-6.5 16q0 3 1 7t4 8l164 230l-148 214q-2 3 -3.5 7t-1.5 8q0 9 7 16t16 7h153q14 0 21 -6.5t10 -11.5l75 -109l75 109q4 5 10.5 11.5t20.5 6.5h146q9 0 16 -7t7 -15q0 -5 -1 -9t-4 -7l-151 -214l167 -230q3 -4 4 -8t1 -7q0 -9 -7 -16t-16 -7h-160
q-13 0 -19 6t-10 11l-83 116l-86 -116q-3 -5 -9.5 -11t-19.5 -6h-156z" />
    <glyph glyph-name="y" unicode="y" horiz-adv-x="617" 
d="M152 -190q-9 0 -15.5 6t-6.5 15q0 2 0.5 5t1.5 7l80 189l-193 455q-2 6 -2 10q2 9 8.5 16t15.5 7h141q15 0 21.5 -7.5t9.5 -14.5l98 -260l101 260q4 8 11 15t21 7h140q8 0 15 -6.5t7 -14.5q0 -6 -2 -12l-282 -655q-4 -8 -11.5 -15t-21.5 -7h-137z" />
    <glyph glyph-name="z" unicode="z" horiz-adv-x="571" 
d="M63 0q-11 0 -18.5 7.5t-7.5 18.5v97q0 11 4.5 19.5t11.5 14.5l217 212h-199q-11 0 -18.5 8t-7.5 18v99q0 11 7.5 18.5t18.5 7.5h422q11 0 18.5 -7.5t7.5 -18.5v-106q0 -8 -3.5 -15.5t-10.5 -13.5l-209 -208h218q11 0 18.5 -8t7.5 -18v-99q0 -11 -7.5 -18.5t-18.5 -7.5
h-451z" />
    <glyph glyph-name="braceleft" unicode="{" horiz-adv-x="450" 
d="M399 -158q-58 1 -112 18.5t-96.5 53t-67 89.5t-24.5 128q0 37 -12.5 66t-41.5 42l-15 7q-28 13 -28 41v44q0 28 28 41l15 7q29 13 41.5 42.5t12.5 65.5q0 74 24.5 128t66.5 89t95.5 53t111.5 19h7q9 0 15.5 -6.5t6.5 -15.5v-114q0 -9 -6 -15t-14 -7h-3q-39 -4 -66 -19
t-41.5 -45t-14.5 -80q0 -64 -21.5 -108.5t-51.5 -56.5q20 -8 36.5 -32.5t26.5 -58.5t10 -74q0 -48 14 -78.5t41 -45.5t65 -19l5 -1q8 -1 14 -7t6 -15v-114q0 -9 -6.5 -15.5t-15.5 -6.5h-5z" />
    <glyph glyph-name="bar" unicode="|" horiz-adv-x="278" 
d="M83 -208q-11 0 -18.5 7.5t-7.5 18.5v1052q0 11 7.5 18.5t18.5 7.5h112q11 0 18.5 -7.5t7.5 -18.5v-1052q0 -11 -7.5 -18.5t-18.5 -7.5h-112z" />
    <glyph glyph-name="braceright" unicode="}" horiz-adv-x="450" 
d="M51 776q59 -1 112.5 -18.5t96 -53t66.5 -89.5t24 -128q0 -37 13 -66t42 -43l15 -6q28 -13 28 -41v-44q0 -28 -28 -41l-15 -7q-29 -13 -42 -42.5t-13 -65.5q0 -74 -24 -128t-66 -89.5t-95.5 -53t-112.5 -18.5h-6q-9 0 -15.5 6.5t-6.5 15.5v114q0 9 6 15t13 7h4q39 4 66 19
t41 45.5t14 79.5q0 64 22 108t52 57q-20 9 -37 32.5t-27 58t-10 74.5q0 49 -14 79t-40.5 45.5t-65.5 18.5l-5 1q-7 1 -13 7t-6 15v114q0 9 6.5 15.5t15.5 6.5h5z" />
    <glyph glyph-name="asciitilde" unicode="~" horiz-adv-x="552" 
d="M76 202q-13 0 -17 8.5t-4 25.5v92q0 20 14 37t38.5 27.5t57.5 10.5q36 0 63 -6.5t51 -14t50 -14t60 -6.5q24 0 42.5 10t26.5 17q4 3 8 5.5t11 2.5q12 0 16.5 -8t4.5 -25v-92q0 -20 -14 -37t-39 -27.5t-57 -10.5q-36 0 -63 6t-51 14t-50 14t-60 6q-24 0 -42 -9.5
t-27 -16.5q-4 -3 -8.5 -5.5t-10.5 -3.5z" />
    <glyph glyph-name="uni00A0" unicode="&#xa0;" horiz-adv-x="200" 
 />
    <glyph glyph-name="exclamdown" unicode="&#xa1;" horiz-adv-x="304" 
d="M225 273q11 0 18.5 -7.5t7.5 -18.5v-404q0 -10 -7.5 -18t-18.5 -8h-144q-11 0 -19 8t-8 18v404q0 11 8 18.5t19 7.5h144zM227 517q11 0 18.5 -7.5t7.5 -18.5v-148q0 -11 -7.5 -18.5t-18.5 -7.5h-148q-11 0 -19 7.5t-8 18.5v148q0 11 8 18.5t19 7.5h148z" />
    <glyph glyph-name="cent" unicode="&#xa2;" horiz-adv-x="612" 
d="M240 -100q-11 0 -18.5 7.5t-7.5 18.5v75q-78 20 -126.5 75.5t-52.5 142.5q-1 16 -1 40t1 41q4 87 52.5 143t126.5 75v66q0 11 7.5 18.5t18.5 7.5h124q11 0 18.5 -7.5t7.5 -18.5v-64q51 -11 87 -34t58.5 -50t33.5 -52t12 -41q1 -11 -7.5 -18.5t-18.5 -7.5h-161
q-11 0 -17 5t-11 15q-10 22 -23.5 32.5t-35.5 10.5q-31 0 -45.5 -21.5t-15.5 -63.5q-2 -41 0 -71q2 -43 16 -63.5t45 -20.5q24 0 37 10.5t22 32.5q4 10 10.5 15.5t17.5 5.5h161q10 0 18.5 -8t7.5 -19q-1 -13 -11.5 -38t-32.5 -52.5t-58 -51t-89 -35.5v-74q0 -11 -7.5 -18.5
t-18.5 -7.5h-124z" />
    <glyph glyph-name="sterling" unicode="&#xa3;" horiz-adv-x="739" 
d="M508 -9q-32 0 -59.5 6t-51.5 14.5t-46 17.5t-43.5 15t-42.5 6q-23 0 -37.5 -10t-23.5 -29q-1 -4 -5 -7.5t-11 -3.5h-129q-8 0 -13.5 5.5t-5.5 12.5q2 61 30.5 108t78.5 70q0 17 -2 33.5t-5 32.5h-75q-11 0 -18.5 7.5t-7.5 18.5v94q0 11 7.5 18.5t18.5 7.5h41
q-1 10 -1 19.5v20.5q0 88 33.5 146.5t98 87.5t157.5 29q87 0 154.5 -28.5t106.5 -82t40 -129.5q0 -9 -6.5 -15.5t-15.5 -6.5h-169q-14 0 -22.5 6t-15.5 21q-10 34 -27 49.5t-45 15.5q-35 0 -50.5 -24.5t-15.5 -69.5v-19.5t2 -19.5h131q11 0 18.5 -7.5t7.5 -18.5v-94
q0 -11 -7.5 -18.5t-18.5 -7.5h-126q1 -16 2 -33t0 -36q21 -4 38 -10t32 -12t30.5 -9.5t34.5 -3.5q29 0 47.5 13.5t30.5 34.5q3 4 7 7.5t11 3.5h111q9 0 14 -5.5t5 -13.5q-1 -66 -29.5 -112.5t-72 -70.5t-90.5 -24z" />
    <glyph glyph-name="currency" unicode="&#xa4;" horiz-adv-x="624" 
d="M115 40l-63 63q-7 8 -7 19t7 18l46 46q-29 51 -29 114q0 61 29 114l-46 46q-7 8 -7 18.5t7 18.5l63 63q8 8 19 8t18 -8l46 -46q25 13 54 21t60 8t59.5 -8t54.5 -21l46 46q7 8 18 8t18 -8l64 -63q7 -8 7 -18.5t-7 -18.5l-47 -46q14 -25 21.5 -54t7.5 -60t-7.5 -60
t-21.5 -54l47 -46q7 -7 7 -18t-7 -19l-64 -63q-7 -7 -18 -7t-18 7l-46 47q-53 -29 -114 -29q-63 0 -114 29l-46 -47q-7 -7 -18 -7t-19 7zM312 199q28 0 51 13.5t36.5 36.5t13.5 51t-13.5 51t-36.5 36.5t-51 13.5t-51 -13.5t-36.5 -36.5t-13.5 -51t13.5 -51t36.5 -36.5
t51 -13.5z" />
    <glyph glyph-name="yen" unicode="&#xa5;" horiz-adv-x="719" 
d="M278 0q-11 0 -18.5 7.5t-7.5 18.5v208l-224 435q-1 2 -2 4.5t-1 4.5q0 9 6.5 15.5t15.5 6.5h157q18 0 27 -9t11 -14l118 -224l117 224q2 5 11.5 14t26.5 9h157q9 0 15.5 -6.5t6.5 -15.5q0 -2 -0.5 -4.5t-2.5 -4.5l-224 -434v-209q0 -11 -7.5 -18.5t-18.5 -7.5h-163z
M129 50q-11 0 -18.5 7.5t-7.5 18.5v97q0 11 7.5 18.5t18.5 7.5h462q11 0 18.5 -7.5t7.5 -18.5v-97q0 -11 -7.5 -18.5t-18.5 -7.5h-462zM129 211q-11 0 -18.5 7.5t-7.5 18.5v97q0 11 7.5 18.5t18.5 7.5h462q11 0 18.5 -7.5t7.5 -18.5v-97q0 -11 -7.5 -18.5t-18.5 -7.5h-462z
" />
    <glyph glyph-name="brokenbar" unicode="&#xa6;" horiz-adv-x="283" 
d="M85 475q-10 0 -18 7.5t-8 18.5v302q0 11 8 18.5t18 7.5h112q11 0 18.5 -7.5t7.5 -18.5v-302q0 -11 -7.5 -18.5t-18.5 -7.5h-112zM85 0q-10 0 -18 7.5t-8 18.5v302q0 11 8 18.5t18 7.5h112q11 0 18.5 -7.5t7.5 -18.5v-302q0 -11 -7.5 -18.5t-18.5 -7.5h-112z" />
    <glyph glyph-name="section" unicode="&#xa7;" horiz-adv-x="620" 
d="M300 -140q-59 0 -104.5 15t-77 38.5t-48 50t-17.5 49.5q-1 10 6 16t16 6h138q10 0 16 -4t12 -10q4 -7 10.5 -13t17.5 -10t29 -4q21 0 31.5 12t10.5 29q0 13 -7 24.5t-30.5 22t-76.5 21.5q-73 19 -116 45.5t-61.5 64t-18.5 89.5q0 42 18 76t52 60q-9 16 -13.5 34.5
t-4.5 40.5q0 54 27 98.5t80.5 71.5t130.5 27q80 0 134 -25t83 -60t30 -66q1 -11 -5.5 -16.5t-16.5 -5.5h-138q-10 0 -16 4t-13 11q-4 5 -10.5 11t-17 9.5t-28.5 3.5q-20 0 -31 -12t-11 -29q0 -13 7 -24.5t31.5 -21.5t76.5 -22q73 -19 115.5 -45.5t61.5 -64t19 -89.5
q0 -42 -18.5 -76t-51.5 -60q9 -16 13.5 -34.5t4.5 -40.5q0 -54 -27.5 -98.5t-80 -71.5t-131.5 -27zM376 224q17 2 25.5 11.5t8.5 22.5q0 15 -6.5 25.5t-21.5 18.5t-42 15q-32 9 -53 15.5t-42 12.5q-18 0 -26.5 -10.5t-8.5 -22.5q0 -13 6 -23t22 -19t45 -18q37 -12 93 -28z
" />
    <glyph glyph-name="dieresis" unicode="&#xa8;" horiz-adv-x="484" 
d="M299 601q-10 0 -16 6t-6 17v108q0 10 6 16.5t16 6.5h108q10 0 16.5 -6.5t6.5 -16.5v-108q0 -11 -6.5 -17t-16.5 -6h-108zM77 601q-11 0 -17 6t-6 17v108q0 10 6 16.5t17 6.5h107q10 0 16.5 -6.5t6.5 -16.5v-108q0 -11 -6.5 -17t-16.5 -6h-107z" />
    <glyph glyph-name="copyright" unicode="&#xa9;" horiz-adv-x="800" 
d="M400 -10q-75 0 -140 28t-114.5 77.5t-77.5 114.5t-28 140t28 140t77.5 114.5t114.5 77.5t140 28t140 -28t114.5 -77.5t77.5 -114.5t28 -140t-28 -140t-77.5 -114.5t-114.5 -77.5t-140 -28zM400 78q56 0 104.5 21t85 58.5t57 87t20.5 105.5t-20.5 105.5t-57 87t-85 59
t-104.5 21.5t-104.5 -21.5t-85 -59t-57.5 -87t-21 -105.5t21 -105.5t57.5 -87t85 -58.5t104.5 -21zM400 158q-53 0 -91 19.5t-58.5 54.5t-23.5 81q0 6 -0.5 22t0 32t0.5 22q3 46 23.5 81t58.5 54.5t91 19.5q61 0 100 -20t58 -48.5t19 -56.5q1 -10 -5 -16t-17 -6h-81
q-11 0 -16.5 7.5t-8.5 13.5q-8 16 -19 23t-30 7q-20 0 -30.5 -9.5t-14 -24t-4.5 -29.5q0 -6 -0.5 -20t0 -28t0.5 -20q1 -15 4.5 -29.5t14 -24t30.5 -9.5q19 0 30 7t19 23q3 7 8.5 14t16.5 7h81q11 0 17 -6t5 -16q0 -27 -19 -56t-58 -49t-100 -20z" />
    <glyph glyph-name="ordfeminine" unicode="&#xaa;" horiz-adv-x="354" 
d="M127 429q-43 0 -70.5 23.5t-27.5 56.5q0 38 30.5 59.5t82.5 30.5l55 9q0 8 -1 14.5t-5.5 10t-15.5 3.5t-16.5 -4.5t-10.5 -8.5t-14 -4h-74q-5 0 -9.5 3.5t-3.5 9.5q1 12 15 29.5t42 30.5t73 13q67 0 99.5 -27.5t32.5 -82.5v-145q0 -6 -4.5 -11t-11.5 -5h-75q-7 0 -11.5 5
t-4.5 11v12q-10 -15 -30.5 -24t-44.5 -9zM158 501q19 0 29 11.5t10 34.5l-31 -7q-19 -5 -25.5 -11t-6.5 -13t6.5 -11t17.5 -4z" />
    <glyph glyph-name="guillemotleft" unicode="&#xab;" horiz-adv-x="627" 
d="M550 60q-2 0 -6 1t-10 5l-211 205q-7 6 -11 13.5t-4 16.5v56q0 9 4 16.5t11 13.5l211 205q6 4 10 5.5t6 1.5q9 0 15.5 -6.5t6.5 -15.5v-118q0 -16 -4 -24.5t-14 -18.5l-88 -87l88 -87q10 -10 14 -18.5t4 -24.5v-118q0 -9 -6.5 -15t-15.5 -6zM268 60q-2 0 -6.5 1t-9.5 5
l-212 205q-6 6 -10 13.5t-4 16.5v56q0 9 4 16.5t10 13.5l212 205q5 4 9.5 5.5t6.5 1.5q9 0 15.5 -6.5t6.5 -15.5v-118q0 -16 -4 -24.5t-14 -18.5l-88 -87l88 -87q10 -10 14 -18.5t4 -24.5v-118q0 -9 -6.5 -15t-15.5 -6z" />
    <glyph glyph-name="logicalnot" unicode="&#xac;" horiz-adv-x="567" 
d="M386 124q-11 0 -18.5 7.5t-7.5 18.5v100h-286q-10 0 -18 7.5t-8 18.5v97q0 11 8 18.5t18 7.5h410q11 0 18.5 -7.5t7.5 -18.5v-223q0 -11 -7.5 -18.5t-18.5 -7.5h-98z" />
    <glyph glyph-name="uni00AD" unicode="&#xad;" horiz-adv-x="600" 
d="M77 215q-10 0 -18 7.5t-8 18.5v118q0 11 8 18.5t18 7.5h320q11 0 18.5 -7.5t7.5 -18.5v-118q0 -11 -7.5 -18.5t-18.5 -7.5h-320z" />
    <glyph glyph-name="registered" unicode="&#xae;" horiz-adv-x="800" 
d="M400 -10q-75 0 -140 28t-114.5 77.5t-77.5 114.5t-28 140t28 140t77.5 114.5t114.5 77.5t140 28t140 -28t114.5 -77.5t77.5 -114.5t28 -140t-28 -140t-77.5 -114.5t-114.5 -77.5t-140 -28zM400 78q56 0 104.5 21t85 58.5t57 87t20.5 105.5t-20.5 105.5t-57 87t-85 59
t-104.5 21.5t-104.5 -21.5t-85 -59t-57.5 -87t-21 -105.5t21 -105.5t57.5 -87t85 -58.5t104.5 -21zM272 168q-22 0 -22 22v322q0 22 22 22h143q38 0 74 -12t58.5 -39t22.5 -72q0 -40 -17 -65.5t-42 -37.5l50 -104q2 -3 3 -6t1 -8q0 -8 -5.5 -15t-16.5 -7h-72
q-10 0 -17.5 4.5t-11.5 14.5l-40 99h-34v-96q0 -22 -22 -22h-74zM368 377h47q18 0 26 10t8 23q0 15 -8 24.5t-26 9.5h-47v-67z" />
    <glyph glyph-name="macron" unicode="&#xaf;" horiz-adv-x="456" 
d="M77 600q-11 0 -17 6.5t-6 16.5v87q0 10 6 16.5t17 6.5h303q10 0 16 -6.5t6 -16.5v-87q0 -10 -6 -16.5t-16 -6.5h-303z" />
    <glyph glyph-name="degree" unicode="&#xb0;" horiz-adv-x="420" 
d="M210 351q-51 0 -93 23.5t-67 64t-25 91.5t25 92t67 64.5t93 23.5t93 -23.5t67 -64.5t25 -92t-25 -91.5t-67 -64t-93 -23.5zM210 454q34 0 55 21t21 55t-21 55t-55 21t-55 -21t-21 -55t21 -55t55 -21z" />
    <glyph glyph-name="plusminus" unicode="&#xb1;" horiz-adv-x="572" 
d="M236 187q-11 0 -18.5 8t-7.5 18v145h-139q-11 0 -18.5 7.5t-7.5 18.5v91q0 11 7.5 18.5t18.5 7.5h139v139q0 11 7.5 18.5t18.5 7.5h102q11 0 18.5 -7.5t7.5 -18.5v-139h138q10 0 18 -7.5t8 -18.5v-91q0 -11 -8 -18.5t-18 -7.5h-138v-145q0 -10 -7.5 -18t-18.5 -8h-102z
M81 0q-11 0 -18.5 7.5t-7.5 18.5v91q0 11 7.5 18.5t18.5 7.5h411q10 0 18 -7.5t8 -18.5v-91q0 -11 -8 -18.5t-18 -7.5h-411z" />
    <glyph glyph-name="uni00B2" unicode="&#xb2;" horiz-adv-x="363" 
d="M47 350q-22 0 -22 22v39q0 8 5 15.5t19 18.5q55 40 89 65t50.5 42.5t16.5 35.5q0 11 -5.5 18.5t-21.5 7.5q-11 0 -17.5 -4t-10 -9t-5.5 -9q-6 -11 -11 -15t-13 -4h-72q-18 0 -18 19q2 34 22 59t53 39.5t72 14.5q66 0 105 -30t39 -82q0 -29 -14 -53.5t-41 -47t-65 -48.5
h113q22 0 22 -22v-50q0 -22 -22 -22h-268z" />
    <glyph glyph-name="uni00B3" unicode="&#xb3;" horiz-adv-x="360" 
d="M174 345q-57 0 -90.5 16.5t-47.5 38.5t-16 39q-1 10 6 14.5t11 4.5h45q10 0 19 -1l18 -2t13.5 -5.5t12 -8.5t25.5 -4q20 0 29.5 7t9.5 19q0 15 -10 19t-28 4h-48q-9 0 -14.5 6t-5.5 15v27q0 7 2.5 11.5t7.5 9.5l50 47h-103q-22 0 -22 22v54q0 22 22 22h231q22 0 22 -22
v-47q0 -8 -2.5 -13.5t-11.5 -11.5l-59 -44q42 -9 67.5 -32.5t25.5 -69.5q0 -51 -44.5 -83t-114.5 -32z" />
    <glyph glyph-name="acute" unicode="&#xb4;" horiz-adv-x="424" 
d="M70 595q-16 0 -16 16q0 8 5 13l94 115q10 12 17.5 15.5t19.5 3.5h159q19 0 19 -20q0 -7 -5 -12l-140 -115q-8 -7 -16.5 -11.5t-23.5 -4.5h-113z" />
    <glyph glyph-name="uni00B5" unicode="&#xb5;" horiz-adv-x="678" 
d="M83 -199q-10 0 -18 7.5t-8 18.5v667q0 11 8 18.5t18 7.5h163q11 0 18.5 -7.5t7.5 -18.5v-271q0 -24 9 -41t25 -26.5t36 -9.5t35.5 9.5t25 26.5t9.5 41v271q0 11 7.5 18.5t18.5 7.5h157q11 0 18.5 -7.5t7.5 -18.5v-468q0 -11 -7.5 -18.5t-18.5 -7.5h-145q-11 0 -18.5 7.5
t-7.5 18.5v36q-13 -18 -30 -31t-40 -18q-22 -6 -42.5 -5.5t-39.5 5.5v-186q0 -11 -7.5 -18.5t-18.5 -7.5h-163z" />
    <glyph glyph-name="paragraph" unicode="&#xb6;" horiz-adv-x="668" 
d="M244 -100q-11 0 -18.5 7.5t-7.5 18.5v388q-53 0 -97 26t-70 70t-26 97q0 54 26 97.5t70 69.5t97 26h360q11 0 18.5 -7.5t7.5 -18.5v-748q0 -11 -7.5 -18.5t-18.5 -7.5h-101q-11 0 -18.5 7.5t-7.5 18.5v641h-79v-641q0 -11 -8 -18.5t-18 -7.5h-102z" />
    <glyph glyph-name="periodcentered" unicode="&#xb7;" horiz-adv-x="330" 
d="M165 184q-36 0 -66.5 17.5t-48 48t-17.5 66.5q0 37 17.5 67t48 48t66.5 18q37 0 67 -18t48 -48t18 -67q0 -36 -18 -66.5t-48 -48t-67 -17.5z" />
    <glyph glyph-name="cedilla" unicode="&#xb8;" horiz-adv-x="289" 
d="M137 -220q-26 0 -48 9t-31 21t1 21l20 17q9 8 15 6t15.5 -7t27.5 -5q15 0 23 8t8 19t-7.5 19t-23.5 8q-10 0 -20 -3t-19 -3.5t-16 5.5l-20 20q-6 7 -6.5 13.5t5.5 19.5l35 79h66l-38 -74q6 2 16.5 3.5t14.5 1.5q37 0 58.5 -24.5t21.5 -63.5q0 -40 -26 -65t-72 -25z" />
    <glyph glyph-name="uni00B9" unicode="&#xb9;" horiz-adv-x="309" 
d="M147 350q-22 0 -22 22v195l-48 -36q-7 -5 -16 -4t-15 9l-33 42q-6 8 -4.5 16.5t8.5 14.5l109 84q10 7 23 7h74q22 0 22 -22v-306q0 -22 -22 -22h-76z" />
    <glyph glyph-name="ordmasculine" unicode="&#xba;" horiz-adv-x="352" 
d="M176 429q-70 0 -105 29t-38 82q-1 8 -1 27.5t1 26.5q3 54 40 82.5t103 28.5t103.5 -28.5t40.5 -82.5q1 -7 1 -26.5t-1 -27.5q-3 -53 -38.5 -82t-105.5 -29zM176 507q16 0 22.5 8t7.5 30q1 8 1 22.5t-1 21.5q-1 20 -7.5 29.5t-22.5 9.5t-22 -9.5t-8 -29.5q-1 -7 -1 -21.5
t1 -22.5q2 -22 8 -30t22 -8z" />
    <glyph glyph-name="guillemotright" unicode="&#xbb;" horiz-adv-x="627" 
d="M359 60q-9 0 -15.5 6t-6.5 15v118q0 16 4 24.5t14 18.5l88 87l-88 87q-10 10 -14 18.5t-4 24.5v118q0 9 6.5 15.5t15.5 6.5q2 0 6.5 -1.5t9.5 -5.5l211 -205q7 -6 11 -13.5t4 -16.5v-56q0 -9 -4 -16.5t-11 -13.5l-211 -205q-5 -4 -9.5 -5t-6.5 -1zM76 60q-9 0 -15 6
t-6 15v118q0 16 4 24.5t14 18.5l88 87l-88 87q-10 10 -14 18.5t-4 24.5v118q0 9 6 15.5t15 6.5q2 0 7 -1.5t9 -5.5l212 -205q7 -6 10.5 -13.5t3.5 -16.5v-56q0 -9 -3.5 -16.5t-10.5 -13.5l-212 -205q-4 -4 -9 -5t-7 -1z" />
    <glyph glyph-name="onequarter" unicode="&#xbc;" horiz-adv-x="875" 
d="M147 350q-22 0 -22 22v195l-48 -36q-7 -5 -16 -4t-15 9l-33 42q-6 8 -4.5 16.5t8.5 14.5l109 84q10 7 23 7h74q22 0 22 -22v-306q0 -22 -22 -22h-76zM122 0q-23 0 -23 20q0 6 4 11l494 650q7 9 14 14t21 5h63q24 0 24 -20q0 -6 -4 -11l-494 -650q-7 -9 -14.5 -14
t-21.5 -5h-63zM703 0q-22 0 -22 22v29h-150q-22 0 -22 22v58q0 2 1.5 10t10.5 20l129 171q8 11 15.5 14.5t14.5 3.5h95q22 0 22 -22v-176h35q22 0 22 -22v-57q0 -22 -22 -22h-35v-29q0 -22 -22 -22h-72zM623 148h60v84z" />
    <glyph glyph-name="onehalf" unicode="&#xbd;" horiz-adv-x="852" 
d="M147 350q-22 0 -22 22v195l-48 -36q-7 -5 -16 -4t-15 9l-33 42q-6 8 -4.5 16.5t8.5 14.5l109 84q10 7 23 7h74q22 0 22 -22v-306q0 -22 -22 -22h-76zM122 0q-23 0 -23 20q0 6 4 11l494 650q7 9 14 14t21 5h63q24 0 24 -20q0 -6 -4 -11l-494 -650q-7 -9 -14.5 -14
t-21.5 -5h-63zM536 0q-22 0 -22 22v39q0 8 5 15.5t19 18.5q55 40 89 65t50.5 42.5t16.5 35.5q0 11 -5.5 18.5t-21.5 7.5q-11 0 -17.5 -4t-10 -9t-5.5 -9q-6 -11 -11 -15t-13 -4h-72q-18 0 -18 19q2 34 22 59t53 39.5t72 14.5q66 0 105 -30t39 -82q0 -29 -14 -53.5t-41 -47
t-65 -48.5h113q22 0 22 -22v-50q0 -22 -22 -22h-268z" />
    <glyph glyph-name="threequarters" unicode="&#xbe;" horiz-adv-x="925" 
d="M174 345q-57 0 -90.5 16.5t-47.5 38.5t-16 39q-1 10 6 14.5t11 4.5h45q10 0 19 -1l18 -2t13.5 -5.5t12 -8.5t25.5 -4q20 0 29.5 7t9.5 19q0 15 -10 19t-28 4h-48q-9 0 -14.5 6t-5.5 15v27q0 7 2.5 11.5t7.5 9.5l50 47h-103q-22 0 -22 22v54q0 22 22 22h231q22 0 22 -22
v-47q0 -8 -2.5 -13.5t-11.5 -11.5l-59 -44q42 -9 67.5 -32.5t25.5 -69.5q0 -51 -44.5 -83t-114.5 -32zM173 0q-23 0 -23 20q0 6 4 11l494 650q7 9 14 14t21 5h63q24 0 24 -20q0 -6 -4 -11l-494 -650q-7 -9 -14.5 -14t-21.5 -5h-63zM753 0q-22 0 -22 22v29h-150q-22 0 -22 22
v58q0 2 1.5 10t10.5 20l129 171q8 11 15.5 14.5t14.5 3.5h95q22 0 22 -22v-176h35q22 0 22 -22v-57q0 -22 -22 -22h-35v-29q0 -22 -22 -22h-72zM673 148h60v84z" />
    <glyph glyph-name="questiondown" unicode="&#xbf;" horiz-adv-x="620" 
d="M392 286q8 0 14 -5.5t6 -13.5v-7.5t-1 -7.5q-8 -32 -25.5 -58.5t-40 -49t-44 -42.5t-35.5 -38.5t-15 -35.5q-1 -16 7 -27t20.5 -17t28.5 -6q35 0 52 15.5t25 40.5q4 11 11.5 17.5t21.5 6.5h155q10 0 17 -8t7 -21q-1 -38 -20 -77t-56.5 -71.5t-94 -52.5t-133.5 -20
q-81 0 -133 19t-81.5 49t-41.5 61.5t-11 57.5q0 34 11.5 62t29.5 51.5t38 45t38 42.5t31 42q2 5 4.5 10t4.5 10q8 14 14 21t19 7h177zM386 518q11 0 18.5 -7.5t7.5 -18.5v-136q0 -11 -7.5 -18.5t-18.5 -7.5h-156q-11 0 -18.5 7.5t-7.5 18.5v136q0 11 7.5 18.5t18.5 7.5h156z
" />
    <glyph glyph-name="Agrave" unicode="&#xc0;" horiz-adv-x="735" 
d="M26 0q-9 0 -15 6.5t-6 15.5q0 4 1 7l228 640q4 11 14 21t28 10h183q19 0 29 -10t13 -21l229 -640q1 -3 1 -7q0 -9 -6.5 -15.5t-15.5 -6.5h-154q-17 0 -25 8t-11 15l-31 84h-241l-31 -84q-3 -7 -10.5 -15t-25.5 -8h-154zM293 276h149l-75 225zM325 750q-15 0 -23.5 4.5
t-16.5 11.5l-140 115q-5 5 -5 12q0 20 19 20h168q12 0 19 -3.5t18 -15.5l94 -115q5 -5 5 -13q0 -16 -16 -16h-122z" />
    <glyph glyph-name="Aacute" unicode="&#xc1;" horiz-adv-x="735" 
d="M26 0q-9 0 -15 6.5t-6 15.5q0 4 1 7l228 640q4 11 14 21t28 10h183q19 0 29 -10t13 -21l229 -640q1 -3 1 -7q0 -9 -6.5 -15.5t-15.5 -6.5h-154q-17 0 -25 8t-11 15l-31 84h-241l-31 -84q-3 -7 -10.5 -15t-25.5 -8h-154zM293 276h149l-75 225zM291 750q-16 0 -16 16
q0 8 5 13l94 115q10 12 17.5 15.5t19.5 3.5h168q19 0 19 -20q0 -7 -5 -12l-140 -115q-8 -7 -16.5 -11.5t-23.5 -4.5h-122z" />
    <glyph glyph-name="Acircumflex" unicode="&#xc2;" horiz-adv-x="735" 
d="M26 0q-9 0 -15 6.5t-6 15.5q0 4 1 7l228 640q4 11 14 21t28 10h183q19 0 29 -10t13 -21l229 -640q1 -3 1 -7q0 -9 -6.5 -15.5t-15.5 -6.5h-154q-17 0 -25 8t-11 15l-31 84h-241l-31 -84q-3 -7 -10.5 -15t-25.5 -8h-154zM293 276h149l-75 225zM180 750q-15 0 -15 15
q0 8 6 14l107 115q10 11 18 15t18 4h108q10 0 18 -4t18 -15l107 -115q7 -6 7 -14q0 -15 -16 -15h-61q-9 0 -18 1t-19 6l-90 45l-90 -45q-9 -5 -18.5 -6t-18.5 -1h-61z" />
    <glyph glyph-name="Atilde" unicode="&#xc3;" horiz-adv-x="735" 
d="M26 0q-9 0 -15 6.5t-6 15.5q0 4 1 7l228 640q4 11 14 21t28 10h183q19 0 29 -10t13 -21l229 -640q1 -3 1 -7q0 -9 -6.5 -15.5t-15.5 -6.5h-154q-17 0 -25 8t-11 15l-31 84h-241l-31 -84q-3 -7 -10.5 -15t-25.5 -8h-154zM293 276h149l-75 225zM432 745q-29 0 -47.5 9
t-33.5 18t-33 9q-15 0 -21.5 -7.5t-11.5 -15.5t-16 -8h-72q-7 0 -12.5 5.5t-5.5 12.5q0 16 6 40t20 47.5t38 39t60 15.5q29 0 47.5 -9t33.5 -18t33 -9q15 0 21 8t11.5 15.5t16.5 7.5h72q9 0 13.5 -5.5t4.5 -12.5q0 -17 -6 -40.5t-20 -47t-38 -39t-60 -15.5z" />
    <glyph glyph-name="Adieresis" unicode="&#xc4;" horiz-adv-x="735" 
d="M26 0q-9 0 -15 6.5t-6 15.5q0 4 1 7l228 640q4 11 14 21t28 10h183q19 0 29 -10t13 -21l229 -640q1 -3 1 -7q0 -9 -6.5 -15.5t-15.5 -6.5h-154q-17 0 -25 8t-11 15l-31 84h-241l-31 -84q-3 -7 -10.5 -15t-25.5 -8h-154zM293 276h149l-75 225zM440 750q-10 0 -16 6t-6 17
v108q0 10 6 16.5t16 6.5h108q10 0 16.5 -6.5t6.5 -16.5v-108q0 -11 -6.5 -17t-16.5 -6h-108zM188 750q-11 0 -17 6t-6 17v108q0 10 6 16.5t17 6.5h107q10 0 16.5 -6.5t6.5 -16.5v-108q0 -11 -6.5 -17t-16.5 -6h-107z" />
    <glyph glyph-name="Aring" unicode="&#xc5;" horiz-adv-x="735" 
d="M26 0q-9 0 -15 6.5t-6 15.5q0 4 1 7l228 640q4 11 14 21t28 10h183q19 0 29 -10t13 -21l229 -640q1 -3 1 -7q0 -9 -6.5 -15.5t-15.5 -6.5h-154q-17 0 -25 8t-11 15l-31 84h-241l-31 -84q-3 -7 -10.5 -15t-25.5 -8h-154zM293 276h149l-75 225zM368 740q-39 0 -67.5 26
t-28.5 65q0 40 28 66t68 26t68 -26t28 -66q0 -39 -28 -65t-68 -26zM368 801q13 0 21.5 8.5t8.5 21.5t-8.5 21.5t-21.5 8.5t-21.5 -8.5t-8.5 -21.5t8.5 -21.5t21.5 -8.5z" />
    <glyph glyph-name="AE" unicode="&#xc6;" horiz-adv-x="989" 
d="M26 0q-9 0 -15.5 6.5t-6.5 15.5q0 4 2 8q15 43 30.5 87.5t32.5 91t36.5 97t42 107t49.5 120.5t59 137q3 11 13 20.5t28 9.5h617q11 0 19 -7.5t8 -18.5v-118q0 -10 -8 -18t-19 -8h-284v-99h262q11 0 19 -7.5t8 -18.5v-108q0 -11 -8 -18.5t-19 -7.5h-262v-101h292
q11 0 19 -8t8 -19v-117q0 -11 -8 -18.5t-19 -7.5h-473q-11 0 -18.5 7.5t-7.5 18.5v81h-170q-9 -18 -15 -31t-10 -22t-6.5 -16.5t-5.5 -14.5q-3 -8 -10.5 -15.5t-25.5 -7.5h-154zM300 276h123v253h-26z" />
    <glyph glyph-name="Ccedilla" unicode="&#xc7;" horiz-adv-x="718" 
d="M359 -220q-26 0 -48 9t-31 21t1 21l20 17q9 8 15 6t15.5 -7t27.5 -5q14 0 22.5 8t8.5 19t-8 19t-23 8q-10 0 -20.5 -3t-19 -3.5t-15.5 5.5l-20 20q-7 7 -7 13.5t6 19.5l20 46q-78 9 -135 40.5t-89.5 88t-36.5 138.5q-1 41 -1 88t1 90q4 90 45.5 150.5t113 90.5t163.5 30
q66 0 123.5 -15.5t102.5 -47t71 -77.5t27 -108q0 -9 -6.5 -15.5t-15.5 -6.5h-169q-15 0 -22 6t-12 21q-13 43 -38 58t-61 15q-44 0 -70 -23.5t-28 -82.5q-3 -82 0 -168q2 -59 28 -82.5t70 -23.5q36 0 61.5 16t37.5 57q4 16 11.5 21.5t22.5 5.5h169q9 0 15.5 -6t6.5 -15
q-1 -62 -27 -108.5t-71 -78t-102.5 -47t-123.5 -15.5l-19 -37q6 2 16.5 3.5t15.5 1.5q37 0 58.5 -24.5t21.5 -63.5q0 -40 -26.5 -65t-71.5 -25z" />
    <glyph glyph-name="Egrave" unicode="&#xc8;" horiz-adv-x="653" 
d="M88 0q-10 0 -18 7.5t-8 18.5v648q0 11 8 18.5t18 7.5h490q11 0 19 -7.5t8 -18.5v-118q0 -10 -8 -18t-19 -8h-309v-99h287q11 0 19 -7.5t8 -18.5v-108q0 -11 -8 -18.5t-19 -7.5h-287v-101h317q11 0 19 -8t8 -19v-117q0 -11 -8 -18.5t-19 -7.5h-498zM284 750
q-15 0 -23.5 4.5t-16.5 11.5l-140 115q-5 5 -5 12q0 20 19 20h168q12 0 19 -3.5t18 -15.5l94 -115q5 -5 5 -13q0 -16 -16 -16h-122z" />
    <glyph glyph-name="Eacute" unicode="&#xc9;" horiz-adv-x="653" 
d="M88 0q-10 0 -18 7.5t-8 18.5v648q0 11 8 18.5t18 7.5h490q11 0 19 -7.5t8 -18.5v-118q0 -10 -8 -18t-19 -8h-309v-99h287q11 0 19 -7.5t8 -18.5v-108q0 -11 -8 -18.5t-19 -7.5h-287v-101h317q11 0 19 -8t8 -19v-117q0 -11 -8 -18.5t-19 -7.5h-498zM249 750q-16 0 -16 16
q0 8 5 13l94 115q10 12 17.5 15.5t19.5 3.5h168q19 0 19 -20q0 -7 -5 -12l-140 -115q-8 -7 -16.5 -11.5t-23.5 -4.5h-122z" />
    <glyph glyph-name="Ecircumflex" unicode="&#xca;" horiz-adv-x="653" 
d="M88 0q-10 0 -18 7.5t-8 18.5v648q0 11 8 18.5t18 7.5h490q11 0 19 -7.5t8 -18.5v-118q0 -10 -8 -18t-19 -8h-309v-99h287q11 0 19 -7.5t8 -18.5v-108q0 -11 -8 -18.5t-19 -7.5h-287v-101h317q11 0 19 -8t8 -19v-117q0 -11 -8 -18.5t-19 -7.5h-498zM139 750q-15 0 -15 15
q0 8 6 14l107 115q10 11 18 15t18 4h108q10 0 18 -4t18 -15l107 -115q7 -6 7 -14q0 -15 -16 -15h-61q-9 0 -18 1t-19 6l-90 45l-90 -45q-9 -5 -18.5 -6t-18.5 -1h-61z" />
    <glyph glyph-name="Edieresis" unicode="&#xcb;" horiz-adv-x="653" 
d="M88 0q-10 0 -18 7.5t-8 18.5v648q0 11 8 18.5t18 7.5h490q11 0 19 -7.5t8 -18.5v-118q0 -10 -8 -18t-19 -8h-309v-99h287q11 0 19 -7.5t8 -18.5v-108q0 -11 -8 -18.5t-19 -7.5h-287v-101h317q11 0 19 -8t8 -19v-117q0 -11 -8 -18.5t-19 -7.5h-498zM398 750q-10 0 -16 6
t-6 17v108q0 10 6 16.5t16 6.5h108q10 0 16.5 -6.5t6.5 -16.5v-108q0 -11 -6.5 -17t-16.5 -6h-108zM146 750q-11 0 -17 6t-6 17v108q0 10 6 16.5t17 6.5h107q10 0 16.5 -6.5t6.5 -16.5v-108q0 -11 -6.5 -17t-16.5 -6h-107z" />
    <glyph glyph-name="Igrave" unicode="&#xcc;" horiz-adv-x="346" 
d="M88 0q-10 0 -18 7.5t-8 18.5v648q0 11 8 18.5t18 7.5h170q11 0 18.5 -7.5t7.5 -18.5v-648q0 -11 -7.5 -18.5t-18.5 -7.5h-170zM130 750q-15 0 -23.5 4.5t-16.5 11.5l-140 115q-5 5 -5 12q0 20 19 20h168q12 0 19 -3.5t18 -15.5l94 -115q5 -5 5 -13q0 -16 -16 -16h-122z
" />
    <glyph glyph-name="Iacute" unicode="&#xcd;" horiz-adv-x="346" 
d="M88 0q-10 0 -18 7.5t-8 18.5v648q0 11 8 18.5t18 7.5h170q11 0 18.5 -7.5t7.5 -18.5v-648q0 -11 -7.5 -18.5t-18.5 -7.5h-170zM96 750q-16 0 -16 16q0 8 5 13l94 115q10 12 17.5 15.5t19.5 3.5h168q19 0 19 -20q0 -7 -5 -12l-140 -115q-8 -7 -16.5 -11.5t-23.5 -4.5h-122
z" />
    <glyph glyph-name="Icircumflex" unicode="&#xce;" horiz-adv-x="346" 
d="M88 0q-10 0 -18 7.5t-8 18.5v648q0 11 8 18.5t18 7.5h170q11 0 18.5 -7.5t7.5 -18.5v-648q0 -11 -7.5 -18.5t-18.5 -7.5h-170zM-15 750q-15 0 -15 15q0 8 6 14l107 115q10 11 18 15t18 4h108q10 0 18 -4t18 -15l107 -115q7 -6 7 -14q0 -15 -16 -15h-61q-9 0 -18 1t-19 6
l-90 45l-90 -45q-9 -5 -18.5 -6t-18.5 -1h-61z" />
    <glyph glyph-name="Idieresis" unicode="&#xcf;" horiz-adv-x="346" 
d="M88 0q-10 0 -18 7.5t-8 18.5v648q0 11 8 18.5t18 7.5h170q11 0 18.5 -7.5t7.5 -18.5v-648q0 -11 -7.5 -18.5t-18.5 -7.5h-170zM245 750q-10 0 -16 6t-6 17v108q0 10 6 16.5t16 6.5h108q10 0 16.5 -6.5t6.5 -16.5v-108q0 -11 -6.5 -17t-16.5 -6h-108zM-7 750q-11 0 -17 6
t-6 17v108q0 10 6 16.5t17 6.5h107q10 0 16.5 -6.5t6.5 -16.5v-108q0 -11 -6.5 -17t-16.5 -6h-107z" />
    <glyph glyph-name="Eth" unicode="&#xd0;" horiz-adv-x="750" 
d="M109 0q-11 0 -18.5 7.5t-7.5 18.5v257h-43q-11 0 -18.5 7.5t-7.5 18.5v85q0 11 7.5 18.5t18.5 7.5h43v254q0 11 7.5 18.5t18.5 7.5h274q96 0 168.5 -31.5t114 -92.5t41.5 -150v-75.5v-75.5q0 -94 -40 -155t-112.5 -90.5t-169.5 -29.5h-276zM298 170h85q33 0 55.5 11
t34 34.5t11.5 60.5v50v48.5v50.5q0 55 -26 80t-76 25h-84v-110h74q10 0 18 -7.5t8 -18.5v-85q0 -11 -8 -18.5t-18 -7.5h-74v-113z" />
    <glyph glyph-name="Ntilde" unicode="&#xd1;" horiz-adv-x="730" 
d="M88 0q-10 0 -18 7.5t-8 18.5v648q0 11 8 18.5t18 7.5h133q18 0 26 -8t11 -13l206 -331v326q0 11 8 18.5t19 7.5h150q11 0 18.5 -7.5t7.5 -18.5v-648q0 -11 -7.5 -18.5t-18.5 -7.5h-132q-18 0 -26.5 8.5t-11.5 12.5l-206 313v-308q0 -11 -7.5 -18.5t-18.5 -7.5h-151z
M429 745q-29 0 -47.5 9t-33.5 18t-33 9q-15 0 -21.5 -7.5t-11.5 -15.5t-16 -8h-72q-7 0 -12.5 5.5t-5.5 12.5q0 16 6 40t20 47.5t38 39t60 15.5q29 0 47.5 -9t33.5 -18t33 -9q15 0 21 8t11.5 15.5t16.5 7.5h72q9 0 13.5 -5.5t4.5 -12.5q0 -17 -6 -40.5t-20 -47t-38 -39
t-60 -15.5z" />
    <glyph glyph-name="Ograve" unicode="&#xd2;" horiz-adv-x="727" 
d="M364 -10q-96 0 -166.5 30t-111 90.5t-43.5 150.5q-1 42 -1 86.5t1 88.5q3 89 43.5 150t111.5 92.5t166 31.5q94 0 165 -31.5t112 -92.5t43 -150q2 -44 2 -88.5t-2 -86.5q-3 -90 -43.5 -150.5t-111 -90.5t-165.5 -30zM364 160q42 0 69 25.5t28 81.5q2 43 2 83.5t-2 82.5
q-1 37 -13.5 61t-34 35t-49.5 11t-50 -11t-34.5 -35t-13.5 -61q-1 -42 -1 -82.5t1 -83.5q2 -56 28.5 -81.5t69.5 -25.5zM320 750q-15 0 -23.5 4.5t-16.5 11.5l-140 115q-5 5 -5 12q0 20 19 20h168q12 0 19 -3.5t18 -15.5l94 -115q5 -5 5 -13q0 -16 -16 -16h-122z" />
    <glyph glyph-name="Oacute" unicode="&#xd3;" horiz-adv-x="727" 
d="M364 -10q-96 0 -166.5 30t-111 90.5t-43.5 150.5q-1 42 -1 86.5t1 88.5q3 89 43.5 150t111.5 92.5t166 31.5q94 0 165 -31.5t112 -92.5t43 -150q2 -44 2 -88.5t-2 -86.5q-3 -90 -43.5 -150.5t-111 -90.5t-165.5 -30zM364 160q42 0 69 25.5t28 81.5q2 43 2 83.5t-2 82.5
q-1 37 -13.5 61t-34 35t-49.5 11t-50 -11t-34.5 -35t-13.5 -61q-1 -42 -1 -82.5t1 -83.5q2 -56 28.5 -81.5t69.5 -25.5zM286 750q-16 0 -16 16q0 8 5 13l94 115q10 12 17.5 15.5t19.5 3.5h168q19 0 19 -20q0 -7 -5 -12l-140 -115q-8 -7 -16.5 -11.5t-23.5 -4.5h-122z" />
    <glyph glyph-name="Ocircumflex" unicode="&#xd4;" horiz-adv-x="727" 
d="M364 -10q-96 0 -166.5 30t-111 90.5t-43.5 150.5q-1 42 -1 86.5t1 88.5q3 89 43.5 150t111.5 92.5t166 31.5q94 0 165 -31.5t112 -92.5t43 -150q2 -44 2 -88.5t-2 -86.5q-3 -90 -43.5 -150.5t-111 -90.5t-165.5 -30zM364 160q42 0 69 25.5t28 81.5q2 43 2 83.5t-2 82.5
q-1 37 -13.5 61t-34 35t-49.5 11t-50 -11t-34.5 -35t-13.5 -61q-1 -42 -1 -82.5t1 -83.5q2 -56 28.5 -81.5t69.5 -25.5zM175 750q-15 0 -15 15q0 8 6 14l107 115q10 11 18 15t18 4h108q10 0 18 -4t18 -15l107 -115q7 -6 7 -14q0 -15 -16 -15h-61q-9 0 -18 1t-19 6l-90 45
l-90 -45q-9 -5 -18.5 -6t-18.5 -1h-61z" />
    <glyph glyph-name="Otilde" unicode="&#xd5;" horiz-adv-x="727" 
d="M364 -10q-96 0 -166.5 30t-111 90.5t-43.5 150.5q-1 42 -1 86.5t1 88.5q3 89 43.5 150t111.5 92.5t166 31.5q94 0 165 -31.5t112 -92.5t43 -150q2 -44 2 -88.5t-2 -86.5q-3 -90 -43.5 -150.5t-111 -90.5t-165.5 -30zM364 160q42 0 69 25.5t28 81.5q2 43 2 83.5t-2 82.5
q-1 37 -13.5 61t-34 35t-49.5 11t-50 -11t-34.5 -35t-13.5 -61q-1 -42 -1 -82.5t1 -83.5q2 -56 28.5 -81.5t69.5 -25.5zM428 745q-29 0 -47.5 9t-33.5 18t-33 9q-15 0 -21.5 -7.5t-11.5 -15.5t-16 -8h-72q-7 0 -12.5 5.5t-5.5 12.5q0 16 6 40t20 47.5t38 39t60 15.5
q29 0 47.5 -9t33.5 -18t33 -9q15 0 21 8t11.5 15.5t16.5 7.5h72q9 0 13.5 -5.5t4.5 -12.5q0 -17 -6 -40.5t-20 -47t-38 -39t-60 -15.5z" />
    <glyph glyph-name="Odieresis" unicode="&#xd6;" horiz-adv-x="727" 
d="M364 -10q-96 0 -166.5 30t-111 90.5t-43.5 150.5q-1 42 -1 86.5t1 88.5q3 89 43.5 150t111.5 92.5t166 31.5q94 0 165 -31.5t112 -92.5t43 -150q2 -44 2 -88.5t-2 -86.5q-3 -90 -43.5 -150.5t-111 -90.5t-165.5 -30zM364 160q42 0 69 25.5t28 81.5q2 43 2 83.5t-2 82.5
q-1 37 -13.5 61t-34 35t-49.5 11t-50 -11t-34.5 -35t-13.5 -61q-1 -42 -1 -82.5t1 -83.5q2 -56 28.5 -81.5t69.5 -25.5zM435 750q-10 0 -16 6t-6 17v108q0 10 6 16.5t16 6.5h108q10 0 16.5 -6.5t6.5 -16.5v-108q0 -11 -6.5 -17t-16.5 -6h-108zM183 750q-11 0 -17 6t-6 17
v108q0 10 6 16.5t17 6.5h107q10 0 16.5 -6.5t6.5 -16.5v-108q0 -11 -6.5 -17t-16.5 -6h-107z" />
    <glyph glyph-name="multiply" unicode="&#xd7;" horiz-adv-x="621" 
d="M147 35l-100 100q-7 8 -7 18.5t7 18.5l127 127l-127 127q-7 8 -7 18.5t7 18.5l100 99q8 8 18.5 8t18.5 -8l127 -127l126 127q8 7 18.5 7t18.5 -7l99 -100q8 -7 8 -18t-8 -19l-126 -126l126 -126q8 -8 8 -18.5t-8 -18.5l-99 -100q-8 -7 -18.5 -7t-18.5 7l-126 126
l-127 -127q-8 -7 -18.5 -7t-18.5 7z" />
    <glyph glyph-name="Oslash" unicode="&#xd8;" horiz-adv-x="727" 
d="M364 -10q-96 0 -166.5 30t-111 90.5t-43.5 150.5q-1 42 -1 86.5t1 88.5q3 89 43.5 150t111.5 92.5t166 31.5q94 0 165 -31.5t112 -92.5t43 -150q2 -44 2 -88.5t-2 -86.5q-3 -90 -43.5 -150.5t-111 -90.5t-165.5 -30zM364 160q42 0 69 25.5t28 81.5q2 43 2 83.5t-2 82.5
q-1 37 -13.5 61t-34 35t-49.5 11t-50 -11t-34.5 -35t-13.5 -61q-1 -42 -1 -82.5t1 -83.5q2 -56 28.5 -81.5t69.5 -25.5zM81 -65q-12 0 -17.5 11.5t4.5 26.5l517 778q2 3 7.5 8.5t15.5 5.5h40q13 0 17.5 -12t-3.5 -24l-519 -779q-2 -3 -7.5 -9t-16.5 -6h-38z" />
    <glyph glyph-name="Ugrave" unicode="&#xd9;" horiz-adv-x="736" 
d="M369 -10q-93 0 -163.5 29t-110 90.5t-39.5 155.5v409q0 11 8 18.5t18 7.5h163q11 0 18.5 -7.5t7.5 -18.5v-406q0 -51 25 -77t72 -26t71.5 26t24.5 77v406q0 11 8 18.5t19 7.5h162q11 0 18.5 -7.5t7.5 -18.5v-409q0 -94 -39 -155.5t-109 -90.5t-162 -29zM325 750
q-15 0 -23.5 4.5t-16.5 11.5l-140 115q-5 5 -5 12q0 20 19 20h168q12 0 19 -3.5t18 -15.5l94 -115q5 -5 5 -13q0 -16 -16 -16h-122z" />
    <glyph glyph-name="Uacute" unicode="&#xda;" horiz-adv-x="736" 
d="M369 -10q-93 0 -163.5 29t-110 90.5t-39.5 155.5v409q0 11 8 18.5t18 7.5h163q11 0 18.5 -7.5t7.5 -18.5v-406q0 -51 25 -77t72 -26t71.5 26t24.5 77v406q0 11 8 18.5t19 7.5h162q11 0 18.5 -7.5t7.5 -18.5v-409q0 -94 -39 -155.5t-109 -90.5t-162 -29zM290 750
q-16 0 -16 16q0 8 5 13l94 115q10 12 17.5 15.5t19.5 3.5h168q19 0 19 -20q0 -7 -5 -12l-140 -115q-8 -7 -16.5 -11.5t-23.5 -4.5h-122z" />
    <glyph glyph-name="Ucircumflex" unicode="&#xdb;" horiz-adv-x="736" 
d="M369 -10q-93 0 -163.5 29t-110 90.5t-39.5 155.5v409q0 11 8 18.5t18 7.5h163q11 0 18.5 -7.5t7.5 -18.5v-406q0 -51 25 -77t72 -26t71.5 26t24.5 77v406q0 11 8 18.5t19 7.5h162q11 0 18.5 -7.5t7.5 -18.5v-409q0 -94 -39 -155.5t-109 -90.5t-162 -29zM180 750
q-15 0 -15 15q0 8 6 14l107 115q10 11 18 15t18 4h108q10 0 18 -4t18 -15l107 -115q7 -6 7 -14q0 -15 -16 -15h-61q-9 0 -18 1t-19 6l-90 45l-90 -45q-9 -5 -18.5 -6t-18.5 -1h-61z" />
    <glyph glyph-name="Udieresis" unicode="&#xdc;" horiz-adv-x="736" 
d="M369 -10q-93 0 -163.5 29t-110 90.5t-39.5 155.5v409q0 11 8 18.5t18 7.5h163q11 0 18.5 -7.5t7.5 -18.5v-406q0 -51 25 -77t72 -26t71.5 26t24.5 77v406q0 11 8 18.5t19 7.5h162q11 0 18.5 -7.5t7.5 -18.5v-409q0 -94 -39 -155.5t-109 -90.5t-162 -29zM440 750
q-10 0 -16 6t-6 17v108q0 10 6 16.5t16 6.5h108q10 0 16.5 -6.5t6.5 -16.5v-108q0 -11 -6.5 -17t-16.5 -6h-108zM188 750q-11 0 -17 6t-6 17v108q0 10 6 16.5t17 6.5h107q10 0 16.5 -6.5t6.5 -16.5v-108q0 -11 -6.5 -17t-16.5 -6h-107z" />
    <glyph glyph-name="Yacute" unicode="&#xdd;" horiz-adv-x="695" 
d="M266 0q-11 0 -18.5 7.5t-7.5 18.5v206l-228 437q-1 2 -2 4.5t-1 4.5q0 9 6.5 15.5t15.5 6.5h156q18 0 27 -9t12 -14l122 -230l122 230q2 5 11.5 14t26.5 9h157q8 0 14.5 -6.5t6.5 -15.5q0 -2 -0.5 -4.5t-1.5 -4.5l-229 -437v-206q0 -11 -7.5 -18.5t-18.5 -7.5h-163z
M270 750q-16 0 -16 16q0 8 5 13l94 115q10 12 17.5 15.5t19.5 3.5h168q19 0 19 -20q0 -7 -5 -12l-140 -115q-8 -7 -16.5 -11.5t-23.5 -4.5h-122z" />
    <glyph glyph-name="Thorn" unicode="&#xde;" horiz-adv-x="692" 
d="M88 0q-10 0 -18 7.5t-8 18.5v648q0 11 8 18.5t18 7.5h171q11 0 18.5 -7.5t7.5 -18.5v-81h91q89 0 154.5 -26t101.5 -79t36 -133t-36 -131.5t-101.5 -75.5t-154.5 -24h-91v-98q0 -11 -7.5 -18.5t-18.5 -7.5h-171zM281 285h94q29 0 49.5 17.5t20.5 54.5q0 28 -16 50.5
t-54 22.5h-94v-145z" />
    <glyph glyph-name="germandbls" unicode="&#xdf;" horiz-adv-x="661" 
d="M78 0q-11 0 -18.5 7.5t-7.5 18.5v435q0 70 29 126t90 89.5t159 33.5q97 0 156 -29.5t86 -76t27 -97.5q0 -30 -7.5 -54.5t-22 -43.5t-35.5 -34q31 -13 52 -35.5t32 -53t11 -73.5q0 -37 -15.5 -75t-48 -69t-83.5 -50t-121 -19h-43q-14 0 -22 7.5t-8 18.5v95q0 11 8 19t22 7
h14q39 0 62.5 21t23.5 54t-22.5 54t-66.5 21h-14q-15 0 -21 8t-6 19v82q0 11 5 18.5t22 7.5h13q37 1 58 18t21 46q0 28 -21 47t-56 19q-36 0 -57 -22.5t-21 -73.5v-440q0 -11 -7.5 -18.5t-18.5 -7.5h-148z" />
    <glyph glyph-name="agrave" unicode="&#xe0;" horiz-adv-x="606" 
d="M213 -10q-55 0 -98.5 21t-68 56.5t-24.5 79.5q0 72 58.5 113.5t156.5 57.5l116 18v7q0 31 -10 46.5t-40 15.5q-21 0 -34 -8t-24 -23q-10 -11 -26 -11h-141q-10 0 -16.5 6t-5.5 16q1 18 15 42.5t43.5 48t76.5 39t113 15.5q67 0 115 -15t79 -42t46 -65.5t15 -85.5v-296
q0 -11 -7.5 -18.5t-18.5 -7.5h-145q-11 0 -19 7.5t-8 18.5v32q-13 -20 -34.5 -35t-50 -24t-63.5 -9zM271 121q25 0 44 10.5t29.5 32.5t10.5 55v7l-72 -14q-37 -7 -52 -20t-15 -30q0 -12 7 -21t19.5 -14.5t28.5 -5.5zM261 595q-15 0 -23.5 4.5t-16.5 11.5l-140 115
q-5 5 -5 12q0 20 19 20h159q12 0 19.5 -3.5t17.5 -15.5l94 -115q5 -5 5 -13q0 -16 -16 -16h-113z" />
    <glyph glyph-name="aacute" unicode="&#xe1;" horiz-adv-x="606" 
d="M213 -10q-55 0 -98.5 21t-68 56.5t-24.5 79.5q0 72 58.5 113.5t156.5 57.5l116 18v7q0 31 -10 46.5t-40 15.5q-21 0 -34 -8t-24 -23q-10 -11 -26 -11h-141q-10 0 -16.5 6t-5.5 16q1 18 15 42.5t43.5 48t76.5 39t113 15.5q67 0 115 -15t79 -42t46 -65.5t15 -85.5v-296
q0 -11 -7.5 -18.5t-18.5 -7.5h-145q-11 0 -19 7.5t-8 18.5v32q-13 -20 -34.5 -35t-50 -24t-63.5 -9zM271 121q25 0 44 10.5t29.5 32.5t10.5 55v7l-72 -14q-37 -7 -52 -20t-15 -30q0 -12 7 -21t19.5 -14.5t28.5 -5.5zM230 595q-16 0 -16 16q0 8 5 13l94 115q10 12 17.5 15.5
t19.5 3.5h159q19 0 19 -20q0 -7 -5 -12l-140 -115q-8 -7 -16.5 -11.5t-23.5 -4.5h-113z" />
    <glyph glyph-name="acircumflex" unicode="&#xe2;" horiz-adv-x="606" 
d="M213 -10q-55 0 -98.5 21t-68 56.5t-24.5 79.5q0 72 58.5 113.5t156.5 57.5l116 18v7q0 31 -10 46.5t-40 15.5q-21 0 -34 -8t-24 -23q-10 -11 -26 -11h-141q-10 0 -16.5 6t-5.5 16q1 18 15 42.5t43.5 48t76.5 39t113 15.5q67 0 115 -15t79 -42t46 -65.5t15 -85.5v-296
q0 -11 -7.5 -18.5t-18.5 -7.5h-145q-11 0 -19 7.5t-8 18.5v32q-13 -20 -34.5 -35t-50 -24t-63.5 -9zM271 121q25 0 44 10.5t29.5 32.5t10.5 55v7l-72 -14q-37 -7 -52 -20t-15 -30q0 -12 7 -21t19.5 -14.5t28.5 -5.5zM117 595q-15 0 -15 15q0 8 6 14l107 115q11 11 18.5 15
t17.5 4h100q10 0 18 -4t18 -15l107 -115q7 -6 7 -14q0 -15 -16 -15h-57q-9 0 -18 1t-19 6l-90 45l-90 -45q-8 -5 -18 -6t-19 -1h-57z" />
    <glyph glyph-name="atilde" unicode="&#xe3;" horiz-adv-x="606" 
d="M213 -10q-55 0 -98.5 21t-68 56.5t-24.5 79.5q0 72 58.5 113.5t156.5 57.5l116 18v7q0 31 -10 46.5t-40 15.5q-21 0 -34 -8t-24 -23q-10 -11 -26 -11h-141q-10 0 -16.5 6t-5.5 16q1 18 15 42.5t43.5 48t76.5 39t113 15.5q67 0 115 -15t79 -42t46 -65.5t15 -85.5v-296
q0 -11 -7.5 -18.5t-18.5 -7.5h-145q-11 0 -19 7.5t-8 18.5v32q-13 -20 -34.5 -35t-50 -24t-63.5 -9zM271 121q25 0 44 10.5t29.5 32.5t10.5 55v7l-72 -14q-37 -7 -52 -20t-15 -30q0 -12 7 -21t19.5 -14.5t28.5 -5.5zM365 590q-28 0 -46.5 9t-33 18t-32.5 9q-15 0 -21.5 -7.5
t-11.5 -15.5t-16 -8h-72q-7 0 -12.5 5.5t-5.5 12.5q0 16 6 40t20 47t37.5 38.5t60.5 15.5q28 0 46.5 -9t33 -18t33.5 -9q14 0 20 8t11.5 15.5t16.5 7.5h72q9 0 13.5 -5.5t4.5 -12.5q0 -17 -6 -40.5t-20 -46.5t-38 -38.5t-60 -15.5z" />
    <glyph glyph-name="adieresis" unicode="&#xe4;" horiz-adv-x="606" 
d="M213 -10q-55 0 -98.5 21t-68 56.5t-24.5 79.5q0 72 58.5 113.5t156.5 57.5l116 18v7q0 31 -10 46.5t-40 15.5q-21 0 -34 -8t-24 -23q-10 -11 -26 -11h-141q-10 0 -16.5 6t-5.5 16q1 18 15 42.5t43.5 48t76.5 39t113 15.5q67 0 115 -15t79 -42t46 -65.5t15 -85.5v-296
q0 -11 -7.5 -18.5t-18.5 -7.5h-145q-11 0 -19 7.5t-8 18.5v32q-13 -20 -34.5 -35t-50 -24t-63.5 -9zM271 121q25 0 44 10.5t29.5 32.5t10.5 55v7l-72 -14q-37 -7 -52 -20t-15 -30q0 -12 7 -21t19.5 -14.5t28.5 -5.5zM358 601q-10 0 -16 6t-6 17v108q0 10 6 16.5t16 6.5h108
q10 0 16.5 -6.5t6.5 -16.5v-108q0 -11 -6.5 -17t-16.5 -6h-108zM136 601q-11 0 -17 6t-6 17v108q0 10 6 16.5t17 6.5h107q10 0 16.5 -6.5t6.5 -16.5v-108q0 -11 -6.5 -17t-16.5 -6h-107z" />
    <glyph glyph-name="aring" unicode="&#xe5;" horiz-adv-x="606" 
d="M213 -10q-55 0 -98.5 21t-68 56.5t-24.5 79.5q0 72 58.5 113.5t156.5 57.5l116 18v7q0 31 -10 46.5t-40 15.5q-21 0 -34 -8t-24 -23q-10 -11 -26 -11h-141q-10 0 -16.5 6t-5.5 16q1 18 15 42.5t43.5 48t76.5 39t113 15.5q67 0 115 -15t79 -42t46 -65.5t15 -85.5v-296
q0 -11 -7.5 -18.5t-18.5 -7.5h-145q-11 0 -19 7.5t-8 18.5v32q-13 -20 -34.5 -35t-50 -24t-63.5 -9zM271 121q25 0 44 10.5t29.5 32.5t10.5 55v7l-72 -14q-37 -7 -52 -20t-15 -30q0 -12 7 -21t19.5 -14.5t28.5 -5.5zM302 590q-39 0 -67.5 26t-28.5 65q0 40 28 66t68 26
t68 -26t28 -66q0 -39 -28 -65t-68 -26zM302 651q13 0 21.5 8.5t8.5 21.5t-8.5 21.5t-21.5 8.5t-21.5 -8.5t-8.5 -21.5t8.5 -21.5t21.5 -8.5z" />
    <glyph glyph-name="ae" unicode="&#xe6;" horiz-adv-x="925" 
d="M229 -10q-65 0 -111.5 21t-71 56.5t-24.5 79.5q0 72 58.5 114t156.5 58l116 18v8q0 31 -10.5 45.5t-39.5 14.5q-21 0 -33 -8t-22.5 -17.5t-24.5 -12.5q-1 -3 -2.5 -3.5t-4.5 -0.5h-138q-10 0 -16 6t-6 16q0 18 14 42.5t44 48t77 39t113 15.5q60 0 99 -12.5t62 -34.5
q31 22 70.5 34.5t86.5 12.5q74 0 125 -22t84 -60.5t48 -87t15 -99.5v-28q0 -10 -7.5 -18t-18.5 -8h-307v-6q0 -28 7.5 -46.5t21.5 -27t31 -8.5q15 0 27 7t23 20q9 9 15 11.5t17 2.5h156q22 0 22 -21q0 -18 -15.5 -43t-47.5 -49.5t-80.5 -40.5t-114.5 -16q-63 0 -112.5 18.5
t-82.5 51.5q-43 -42 -96 -56t-103 -14zM271 121q25 0 44 10.5t29.5 32.5t10.5 55v7l-72 -14q-36 -7 -51.5 -20t-15.5 -30q0 -12 7.5 -21t19.5 -14.5t28 -5.5zM561 319h123v4q0 40 -15.5 61t-46.5 21q-17 0 -31 -8.5t-22 -26.5t-8 -47v-4z" />
    <glyph glyph-name="ccedilla" unicode="&#xe7;" horiz-adv-x="606" 
d="M304 -220q-26 0 -48 9t-31 21t1 21l20 17q9 8 15 6t15.5 -7t27.5 -5q15 0 23 8t8 19t-7.5 19t-23.5 8q-10 0 -20 -3t-19 -3.5t-16 5.5l-20 20q-7 7 -7 13.5t6 19.5l21 46q-92 13 -150.5 71t-63.5 154q-1 16 -1 40t1 41q4 74 39 125.5t95 78t135 26.5q74 0 126.5 -21
t85 -52t48.5 -62t17 -52q1 -11 -7.5 -18.5t-18.5 -7.5h-161q-11 0 -17 5t-11 15q-10 22 -23 32.5t-35 10.5q-31 0 -46 -21.5t-16 -63.5q-2 -41 0 -71q2 -43 16.5 -63.5t45.5 -20.5q25 0 37 10.5t21 32.5q4 10 10.5 15.5t17.5 5.5h161q10 0 18.5 -8t7.5 -19
q-1 -18 -15.5 -48.5t-46 -62t-83 -53.5t-126.5 -23l-19 -37q6 2 16.5 3.5t14.5 1.5q37 0 58.5 -24.5t21.5 -63.5q0 -40 -26 -65t-72 -25z" />
    <glyph glyph-name="egrave" unicode="&#xe8;" horiz-adv-x="609" 
d="M307 -10q-125 0 -198.5 64.5t-75.5 197.5v10.5v9.5q3 83 36.5 140.5t94 87.5t142.5 30q92 0 152.5 -36.5t90.5 -97t30 -135.5v-28q0 -10 -8 -18t-19 -8h-308v-2v-4q0 -24 6.5 -42.5t20.5 -29t34 -10.5q13 0 22 4t16 10.5t12 12.5q9 9 14.5 11.5t17.5 2.5h157q9 0 15.5 -6
t5.5 -15q-1 -18 -17 -43.5t-47.5 -49.5t-80.5 -40t-113 -16zM244 319h124v2q0 27 -7 46t-21 28.5t-34 9.5t-34 -9.5t-21 -28.5t-7 -46v-2zM264 595q-15 0 -23.5 4.5t-16.5 11.5l-140 115q-5 5 -5 12q0 20 19 20h159q12 0 19.5 -3.5t17.5 -15.5l94 -115q5 -5 5 -13
q0 -16 -16 -16h-113z" />
    <glyph glyph-name="eacute" unicode="&#xe9;" horiz-adv-x="609" 
d="M307 -10q-125 0 -198.5 64.5t-75.5 197.5v10.5v9.5q3 83 36.5 140.5t94 87.5t142.5 30q92 0 152.5 -36.5t90.5 -97t30 -135.5v-28q0 -10 -8 -18t-19 -8h-308v-2v-4q0 -24 6.5 -42.5t20.5 -29t34 -10.5q13 0 22 4t16 10.5t12 12.5q9 9 14.5 11.5t17.5 2.5h157q9 0 15.5 -6
t5.5 -15q-1 -18 -17 -43.5t-47.5 -49.5t-80.5 -40t-113 -16zM244 319h124v2q0 27 -7 46t-21 28.5t-34 9.5t-34 -9.5t-21 -28.5t-7 -46v-2zM233 595q-16 0 -16 16q0 8 5 13l94 115q10 12 17.5 15.5t19.5 3.5h159q19 0 19 -20q0 -7 -5 -12l-140 -115q-8 -7 -16.5 -11.5
t-23.5 -4.5h-113z" />
    <glyph glyph-name="ecircumflex" unicode="&#xea;" horiz-adv-x="609" 
d="M307 -10q-125 0 -198.5 64.5t-75.5 197.5v10.5v9.5q3 83 36.5 140.5t94 87.5t142.5 30q92 0 152.5 -36.5t90.5 -97t30 -135.5v-28q0 -10 -8 -18t-19 -8h-308v-2v-4q0 -24 6.5 -42.5t20.5 -29t34 -10.5q13 0 22 4t16 10.5t12 12.5q9 9 14.5 11.5t17.5 2.5h157q9 0 15.5 -6
t5.5 -15q-1 -18 -17 -43.5t-47.5 -49.5t-80.5 -40t-113 -16zM244 319h124v2q0 27 -7 46t-21 28.5t-34 9.5t-34 -9.5t-21 -28.5t-7 -46v-2zM121 595q-15 0 -15 15q0 8 6 14l107 115q11 11 18.5 15t17.5 4h100q10 0 18 -4t18 -15l107 -115q7 -6 7 -14q0 -15 -16 -15h-57
q-9 0 -18 1t-19 6l-90 45l-90 -45q-8 -5 -18 -6t-19 -1h-57z" />
    <glyph glyph-name="edieresis" unicode="&#xeb;" horiz-adv-x="609" 
d="M307 -10q-125 0 -198.5 64.5t-75.5 197.5v10.5v9.5q3 83 36.5 140.5t94 87.5t142.5 30q92 0 152.5 -36.5t90.5 -97t30 -135.5v-28q0 -10 -8 -18t-19 -8h-308v-2v-4q0 -24 6.5 -42.5t20.5 -29t34 -10.5q13 0 22 4t16 10.5t12 12.5q9 9 14.5 11.5t17.5 2.5h157q9 0 15.5 -6
t5.5 -15q-1 -18 -17 -43.5t-47.5 -49.5t-80.5 -40t-113 -16zM244 319h124v2q0 27 -7 46t-21 28.5t-34 9.5t-34 -9.5t-21 -28.5t-7 -46v-2zM361 601q-10 0 -16 6t-6 17v108q0 10 6 16.5t16 6.5h108q10 0 16.5 -6.5t6.5 -16.5v-108q0 -11 -6.5 -17t-16.5 -6h-108zM139 601
q-11 0 -17 6t-6 17v108q0 10 6 16.5t17 6.5h107q10 0 16.5 -6.5t6.5 -16.5v-108q0 -11 -6.5 -17t-16.5 -6h-107z" />
    <glyph glyph-name="igrave" unicode="&#xec;" horiz-adv-x="304" 
d="M78 0q-11 0 -18.5 7.5t-7.5 18.5v468q0 11 7.5 18.5t18.5 7.5h148q11 0 19 -7.5t8 -18.5v-468q0 -11 -8 -18.5t-19 -7.5h-148zM112 595q-15 0 -23.5 4.5t-16.5 11.5l-140 115q-5 5 -5 12q0 20 19 20h159q12 0 19.5 -3.5t17.5 -15.5l94 -115q5 -5 5 -13q0 -16 -16 -16
h-113z" />
    <glyph glyph-name="iacute" unicode="&#xed;" horiz-adv-x="304" 
d="M78 0q-11 0 -18.5 7.5t-7.5 18.5v468q0 11 7.5 18.5t18.5 7.5h148q11 0 19 -7.5t8 -18.5v-468q0 -11 -8 -18.5t-19 -7.5h-148zM81 595q-16 0 -16 16q0 8 5 13l94 115q10 12 17.5 15.5t19.5 3.5h159q19 0 19 -20q0 -7 -5 -12l-140 -115q-8 -7 -16.5 -11.5t-23.5 -4.5h-113
z" />
    <glyph glyph-name="icircumflex" unicode="&#xee;" horiz-adv-x="304" 
d="M78 0q-11 0 -18.5 7.5t-7.5 18.5v468q0 11 7.5 18.5t18.5 7.5h148q11 0 19 -7.5t8 -18.5v-468q0 -11 -8 -18.5t-19 -7.5h-148zM-31 595q-15 0 -15 15q0 8 6 14l107 115q11 11 18.5 15t17.5 4h100q10 0 18 -4t18 -15l107 -115q7 -6 7 -14q0 -15 -16 -15h-57q-9 0 -18 1
t-19 6l-90 45l-90 -45q-8 -5 -18 -6t-19 -1h-57z" />
    <glyph glyph-name="idieresis" unicode="&#xef;" horiz-adv-x="304" 
d="M78 0q-11 0 -18.5 7.5t-7.5 18.5v468q0 11 7.5 18.5t18.5 7.5h148q11 0 19 -7.5t8 -18.5v-468q0 -11 -8 -18.5t-19 -7.5h-148zM209 601q-10 0 -16 6t-6 17v108q0 10 6 16.5t16 6.5h108q10 0 16.5 -6.5t6.5 -16.5v-108q0 -11 -6.5 -17t-16.5 -6h-108zM-13 601q-11 0 -17 6
t-6 17v108q0 10 6 16.5t17 6.5h107q10 0 16.5 -6.5t6.5 -16.5v-108q0 -11 -6.5 -17t-16.5 -6h-107z" />
    <glyph glyph-name="eth" unicode="&#xf0;" horiz-adv-x="622" 
d="M308 -10q-84 0 -146 27t-96.5 81t-34.5 132q0 79 36 132.5t99 80.5t142 27q11 0 19.5 -2t16.5 -5q-14 35 -36 66l-114 -44q-7 -3 -12 -3q-9 0 -14.5 6t-5.5 15v26q0 13 5 20t17 11l71 28q-19 19 -40.5 37t-44.5 34q-8 5 -11 10t-3 9q0 9 6.5 15.5t15.5 6.5h156
q19 0 31 -4t19 -9q10 -9 20.5 -16.5t19.5 -16.5l90 35q8 3 12 3q8 0 14 -6t6 -15v-26q0 -12 -5 -19t-17 -12l-45 -18q47 -57 74 -134.5t32 -183.5v-26.5v-25.5q-4 -76 -38 -129t-94.5 -80t-144.5 -27zM308 131q24 0 38 9.5t21 27t7 40.5q1 12 1 21.5t-1 22.5q-1 22 -7 39.5
t-20 27.5t-39 10q-24 0 -38.5 -10t-20.5 -27.5t-7 -39.5q-1 -13 -1 -22t1 -22q1 -22 7 -40t20.5 -27.5t38.5 -9.5z" />
    <glyph glyph-name="ntilde" unicode="&#xf1;" horiz-adv-x="658" 
d="M78 0q-11 0 -18.5 7.5t-7.5 18.5v468q0 11 7.5 18.5t18.5 7.5h145q11 0 18.5 -7.5t7.5 -18.5v-36q26 30 69 51t98 21q54 0 98 -25t71 -75t27 -126v-278q0 -11 -8 -18.5t-19 -7.5h-158q-11 0 -18.5 7.5t-7.5 18.5v271q0 37 -18 57t-51 20t-52 -20t-19 -57v-271
q0 -11 -7.5 -18.5t-18.5 -7.5h-157zM395 590q-28 0 -46.5 9t-33 18t-32.5 9q-15 0 -21.5 -7.5t-11.5 -15.5t-16 -8h-72q-7 0 -12.5 5.5t-5.5 12.5q0 16 6 40t20 47t37.5 38.5t60.5 15.5q28 0 46.5 -9t33 -18t33.5 -9q14 0 20 8t11.5 15.5t16.5 7.5h72q9 0 13.5 -5.5
t4.5 -12.5q0 -17 -6 -40.5t-20 -46.5t-38 -38.5t-60 -15.5z" />
    <glyph glyph-name="ograve" unicode="&#xf2;" horiz-adv-x="626" 
d="M313 -10q-88 0 -148.5 26t-92.5 76.5t-36 121.5q-1 21 -1 46t1 46q4 72 38 122t94.5 76t144.5 26t144.5 -26t94.5 -76t38 -122q2 -21 2 -46t-2 -46q-4 -71 -36 -121.5t-92.5 -76.5t-148.5 -26zM313 131q37 0 51 22t16 66q1 15 1 41t-1 41q-2 43 -16 65.5t-51 22.5
q-36 0 -50 -22.5t-17 -65.5q-1 -15 -1 -41t1 -41q3 -44 17 -66t50 -22zM272 595q-15 0 -23.5 4.5t-16.5 11.5l-140 115q-5 5 -5 12q0 20 19 20h159q12 0 19.5 -3.5t17.5 -15.5l94 -115q5 -5 5 -13q0 -16 -16 -16h-113z" />
    <glyph glyph-name="oacute" unicode="&#xf3;" horiz-adv-x="626" 
d="M313 -10q-88 0 -148.5 26t-92.5 76.5t-36 121.5q-1 21 -1 46t1 46q4 72 38 122t94.5 76t144.5 26t144.5 -26t94.5 -76t38 -122q2 -21 2 -46t-2 -46q-4 -71 -36 -121.5t-92.5 -76.5t-148.5 -26zM313 131q37 0 51 22t16 66q1 15 1 41t-1 41q-2 43 -16 65.5t-51 22.5
q-36 0 -50 -22.5t-17 -65.5q-1 -15 -1 -41t1 -41q3 -44 17 -66t50 -22zM242 595q-16 0 -16 16q0 8 5 13l94 115q10 12 17.5 15.5t19.5 3.5h159q19 0 19 -20q0 -7 -5 -12l-140 -115q-8 -7 -16.5 -11.5t-23.5 -4.5h-113z" />
    <glyph glyph-name="ocircumflex" unicode="&#xf4;" horiz-adv-x="626" 
d="M313 -10q-88 0 -148.5 26t-92.5 76.5t-36 121.5q-1 21 -1 46t1 46q4 72 38 122t94.5 76t144.5 26t144.5 -26t94.5 -76t38 -122q2 -21 2 -46t-2 -46q-4 -71 -36 -121.5t-92.5 -76.5t-148.5 -26zM313 131q37 0 51 22t16 66q1 15 1 41t-1 41q-2 43 -16 65.5t-51 22.5
q-36 0 -50 -22.5t-17 -65.5q-1 -15 -1 -41t1 -41q3 -44 17 -66t50 -22zM129 595q-15 0 -15 15q0 8 6 14l107 115q11 11 18.5 15t17.5 4h100q10 0 18 -4t18 -15l107 -115q7 -6 7 -14q0 -15 -16 -15h-57q-9 0 -18 1t-19 6l-90 45l-90 -45q-8 -5 -18 -6t-19 -1h-57z" />
    <glyph glyph-name="otilde" unicode="&#xf5;" horiz-adv-x="626" 
d="M313 -10q-88 0 -148.5 26t-92.5 76.5t-36 121.5q-1 21 -1 46t1 46q4 72 38 122t94.5 76t144.5 26t144.5 -26t94.5 -76t38 -122q2 -21 2 -46t-2 -46q-4 -71 -36 -121.5t-92.5 -76.5t-148.5 -26zM313 131q37 0 51 22t16 66q1 15 1 41t-1 41q-2 43 -16 65.5t-51 22.5
q-36 0 -50 -22.5t-17 -65.5q-1 -15 -1 -41t1 -41q3 -44 17 -66t50 -22zM376 590q-28 0 -46.5 9t-33 18t-32.5 9q-15 0 -21.5 -7.5t-11.5 -15.5t-16 -8h-72q-7 0 -12.5 5.5t-5.5 12.5q0 16 6 40t20 47t37.5 38.5t60.5 15.5q28 0 46.5 -9t33 -18t33.5 -9q14 0 20 8t11.5 15.5
t16.5 7.5h72q9 0 13.5 -5.5t4.5 -12.5q0 -17 -6 -40.5t-20 -46.5t-38 -38.5t-60 -15.5z" />
    <glyph glyph-name="odieresis" unicode="&#xf6;" horiz-adv-x="626" 
d="M313 -10q-88 0 -148.5 26t-92.5 76.5t-36 121.5q-1 21 -1 46t1 46q4 72 38 122t94.5 76t144.5 26t144.5 -26t94.5 -76t38 -122q2 -21 2 -46t-2 -46q-4 -71 -36 -121.5t-92.5 -76.5t-148.5 -26zM313 131q37 0 51 22t16 66q1 15 1 41t-1 41q-2 43 -16 65.5t-51 22.5
q-36 0 -50 -22.5t-17 -65.5q-1 -15 -1 -41t1 -41q3 -44 17 -66t50 -22zM370 601q-10 0 -16 6t-6 17v108q0 10 6 16.5t16 6.5h108q10 0 16.5 -6.5t6.5 -16.5v-108q0 -11 -6.5 -17t-16.5 -6h-108zM148 601q-11 0 -17 6t-6 17v108q0 10 6 16.5t17 6.5h107q10 0 16.5 -6.5
t6.5 -16.5v-108q0 -11 -6.5 -17t-16.5 -6h-107z" />
    <glyph glyph-name="divide" unicode="&#xf7;" horiz-adv-x="526" 
d="M63 226q-10 0 -18 7.5t-8 18.5v96q0 11 8 19t18 8h400q11 0 18.5 -8t7.5 -19v-96q0 -11 -7.5 -18.5t-18.5 -7.5h-400zM208 34q-11 0 -18.5 8t-7.5 18v102q0 11 7.5 18.5t18.5 7.5h109q11 0 19 -7.5t8 -18.5v-102q0 -10 -8 -18t-19 -8h-109zM208 412q-11 0 -18.5 7.5
t-7.5 18.5v102q0 10 7.5 18t18.5 8h109q11 0 19 -8t8 -18v-102q0 -11 -8 -18.5t-19 -7.5h-109z" />
    <glyph glyph-name="oslash" unicode="&#xf8;" horiz-adv-x="626" 
d="M313 -10q-88 0 -148.5 26t-92.5 76.5t-36 121.5q-1 21 -1 46t1 46q4 72 38 122t94.5 76t144.5 26t144.5 -26t94.5 -76t38 -122q2 -21 2 -46t-2 -46q-4 -71 -36 -121.5t-92.5 -76.5t-148.5 -26zM313 131q37 0 51 22t16 66q1 15 1 41t-1 41q-2 43 -16 65.5t-51 22.5
q-36 0 -50 -22.5t-17 -65.5q-1 -15 -1 -41t1 -41q3 -44 17 -66t50 -22zM62 -28q-8 0 -14 6t-6 14q0 3 1 6.5t5 8.5l457 525q3 4 9 9.5t16 5.5h34q8 0 14 -6t6 -14q0 -1 -0.5 -5.5t-4.5 -9.5l-457 -525q-3 -4 -9 -9.5t-16 -5.5h-35z" />
    <glyph glyph-name="ugrave" unicode="&#xf9;" horiz-adv-x="657" 
d="M242 -10q-53 0 -97.5 25t-71 75t-26.5 126v278q0 11 7.5 18.5t18.5 7.5h158q11 0 18.5 -7.5t7.5 -18.5v-271q0 -77 69 -77q33 0 51.5 20t18.5 57v271q0 11 7.5 18.5t18.5 7.5h158q10 0 18 -7.5t8 -18.5v-468q0 -11 -8 -18.5t-18 -7.5h-146q-11 0 -18.5 7.5t-7.5 18.5v36
q-25 -37 -68 -54.5t-98 -17.5zM287 595q-15 0 -23.5 4.5t-16.5 11.5l-140 115q-5 5 -5 12q0 20 19 20h159q12 0 19.5 -3.5t17.5 -15.5l94 -115q5 -5 5 -13q0 -16 -16 -16h-113z" />
    <glyph glyph-name="uacute" unicode="&#xfa;" horiz-adv-x="657" 
d="M242 -10q-53 0 -97.5 25t-71 75t-26.5 126v278q0 11 7.5 18.5t18.5 7.5h158q11 0 18.5 -7.5t7.5 -18.5v-271q0 -77 69 -77q33 0 51.5 20t18.5 57v271q0 11 7.5 18.5t18.5 7.5h158q10 0 18 -7.5t8 -18.5v-468q0 -11 -8 -18.5t-18 -7.5h-146q-11 0 -18.5 7.5t-7.5 18.5v36
q-25 -37 -68 -54.5t-98 -17.5zM257 595q-16 0 -16 16q0 8 5 13l94 115q10 12 17.5 15.5t19.5 3.5h159q19 0 19 -20q0 -7 -5 -12l-140 -115q-8 -7 -16.5 -11.5t-23.5 -4.5h-113z" />
    <glyph glyph-name="ucircumflex" unicode="&#xfb;" horiz-adv-x="657" 
d="M242 -10q-53 0 -97.5 25t-71 75t-26.5 126v278q0 11 7.5 18.5t18.5 7.5h158q11 0 18.5 -7.5t7.5 -18.5v-271q0 -77 69 -77q33 0 51.5 20t18.5 57v271q0 11 7.5 18.5t18.5 7.5h158q10 0 18 -7.5t8 -18.5v-468q0 -11 -8 -18.5t-18 -7.5h-146q-11 0 -18.5 7.5t-7.5 18.5v36
q-25 -37 -68 -54.5t-98 -17.5zM144 595q-15 0 -15 15q0 8 6 14l107 115q11 11 18.5 15t17.5 4h100q10 0 18 -4t18 -15l107 -115q7 -6 7 -14q0 -15 -16 -15h-57q-9 0 -18 1t-19 6l-90 45l-90 -45q-8 -5 -18 -6t-19 -1h-57z" />
    <glyph glyph-name="udieresis" unicode="&#xfc;" horiz-adv-x="657" 
d="M242 -10q-53 0 -97.5 25t-71 75t-26.5 126v278q0 11 7.5 18.5t18.5 7.5h158q11 0 18.5 -7.5t7.5 -18.5v-271q0 -77 69 -77q33 0 51.5 20t18.5 57v271q0 11 7.5 18.5t18.5 7.5h158q10 0 18 -7.5t8 -18.5v-468q0 -11 -8 -18.5t-18 -7.5h-146q-11 0 -18.5 7.5t-7.5 18.5v36
q-25 -37 -68 -54.5t-98 -17.5zM385 601q-10 0 -16 6t-6 17v108q0 10 6 16.5t16 6.5h108q10 0 16.5 -6.5t6.5 -16.5v-108q0 -11 -6.5 -17t-16.5 -6h-108zM163 601q-11 0 -17 6t-6 17v108q0 10 6 16.5t17 6.5h107q10 0 16.5 -6.5t6.5 -16.5v-108q0 -11 -6.5 -17t-16.5 -6h-107
z" />
    <glyph glyph-name="yacute" unicode="&#xfd;" horiz-adv-x="617" 
d="M152 -190q-9 0 -15.5 6t-6.5 15q0 2 0.5 5t1.5 7l80 189l-193 455q-2 6 -2 10q2 9 8.5 16t15.5 7h141q15 0 21.5 -7.5t9.5 -14.5l98 -260l101 260q4 8 11 15t21 7h140q8 0 15 -6.5t7 -14.5q0 -6 -2 -12l-282 -655q-4 -8 -11.5 -15t-21.5 -7h-137zM240 595q-16 0 -16 16
q0 8 5 13l94 115q10 12 17.5 15.5t19.5 3.5h159q19 0 19 -20q0 -7 -5 -12l-140 -115q-8 -7 -16.5 -11.5t-23.5 -4.5h-113z" />
    <glyph glyph-name="thorn" unicode="&#xfe;" horiz-adv-x="647" 
d="M79 -190q-11 0 -18.5 7.5t-7.5 18.5v848q0 11 7.5 18.5t18.5 7.5h153q11 0 18.5 -7.5t7.5 -18.5v-215q24 30 55 45.5t85 15.5q47 0 84.5 -14t65.5 -42.5t44 -72.5t18 -103q1 -21 1 -38t-1 -39q-1 -56 -17.5 -99t-44 -72.5t-65.5 -44.5t-85 -15q-46 0 -81 15.5t-59 48.5
v-218q0 -11 -7.5 -18.5t-18.5 -7.5h-153zM329 146q27 0 41.5 10.5t21 29t8.5 42.5q2 32 0 64q-2 24 -8.5 42.5t-21 29t-41.5 10.5q-25 0 -40.5 -11t-22 -29t-8.5 -40q-1 -21 -1 -37.5t1 -37.5t9 -37t23 -26t39 -10z" />
    <glyph glyph-name="ydieresis" unicode="&#xff;" horiz-adv-x="617" 
d="M152 -190q-9 0 -15.5 6t-6.5 15q0 2 0.5 5t1.5 7l80 189l-193 455q-2 6 -2 10q2 9 8.5 16t15.5 7h141q15 0 21.5 -7.5t9.5 -14.5l98 -260l101 260q4 8 11 15t21 7h140q8 0 15 -6.5t7 -14.5q0 -6 -2 -12l-282 -655q-4 -8 -11.5 -15t-21.5 -7h-137zM368 601q-10 0 -16 6
t-6 17v108q0 10 6 16.5t16 6.5h108q10 0 16.5 -6.5t6.5 -16.5v-108q0 -11 -6.5 -17t-16.5 -6h-108zM146 601q-11 0 -17 6t-6 17v108q0 10 6 16.5t17 6.5h107q10 0 16.5 -6.5t6.5 -16.5v-108q0 -11 -6.5 -17t-16.5 -6h-107z" />
    <glyph glyph-name="Amacron" unicode="&#x100;" horiz-adv-x="735" 
d="M26 0q-9 0 -15 6.5t-6 15.5q0 4 1 7l228 640q4 11 14 21t28 10h183q19 0 29 -10t13 -21l229 -640q1 -3 1 -7q0 -9 -6.5 -15.5t-15.5 -6.5h-154q-17 0 -25 8t-11 15l-31 84h-241l-31 -84q-3 -7 -10.5 -15t-25.5 -8h-154zM293 276h149l-75 225zM196 750q-11 0 -17 6t-6 17
v88q0 11 6 17t17 6h343q11 0 17 -6t6 -17v-88q0 -11 -6 -17t-17 -6h-343z" />
    <glyph glyph-name="amacron" unicode="&#x101;" horiz-adv-x="606" 
d="M213 -10q-55 0 -98.5 21t-68 56.5t-24.5 79.5q0 72 58.5 113.5t156.5 57.5l116 18v7q0 31 -10 46.5t-40 15.5q-21 0 -34 -8t-24 -23q-10 -11 -26 -11h-141q-10 0 -16.5 6t-5.5 16q1 18 15 42.5t43.5 48t76.5 39t113 15.5q67 0 115 -15t79 -42t46 -65.5t15 -85.5v-296
q0 -11 -7.5 -18.5t-18.5 -7.5h-145q-11 0 -19 7.5t-8 18.5v32q-13 -20 -34.5 -35t-50 -24t-63.5 -9zM271 121q25 0 44 10.5t29.5 32.5t10.5 55v7l-72 -14q-37 -7 -52 -20t-15 -30q0 -12 7 -21t19.5 -14.5t28.5 -5.5zM150 600q-11 0 -17 6.5t-6 16.5v87q0 10 6 16.5t17 6.5
h303q10 0 16 -6.5t6 -16.5v-87q0 -10 -6 -16.5t-16 -6.5h-303z" />
    <glyph glyph-name="Abreve" unicode="&#x102;" horiz-adv-x="735" 
d="M26 0q-9 0 -15 6.5t-6 15.5q0 4 1 7l228 640q4 11 14 21t28 10h183q19 0 29 -10t13 -21l229 -640q1 -3 1 -7q0 -9 -6.5 -15.5t-15.5 -6.5h-154q-17 0 -25 8t-11 15l-31 84h-241l-31 -84q-3 -7 -10.5 -15t-25.5 -8h-154zM293 276h149l-75 225zM368 744q-57 0 -94 20
t-54 53.5t-17 75.5q0 8 5 13.5t14 5.5h83q9 0 14 -5.5t5 -13.5q0 -23 9 -40t35 -17q27 0 35.5 17t8.5 40q0 8 5 13.5t14 5.5h84q9 0 14 -5.5t5 -13.5q0 -42 -17.5 -75.5t-54 -53.5t-94.5 -20z" />
    <glyph glyph-name="abreve" unicode="&#x103;" horiz-adv-x="606" 
d="M213 -10q-55 0 -98.5 21t-68 56.5t-24.5 79.5q0 72 58.5 113.5t156.5 57.5l116 18v7q0 31 -10 46.5t-40 15.5q-21 0 -34 -8t-24 -23q-10 -11 -26 -11h-141q-10 0 -16.5 6t-5.5 16q1 18 15 42.5t43.5 48t76.5 39t113 15.5q67 0 115 -15t79 -42t46 -65.5t15 -85.5v-296
q0 -11 -7.5 -18.5t-18.5 -7.5h-145q-11 0 -19 7.5t-8 18.5v32q-13 -20 -34.5 -35t-50 -24t-63.5 -9zM271 121q25 0 44 10.5t29.5 32.5t10.5 55v7l-72 -14q-37 -7 -52 -20t-15 -30q0 -12 7 -21t19.5 -14.5t28.5 -5.5zM302 590q-53 0 -88.5 20t-53.5 53.5t-18 75.5q0 8 5 13.5
t14 5.5h79q9 0 14 -5.5t5 -13.5q0 -23 9.5 -40.5t33.5 -17.5q25 0 34 17.5t9 40.5q0 8 5 13.5t14 5.5h79q9 0 14 -5.5t5 -13.5q0 -42 -17.5 -75.5t-53.5 -53.5t-89 -20z" />
    <glyph glyph-name="Aogonek" unicode="&#x104;" horiz-adv-x="735" 
d="M679 -220q-56 0 -92.5 22t-54 59.5t-17.5 83.5q0 22 6.5 38.5t17.5 26.5q-11 2 -16 9t-7 13l-28 75h-241l-31 -84q-3 -7 -10.5 -15t-25.5 -8h-154q-9 0 -15 6.5t-6 15.5q0 4 1 7l228 640q4 11 14 21t28 10h183q19 0 29 -10t13 -21l229 -640q1 -3 1 -7q0 -9 -6.5 -15.5
t-15.5 -6.5h-30q-27 -1 -38.5 -18.5t-11.5 -36.5q0 -20 12.5 -37.5t41.5 -17.5h11q11 0 18.5 -7.5t7.5 -18.5v-58q0 -11 -7.5 -18.5t-18.5 -7.5h-15zM293 276h149l-75 225z" />
    <glyph glyph-name="aogonek" unicode="&#x105;" horiz-adv-x="606" 
d="M520 -220q-55 0 -90.5 21.5t-53 58.5t-17.5 83q0 13 3 24.5t7.5 21.5t8.5 18q-8 1 -12.5 7.5t-4.5 14.5v29q-13 -20 -34.5 -35t-50 -24t-63.5 -9q-55 0 -98.5 21t-68 56.5t-24.5 79.5q0 72 58.5 113.5t156.5 57.5l116 18v7q0 31 -10 46.5t-40 15.5q-21 0 -33 -8
t-22.5 -17.5t-24.5 -12.5q-1 -3 -2.5 -3.5t-4.5 -0.5h-138q-10 0 -16.5 6t-5.5 16q1 18 15 42.5t43.5 48t76.5 39t113 15.5q67 0 115 -15t79 -42t46 -65.5t15 -85.5v-296q0 -10 -7 -17.5t-18 -8.5h-13q-26 -4 -37 -21t-11 -36q0 -20 11.5 -36.5t39.5 -16.5h9q11 0 18.5 -7.5
t7.5 -18.5v-58q0 -11 -7.5 -18.5t-18.5 -7.5h-13zM271 121q25 0 44 10.5t29.5 32.5t10.5 55v7l-72 -14q-37 -7 -52 -20t-15 -30q0 -12 7 -21t19.5 -14.5t28.5 -5.5z" />
    <glyph glyph-name="Cacute" unicode="&#x106;" horiz-adv-x="718" 
d="M364 -10q-95 0 -166 29.5t-111.5 89.5t-44.5 152q-1 41 -1 88t1 90q4 90 45.5 150.5t113 90.5t163.5 30q66 0 123.5 -15.5t102.5 -47t71 -77.5t27 -108q0 -9 -6.5 -15.5t-15.5 -6.5h-169q-15 0 -22 6t-12 21q-13 43 -38 58t-61 15q-44 0 -70 -23.5t-28 -82.5
q-3 -82 0 -168q2 -59 28 -82.5t70 -23.5q36 0 61.5 16t37.5 57q4 16 11.5 21.5t22.5 5.5h169q9 0 15.5 -6t6.5 -15q-1 -62 -27 -108.5t-71 -78t-102.5 -47t-123.5 -15.5zM282 750q-16 0 -16 16q0 8 5 13l94 115q10 12 17.5 15.5t19.5 3.5h168q19 0 19 -20q0 -7 -5 -12
l-140 -115q-8 -7 -16.5 -11.5t-23.5 -4.5h-122z" />
    <glyph glyph-name="cacute" unicode="&#x107;" horiz-adv-x="606" 
d="M304 -10q-75 0 -134.5 26.5t-95 78t-39.5 124.5q-1 16 -1 40t1 41q4 74 39 125.5t95 78t135 26.5q74 0 126.5 -21t85 -52t48.5 -62t17 -52q1 -11 -7.5 -18.5t-18.5 -7.5h-161q-11 0 -17 5t-11 15q-10 22 -23 32.5t-35 10.5q-31 0 -46 -21.5t-16 -63.5q-2 -41 0 -71
q2 -43 16.5 -63.5t45.5 -20.5q25 0 37 10.5t21 32.5q4 10 10.5 15.5t17.5 5.5h161q10 0 18.5 -8t7.5 -19q-1 -14 -10.5 -37.5t-29 -49t-51.5 -48.5t-78 -37.5t-108 -14.5zM232 595q-16 0 -16 16q0 8 5 13l94 115q10 12 17.5 15.5t19.5 3.5h159q19 0 19 -20q0 -7 -5 -12
l-140 -115q-8 -7 -16.5 -11.5t-23.5 -4.5h-113z" />
    <glyph glyph-name="Ccircumflex" unicode="&#x108;" horiz-adv-x="718" 
d="M364 -10q-95 0 -166 29.5t-111.5 89.5t-44.5 152q-1 41 -1 88t1 90q4 90 45.5 150.5t113 90.5t163.5 30q66 0 123.5 -15.5t102.5 -47t71 -77.5t27 -108q0 -9 -6.5 -15.5t-15.5 -6.5h-169q-15 0 -22 6t-12 21q-13 43 -38 58t-61 15q-44 0 -70 -23.5t-28 -82.5
q-3 -82 0 -168q2 -59 28 -82.5t70 -23.5q36 0 61.5 16t37.5 57q4 16 11.5 21.5t22.5 5.5h169q9 0 15.5 -6t6.5 -15q-1 -62 -27 -108.5t-71 -78t-102.5 -47t-123.5 -15.5zM171 750q-15 0 -15 15q0 8 6 14l107 115q10 11 18 15t18 4h108q10 0 18 -4t18 -15l107 -115
q7 -6 7 -14q0 -15 -16 -15h-61q-9 0 -18 1t-19 6l-90 45l-90 -45q-9 -5 -18.5 -6t-18.5 -1h-61z" />
    <glyph glyph-name="ccircumflex" unicode="&#x109;" horiz-adv-x="606" 
d="M304 -10q-75 0 -134.5 26.5t-95 78t-39.5 124.5q-1 16 -1 40t1 41q4 74 39 125.5t95 78t135 26.5q74 0 126.5 -21t85 -52t48.5 -62t17 -52q1 -11 -7.5 -18.5t-18.5 -7.5h-161q-11 0 -17 5t-11 15q-10 22 -23 32.5t-35 10.5q-31 0 -46 -21.5t-16 -63.5q-2 -41 0 -71
q2 -43 16.5 -63.5t45.5 -20.5q25 0 37 10.5t21 32.5q4 10 10.5 15.5t17.5 5.5h161q10 0 18.5 -8t7.5 -19q-1 -14 -10.5 -37.5t-29 -49t-51.5 -48.5t-78 -37.5t-108 -14.5zM119 595q-15 0 -15 15q0 8 6 14l107 115q11 11 18.5 15t17.5 4h100q10 0 18 -4t18 -15l107 -115
q7 -6 7 -14q0 -15 -16 -15h-57q-9 0 -18 1t-19 6l-90 45l-90 -45q-8 -5 -18 -6t-19 -1h-57z" />
    <glyph glyph-name="Cdotaccent" unicode="&#x10a;" horiz-adv-x="718" 
d="M364 -10q-95 0 -166 29.5t-111.5 89.5t-44.5 152q-1 41 -1 88t1 90q4 90 45.5 150.5t113 90.5t163.5 30q66 0 123.5 -15.5t102.5 -47t71 -77.5t27 -108q0 -9 -6.5 -15.5t-15.5 -6.5h-169q-15 0 -22 6t-12 21q-13 43 -38 58t-61 15q-44 0 -70 -23.5t-28 -82.5
q-3 -82 0 -168q2 -59 28 -82.5t70 -23.5q36 0 61.5 16t37.5 57q4 16 11.5 21.5t22.5 5.5h169q9 0 15.5 -6t6.5 -15q-1 -62 -27 -108.5t-71 -78t-102.5 -47t-123.5 -15.5zM300 750q-11 0 -17 6t-6 17v119q0 10 6 16.5t17 6.5h119q10 0 16.5 -6.5t6.5 -16.5v-119
q0 -11 -6.5 -17t-16.5 -6h-119z" />
    <glyph glyph-name="cdotaccent" unicode="&#x10b;" horiz-adv-x="606" 
d="M304 -10q-75 0 -134.5 26.5t-95 78t-39.5 124.5q-1 16 -1 40t1 41q4 74 39 125.5t95 78t135 26.5q74 0 126.5 -21t85 -52t48.5 -62t17 -52q1 -11 -7.5 -18.5t-18.5 -7.5h-161q-11 0 -17 5t-11 15q-10 22 -23 32.5t-35 10.5q-31 0 -46 -21.5t-16 -63.5q-2 -41 0 -71
q2 -43 16.5 -63.5t45.5 -20.5q25 0 37 10.5t21 32.5q4 10 10.5 15.5t17.5 5.5h161q10 0 18.5 -8t7.5 -19q-1 -14 -10.5 -37.5t-29 -49t-51.5 -48.5t-78 -37.5t-108 -14.5zM246 599q-11 0 -17 6.5t-6 16.5v115q0 10 6 16.5t17 6.5h115q10 0 16.5 -6.5t6.5 -16.5v-115
q0 -10 -6.5 -16.5t-16.5 -6.5h-115z" />
    <glyph glyph-name="Ccaron" unicode="&#x10c;" horiz-adv-x="718" 
d="M364 -10q-95 0 -166 29.5t-111.5 89.5t-44.5 152q-1 41 -1 88t1 90q4 90 45.5 150.5t113 90.5t163.5 30q66 0 123.5 -15.5t102.5 -47t71 -77.5t27 -108q0 -9 -6.5 -15.5t-15.5 -6.5h-169q-15 0 -22 6t-12 21q-13 43 -38 58t-61 15q-44 0 -70 -23.5t-28 -82.5
q-3 -82 0 -168q2 -59 28 -82.5t70 -23.5q36 0 61.5 16t37.5 57q4 16 11.5 21.5t22.5 5.5h169q9 0 15.5 -6t6.5 -15q-1 -62 -27 -108.5t-71 -78t-102.5 -47t-123.5 -15.5zM305 750q-10 0 -18 4t-18 14l-107 115q-6 6 -6 14q0 16 15 16h61q9 0 18.5 -1.5t18.5 -5.5l90 -46
l90 46q10 4 19 5.5t18 1.5h61q16 0 16 -16q0 -8 -7 -14l-107 -115q-10 -10 -18 -14t-18 -4h-108z" />
    <glyph glyph-name="ccaron" unicode="&#x10d;" horiz-adv-x="606" 
d="M304 -10q-75 0 -134.5 26.5t-95 78t-39.5 124.5q-1 16 -1 40t1 41q4 74 39 125.5t95 78t135 26.5q74 0 126.5 -21t85 -52t48.5 -62t17 -52q1 -11 -7.5 -18.5t-18.5 -7.5h-161q-11 0 -17 5t-11 15q-10 22 -23 32.5t-35 10.5q-31 0 -46 -21.5t-16 -63.5q-2 -41 0 -71
q2 -43 16.5 -63.5t45.5 -20.5q25 0 37 10.5t21 32.5q4 10 10.5 15.5t17.5 5.5h161q10 0 18.5 -8t7.5 -19q-1 -14 -10.5 -37.5t-29 -49t-51.5 -48.5t-78 -37.5t-108 -14.5zM253 595q-10 0 -17.5 4t-18.5 14l-107 115q-6 6 -6 14q0 16 15 16h57q9 0 19 -1.5t18 -5.5l90 -46
l90 46q10 4 19 5.5t18 1.5h57q16 0 16 -16q0 -8 -7 -14l-107 -115q-10 -10 -18 -14t-18 -4h-100z" />
    <glyph glyph-name="Dcaron" unicode="&#x10e;" horiz-adv-x="728" 
d="M88 0q-10 0 -18 7.5t-8 18.5v648q0 11 8 18.5t18 7.5h274q97 0 168 -31.5t112 -92.5t44 -150q2 -43 2 -76t-2 -75q-4 -94 -42.5 -155t-108.5 -90.5t-168 -29.5h-279zM277 170h85q33 0 56 11t36 34.5t14 60.5q1 29 1.5 52t0 46t-1.5 51q-2 55 -31.5 80t-79.5 25h-80v-360z
M305 750q-10 0 -18 4t-18 14l-107 115q-6 6 -6 14q0 16 15 16h61q9 0 18.5 -1.5t18.5 -5.5l90 -46l90 46q10 4 19 5.5t18 1.5h61q16 0 16 -16q0 -8 -7 -14l-107 -115q-10 -10 -18 -14t-18 -4h-108z" />
    <glyph glyph-name="dcaron" unicode="&#x10f;" horiz-adv-x="770" 
d="M249 -10q-46 0 -84 14t-66 43t-44 73t-19 103q-1 22 -1 38t1 37q2 56 18 99.5t44 72.5t66.5 44.5t84.5 15.5q45 0 80 -14.5t59 -38.5v207q0 11 8 18.5t18 7.5h154q11 0 18.5 -7.5t7.5 -18.5v-658q0 -11 -7.5 -18.5t-18.5 -7.5h-141q-11 0 -19 7.5t-8 18.5v28
q-24 -29 -60.5 -46.5t-90.5 -17.5zM317 146q26 0 41.5 11t22 29t7.5 40q2 22 2 38.5t-2 36.5q-1 21 -8.5 37t-22.5 26t-40 10t-40 -10.5t-21.5 -29t-8.5 -42.5q-3 -32 0 -64q2 -24 8.5 -42.5t21.5 -29t40 -10.5zM667 518q-9 0 -15 6t-5 15l20 134q2 14 11.5 25.5t27.5 11.5
h123q8 0 14 -6t6 -15q0 -5 -1 -9l-52 -133q-4 -10 -13 -19.5t-27 -9.5h-89z" />
    <glyph glyph-name="Dcroat" unicode="&#x110;" horiz-adv-x="749" 
d="M109 0q-11 0 -18.5 7.5t-7.5 18.5v258h-43q-11 0 -18.5 7.5t-7.5 18.5v85q0 11 7.5 18.5t18.5 7.5h43v253q0 11 7.5 18.5t18.5 7.5h274q96 0 167.5 -31.5t112.5 -92.5t43 -150q2 -43 2 -76t-2 -75q-3 -94 -42.5 -155t-110.5 -90.5t-168 -29.5h-276zM298 170h85
q33 0 56 11t35.5 34.5t13.5 60.5q2 29 2.5 52t0 46t-2.5 51q-2 55 -29 80t-77 25h-84v-109h74q10 0 18 -7.5t8 -18.5v-85q0 -11 -8 -18.5t-18 -7.5h-74v-114z" />
    <glyph glyph-name="dcroat" unicode="&#x111;" horiz-adv-x="647" 
d="M249 -10q-47 0 -85.5 14.5t-66 44t-43 73t-17.5 101.5q-1 22 -1 38t1 37q1 54 16.5 97.5t43 73t66.5 45.5t86 16q46 0 80.5 -14.5t58.5 -38.5v75h-35q-11 0 -18.5 8t-7.5 18v44q0 11 7.5 19t18.5 8h35v35q0 11 8 18.5t19 7.5h153q11 0 18.5 -7.5t7.5 -18.5v-35h35
q11 0 18.5 -8t7.5 -19v-44q0 -10 -7.5 -18t-18.5 -8h-35v-526q0 -11 -7.5 -18.5t-18.5 -7.5h-141q-11 0 -18.5 7.5t-7.5 18.5v33q-23 -30 -60.5 -49.5t-91.5 -19.5zM317 146q27 0 42 11t21.5 29t7.5 40q2 22 2 38.5t-2 36.5q-1 21 -8.5 37t-22.5 26t-40 10t-40 -10.5
t-21.5 -29t-8.5 -42.5q-3 -32 0 -64q2 -24 8.5 -42.5t21.5 -29t40 -10.5z" />
    <glyph glyph-name="Emacron" unicode="&#x112;" horiz-adv-x="653" 
d="M88 0q-10 0 -18 7.5t-8 18.5v648q0 11 8 18.5t18 7.5h490q11 0 19 -7.5t8 -18.5v-118q0 -10 -8 -18t-19 -8h-309v-99h287q11 0 19 -7.5t8 -18.5v-108q0 -11 -8 -18.5t-19 -7.5h-287v-101h317q11 0 19 -8t8 -19v-117q0 -11 -8 -18.5t-19 -7.5h-498zM155 750q-11 0 -17 6
t-6 17v88q0 11 6 17t17 6h343q11 0 17 -6t6 -17v-88q0 -11 -6 -17t-17 -6h-343z" />
    <glyph glyph-name="emacron" unicode="&#x113;" horiz-adv-x="609" 
d="M307 -10q-125 0 -198.5 64.5t-75.5 197.5v10.5v9.5q3 83 36.5 140.5t94 87.5t142.5 30q92 0 152.5 -36.5t90.5 -97t30 -135.5v-28q0 -10 -8 -18t-19 -8h-308v-2v-4q0 -24 6.5 -42.5t20.5 -29t34 -10.5q13 0 22 4t16 10.5t12 12.5q9 9 14.5 11.5t17.5 2.5h157q9 0 15.5 -6
t5.5 -15q-1 -18 -17 -43.5t-47.5 -49.5t-80.5 -40t-113 -16zM244 319h124v2q0 27 -7 46t-21 28.5t-34 9.5t-34 -9.5t-21 -28.5t-7 -46v-2zM153 600q-11 0 -17 6.5t-6 16.5v87q0 10 6 16.5t17 6.5h303q10 0 16 -6.5t6 -16.5v-87q0 -10 -6 -16.5t-16 -6.5h-303z" />
    <glyph glyph-name="Ebreve" unicode="&#x114;" horiz-adv-x="653" 
d="M88 0q-10 0 -18 7.5t-8 18.5v648q0 11 8 18.5t18 7.5h490q11 0 19 -7.5t8 -18.5v-118q0 -10 -8 -18t-19 -8h-309v-99h287q11 0 19 -7.5t8 -18.5v-108q0 -11 -8 -18.5t-19 -7.5h-287v-101h317q11 0 19 -8t8 -19v-117q0 -11 -8 -18.5t-19 -7.5h-498zM327 744q-57 0 -94 20
t-54 53.5t-17 75.5q0 8 5 13.5t14 5.5h83q9 0 14 -5.5t5 -13.5q0 -23 9 -40t35 -17q27 0 35.5 17t8.5 40q0 8 5 13.5t14 5.5h84q9 0 14 -5.5t5 -13.5q0 -42 -17.5 -75.5t-54 -53.5t-94.5 -20z" />
    <glyph glyph-name="ebreve" unicode="&#x115;" horiz-adv-x="609" 
d="M307 -10q-125 0 -198.5 64.5t-75.5 197.5v10.5v9.5q3 83 36.5 140.5t94 87.5t142.5 30q92 0 152.5 -36.5t90.5 -97t30 -135.5v-28q0 -10 -8 -18t-19 -8h-308v-2v-4q0 -24 6.5 -42.5t20.5 -29t34 -10.5q13 0 22 4t16 10.5t12 12.5q9 9 14.5 11.5t17.5 2.5h157q9 0 15.5 -6
t5.5 -15q-1 -18 -17 -43.5t-47.5 -49.5t-80.5 -40t-113 -16zM244 319h124v2q0 27 -7 46t-21 28.5t-34 9.5t-34 -9.5t-21 -28.5t-7 -46v-2zM305 590q-53 0 -88.5 20t-53.5 53.5t-18 75.5q0 8 5 13.5t14 5.5h79q9 0 14 -5.5t5 -13.5q0 -23 9.5 -40.5t33.5 -17.5q25 0 34 17.5
t9 40.5q0 8 5 13.5t14 5.5h79q9 0 14 -5.5t5 -13.5q0 -42 -17.5 -75.5t-53.5 -53.5t-89 -20z" />
    <glyph glyph-name="Edotaccent" unicode="&#x116;" horiz-adv-x="653" 
d="M88 0q-10 0 -18 7.5t-8 18.5v648q0 11 8 18.5t18 7.5h490q11 0 19 -7.5t8 -18.5v-118q0 -10 -8 -18t-19 -8h-309v-99h287q11 0 19 -7.5t8 -18.5v-108q0 -11 -8 -18.5t-19 -7.5h-287v-101h317q11 0 19 -8t8 -19v-117q0 -11 -8 -18.5t-19 -7.5h-498zM267 750q-11 0 -17 6
t-6 17v119q0 10 6 16.5t17 6.5h119q10 0 16.5 -6.5t6.5 -16.5v-119q0 -11 -6.5 -17t-16.5 -6h-119z" />
    <glyph glyph-name="edotaccent" unicode="&#x117;" horiz-adv-x="609" 
d="M307 -10q-125 0 -198.5 64.5t-75.5 197.5v10.5v9.5q3 83 36.5 140.5t94 87.5t142.5 30q92 0 152.5 -36.5t90.5 -97t30 -135.5v-28q0 -10 -8 -18t-19 -8h-308v-2v-4q0 -24 6.5 -42.5t20.5 -29t34 -10.5q13 0 22 4t16 10.5t12 12.5q9 9 14.5 11.5t17.5 2.5h157q9 0 15.5 -6
t5.5 -15q-1 -18 -17 -43.5t-47.5 -49.5t-80.5 -40t-113 -16zM244 319h124v2q0 27 -7 46t-21 28.5t-34 9.5t-34 -9.5t-21 -28.5t-7 -46v-2zM247 599q-11 0 -17 6.5t-6 16.5v115q0 10 6 16.5t17 6.5h115q10 0 16.5 -6.5t6.5 -16.5v-115q0 -10 -6.5 -16.5t-16.5 -6.5h-115z" />
    <glyph glyph-name="Eogonek" unicode="&#x118;" horiz-adv-x="653" 
d="M572 -220q-57 0 -93.5 22t-54 59.5t-17.5 83.5q0 16 2.5 29t5.5 26h-327q-10 0 -18 7.5t-8 18.5v648q0 11 8 18.5t18 7.5h490q11 0 19 -7.5t8 -18.5v-118q0 -10 -8 -18t-19 -8h-309v-99h287q11 0 19 -7.5t8 -18.5v-108q0 -11 -8 -18.5t-19 -7.5h-287v-101h317q11 0 19 -8
t8 -19v-117q0 -11 -8 -18.5t-19 -7.5h-12q-29 0 -41 -17.5t-12 -37.5t12.5 -37.5t42.5 -17.5h11q10 0 18 -7.5t8 -18.5v-58q0 -11 -8 -18.5t-18 -7.5h-15z" />
    <glyph glyph-name="eogonek" unicode="&#x119;" horiz-adv-x="609" 
d="M360 -220q-56 0 -92.5 22t-54 59.5t-17.5 83.5q0 32 8 57q-80 22 -125 84.5t-46 165.5v9.5v9.5q2 83 36 141t95 88t142 30q93 0 153 -36.5t90 -97t30 -135.5v-28q0 -10 -8 -18t-18 -8h-309v-6q0 -24 6.5 -42.5t20.5 -29t34 -10.5q13 0 22 4t16 10.5t12 12.5
q9 9 14.5 11.5t17.5 2.5h157q10 0 16.5 -6t5.5 -15q-1 -21 -23.5 -51t-65 -56.5t-108.5 -36.5q-31 -5 -45.5 -18t-14.5 -32q0 -20 12.5 -37.5t42.5 -17.5h11q11 0 18.5 -7.5t7.5 -18.5v-58q0 -11 -7.5 -18.5t-18.5 -7.5h-15zM244 319h124v2q0 27 -7 46t-21 28.5t-34 9.5
t-34 -9.5t-21 -28.5t-7 -46v-2z" />
    <glyph glyph-name="Ecaron" unicode="&#x11a;" horiz-adv-x="653" 
d="M88 0q-10 0 -18 7.5t-8 18.5v648q0 11 8 18.5t18 7.5h490q11 0 19 -7.5t8 -18.5v-118q0 -10 -8 -18t-19 -8h-309v-99h287q11 0 19 -7.5t8 -18.5v-108q0 -11 -8 -18.5t-19 -7.5h-287v-101h317q11 0 19 -8t8 -19v-117q0 -11 -8 -18.5t-19 -7.5h-498zM273 750q-10 0 -18 4
t-18 14l-107 115q-6 6 -6 14q0 16 15 16h61q9 0 18.5 -1.5t18.5 -5.5l90 -46l90 46q10 4 19 5.5t18 1.5h61q16 0 16 -16q0 -8 -7 -14l-107 -115q-10 -10 -18 -14t-18 -4h-108z" />
    <glyph glyph-name="ecaron" unicode="&#x11b;" horiz-adv-x="609" 
d="M307 -10q-125 0 -198.5 64.5t-75.5 197.5v10.5v9.5q3 83 36.5 140.5t94 87.5t142.5 30q92 0 152.5 -36.5t90.5 -97t30 -135.5v-28q0 -10 -8 -18t-19 -8h-308v-2v-4q0 -24 6.5 -42.5t20.5 -29t34 -10.5q13 0 22 4t16 10.5t12 12.5q9 9 14.5 11.5t17.5 2.5h157q9 0 15.5 -6
t5.5 -15q-1 -18 -17 -43.5t-47.5 -49.5t-80.5 -40t-113 -16zM244 319h124v2q0 27 -7 46t-21 28.5t-34 9.5t-34 -9.5t-21 -28.5t-7 -46v-2zM255 595q-10 0 -17.5 4t-18.5 14l-107 115q-6 6 -6 14q0 16 15 16h57q9 0 19 -1.5t18 -5.5l90 -46l90 46q10 4 19 5.5t18 1.5h57
q16 0 16 -16q0 -8 -7 -14l-107 -115q-10 -10 -18 -14t-18 -4h-100z" />
    <glyph glyph-name="Gcircumflex" unicode="&#x11c;" horiz-adv-x="736" 
d="M367 -10q-99 0 -170 30.5t-111 91.5t-43 151q-1 42 -1 90.5t1 91.5q3 87 43.5 146t112.5 89t168 30q77 0 137 -18t102.5 -49t65 -69.5t23.5 -79.5q0 -9 -6.5 -15t-15.5 -6h-184q-10 0 -16 3t-11 9q-5 10 -15.5 23t-29.5 22.5t-50 9.5q-47 0 -73 -24t-28 -76
q-3 -84 0 -172q2 -57 29.5 -82.5t74.5 -25.5q31 0 55.5 10t38.5 31.5t14 55.5v10h-71q-11 0 -18.5 8t-7.5 18v93q0 11 7.5 18.5t18.5 7.5h263q11 0 19 -7.5t8 -18.5v-122q0 -88 -42 -149t-116 -93t-172 -32zM182 750q-15 0 -15 15q0 8 6 14l107 115q10 11 18 15t18 4h108
q10 0 18 -4t18 -15l107 -115q7 -6 7 -14q0 -15 -16 -15h-61q-9 0 -18 1t-19 6l-90 45l-90 -45q-9 -5 -18.5 -6t-18.5 -1h-61z" />
    <glyph glyph-name="gcircumflex" unicode="&#x11d;" horiz-adv-x="650" 
d="M326 -220q-81 0 -134.5 20.5t-85.5 50t-45.5 58t-14.5 44.5q-1 11 7 18.5t19 7.5h161q10 0 16.5 -5t10.5 -15q5 -9 11.5 -18t18.5 -14t31 -5q23 0 37.5 8t22 25t7.5 45v67q-24 -23 -58.5 -36.5t-81.5 -13.5q-49 0 -87.5 13.5t-65 41.5t-42 71t-17.5 103q-1 26 0 52
q2 56 17 99.5t42 72.5t65.5 44.5t87.5 15.5q52 0 90 -19.5t62 -50.5v34q0 11 7.5 18.5t18.5 7.5h145q11 0 18.5 -7.5t7.5 -18.5l1 -478q0 -81 -34.5 -133t-95.5 -77.5t-142 -25.5zM317 169q24 0 39 10t22.5 26.5t9.5 37.5q1 9 1 29t-1 28q-2 21 -9.5 37.5t-22.5 26.5t-39 10
q-26 0 -41 -10.5t-21.5 -29t-8.5 -42.5q-2 -21 0 -41q2 -24 8.5 -42.5t21.5 -29t41 -10.5zM134 595q-15 0 -15 15q0 8 6 14l107 115q11 11 18.5 15t17.5 4h100q10 0 18 -4t18 -15l107 -115q7 -6 7 -14q0 -15 -16 -15h-57q-9 0 -18 1t-19 6l-90 45l-90 -45q-8 -5 -18 -6
t-19 -1h-57z" />
    <glyph glyph-name="Gbreve" unicode="&#x11e;" horiz-adv-x="736" 
d="M367 -10q-99 0 -170 30.5t-111 91.5t-43 151q-1 42 -1 90.5t1 91.5q3 87 43.5 146t112.5 89t168 30q77 0 137 -18t102.5 -49t65 -69.5t23.5 -79.5q0 -9 -6.5 -15t-15.5 -6h-184q-10 0 -16 3t-11 9q-5 10 -15.5 23t-29.5 22.5t-50 9.5q-47 0 -73 -24t-28 -76
q-3 -84 0 -172q2 -57 29.5 -82.5t74.5 -25.5q31 0 55.5 10t38.5 31.5t14 55.5v10h-71q-11 0 -18.5 8t-7.5 18v93q0 11 7.5 18.5t18.5 7.5h263q11 0 19 -7.5t8 -18.5v-122q0 -88 -42 -149t-116 -93t-172 -32zM370 744q-57 0 -94 20t-54 53.5t-17 75.5q0 8 5 13.5t14 5.5h83
q9 0 14 -5.5t5 -13.5q0 -23 9 -40t35 -17q27 0 35.5 17t8.5 40q0 8 5 13.5t14 5.5h84q9 0 14 -5.5t5 -13.5q0 -42 -17.5 -75.5t-54 -53.5t-94.5 -20z" />
    <glyph glyph-name="gbreve" unicode="&#x11f;" horiz-adv-x="650" 
d="M326 -220q-81 0 -134.5 20.5t-85.5 50t-45.5 58t-14.5 44.5q-1 11 7 18.5t19 7.5h161q10 0 16.5 -5t10.5 -15q5 -9 11.5 -18t18.5 -14t31 -5q23 0 37.5 8t22 25t7.5 45v67q-24 -23 -58.5 -36.5t-81.5 -13.5q-49 0 -87.5 13.5t-65 41.5t-42 71t-17.5 103q-1 26 0 52
q2 56 17 99.5t42 72.5t65.5 44.5t87.5 15.5q52 0 90 -19.5t62 -50.5v34q0 11 7.5 18.5t18.5 7.5h145q11 0 18.5 -7.5t7.5 -18.5l1 -478q0 -81 -34.5 -133t-95.5 -77.5t-142 -25.5zM317 169q24 0 39 10t22.5 26.5t9.5 37.5q1 9 1 29t-1 28q-2 21 -9.5 37.5t-22.5 26.5t-39 10
q-26 0 -41 -10.5t-21.5 -29t-8.5 -42.5q-2 -21 0 -41q2 -24 8.5 -42.5t21.5 -29t41 -10.5zM318 590q-53 0 -88.5 20t-53.5 53.5t-18 75.5q0 8 5 13.5t14 5.5h79q9 0 14 -5.5t5 -13.5q0 -23 9.5 -40.5t33.5 -17.5q25 0 34 17.5t9 40.5q0 8 5 13.5t14 5.5h79q9 0 14 -5.5
t5 -13.5q0 -42 -17.5 -75.5t-53.5 -53.5t-89 -20z" />
    <glyph glyph-name="Gdotaccent" unicode="&#x120;" horiz-adv-x="736" 
d="M367 -10q-99 0 -170 30.5t-111 91.5t-43 151q-1 42 -1 90.5t1 91.5q3 87 43.5 146t112.5 89t168 30q77 0 137 -18t102.5 -49t65 -69.5t23.5 -79.5q0 -9 -6.5 -15t-15.5 -6h-184q-10 0 -16 3t-11 9q-5 10 -15.5 23t-29.5 22.5t-50 9.5q-47 0 -73 -24t-28 -76
q-3 -84 0 -172q2 -57 29.5 -82.5t74.5 -25.5q31 0 55.5 10t38.5 31.5t14 55.5v10h-71q-11 0 -18.5 8t-7.5 18v93q0 11 7.5 18.5t18.5 7.5h263q11 0 19 -7.5t8 -18.5v-122q0 -88 -42 -149t-116 -93t-172 -32zM310 750q-11 0 -17 6t-6 17v119q0 10 6 16.5t17 6.5h119
q10 0 16.5 -6.5t6.5 -16.5v-119q0 -11 -6.5 -17t-16.5 -6h-119z" />
    <glyph glyph-name="gdotaccent" unicode="&#x121;" horiz-adv-x="650" 
d="M326 -220q-81 0 -134.5 20.5t-85.5 50t-45.5 58t-14.5 44.5q-1 11 7 18.5t19 7.5h161q10 0 16.5 -5t10.5 -15q5 -9 11.5 -18t18.5 -14t31 -5q23 0 37.5 8t22 25t7.5 45v67q-24 -23 -58.5 -36.5t-81.5 -13.5q-49 0 -87.5 13.5t-65 41.5t-42 71t-17.5 103q-1 26 0 52
q2 56 17 99.5t42 72.5t65.5 44.5t87.5 15.5q52 0 90 -19.5t62 -50.5v34q0 11 7.5 18.5t18.5 7.5h145q11 0 18.5 -7.5t7.5 -18.5l1 -478q0 -81 -34.5 -133t-95.5 -77.5t-142 -25.5zM317 169q24 0 39 10t22.5 26.5t9.5 37.5q1 9 1 29t-1 28q-2 21 -9.5 37.5t-22.5 26.5t-39 10
q-26 0 -41 -10.5t-21.5 -29t-8.5 -42.5q-2 -21 0 -41q2 -24 8.5 -42.5t21.5 -29t41 -10.5zM260 599q-11 0 -17 6.5t-6 16.5v115q0 10 6 16.5t17 6.5h115q10 0 16.5 -6.5t6.5 -16.5v-115q0 -10 -6.5 -16.5t-16.5 -6.5h-115z" />
    <glyph glyph-name="uni0122" unicode="&#x122;" horiz-adv-x="736" 
d="M367 -10q-99 0 -170 30.5t-111 91.5t-43 151q-1 42 -1 90.5t1 91.5q3 87 43.5 146t112.5 89t168 30q77 0 137 -18t102.5 -49t65 -69.5t23.5 -79.5q0 -9 -6.5 -15t-15.5 -6h-184q-10 0 -16 3t-11 9q-5 10 -15.5 23t-29.5 22.5t-50 9.5q-47 0 -73 -24t-28 -76
q-3 -84 0 -172q2 -57 29.5 -82.5t74.5 -25.5q31 0 55.5 10t38.5 31.5t14 55.5v10h-71q-11 0 -18.5 8t-7.5 18v93q0 11 7.5 18.5t18.5 7.5h263q11 0 19 -7.5t8 -18.5v-122q0 -88 -42 -149t-116 -93t-172 -32zM271 -242q-8 0 -14 6t-6 15l20 134q2 14 11.5 25.5t28.5 11.5h131
q9 0 15 -6t6 -15q0 -5 -2 -9l-52 -133q-4 -10 -13 -19.5t-27 -9.5h-98z" />
    <glyph glyph-name="uni0123" unicode="&#x123;" horiz-adv-x="650" 
d="M326 -220q-81 0 -134.5 20.5t-85.5 50t-45.5 58t-14.5 44.5q-1 11 7 18.5t19 7.5h161q10 0 16.5 -5t10.5 -15q5 -9 11.5 -18t18.5 -14t31 -5q23 0 37.5 8t22 25t7.5 45v67q-24 -23 -58.5 -36.5t-81.5 -13.5q-49 0 -87.5 13.5t-65 41.5t-42 71t-17.5 103q-1 26 0 52
q2 56 17 99.5t42 72.5t65.5 44.5t87.5 15.5q52 0 90 -19.5t62 -50.5v34q0 11 7.5 18.5t18.5 7.5h145q11 0 18.5 -7.5t7.5 -18.5l1 -478q0 -81 -34.5 -133t-95.5 -77.5t-142 -25.5zM317 169q24 0 39 10t22.5 26.5t9.5 37.5q1 9 1 29t-1 28q-2 21 -9.5 37.5t-22.5 26.5t-39 10
q-26 0 -41 -10.5t-21.5 -29t-8.5 -42.5q-2 -21 0 -41q2 -24 8.5 -42.5t21.5 -29t41 -10.5zM256 595q-8 0 -14 6t-6 15q0 5 1 9l52 133q4 10 13.5 20t26.5 10h89q9 0 15 -6.5t5 -15.5l-20 -134q-2 -13 -11.5 -25t-28.5 -12h-122z" />
    <glyph glyph-name="Hcircumflex" unicode="&#x124;" horiz-adv-x="759" 
d="M88 0q-10 0 -18 7t-8 19v648q0 11 8 18.5t18 7.5h163q11 0 18.5 -7.5t7.5 -18.5v-226h204v226q0 11 8 18.5t18 7.5h163q11 0 18.5 -7.5t7.5 -18.5v-648q0 -11 -7.5 -18.5t-18.5 -7.5h-163q-10 0 -18 7.5t-8 18.5v232h-204v-232q0 -11 -7.5 -18.5t-18.5 -7.5h-163z
M191 750q-15 0 -15 15q0 8 6 14l107 115q10 11 18 15t18 4h108q10 0 18 -4t18 -15l107 -115q7 -6 7 -14q0 -15 -16 -15h-61q-9 0 -18 1t-19 6l-90 45l-90 -45q-9 -5 -18.5 -6t-18.5 -1h-61z" />
    <glyph glyph-name="hcircumflex" unicode="&#x125;" horiz-adv-x="667" 
d="M78 0q-11 0 -18.5 7.5t-7.5 18.5v658q0 11 7.5 18.5t18.5 7.5h162q10 0 18 -7.5t8 -18.5v-219q26 30 65.5 47.5t89.5 17.5q54 0 99.5 -25t73 -75t27.5 -126v-278q0 -11 -8 -18.5t-18 -7.5h-163q-11 0 -18.5 7.5t-7.5 18.5v271q0 37 -18 57t-51 20t-52 -20t-19 -57v-271
q0 -11 -8 -18.5t-18 -7.5h-162zM150 751q-15 0 -15 15q0 8 6 14l107 115q11 11 18.5 15t17.5 4h100q10 0 18 -4t18 -15l107 -115q7 -6 7 -14q0 -15 -16 -15h-57q-9 0 -18 1t-19 6l-90 45l-90 -45q-8 -5 -18 -6t-19 -1h-57z" />
    <glyph glyph-name="Hbar" unicode="&#x126;" horiz-adv-x="759" 
d="M80 520q-11 0 -18.5 7.5t-7.5 18.5v57q0 11 7.5 19t18.5 8h599q11 0 18.5 -8t7.5 -19v-57q0 -11 -7.5 -18.5t-18.5 -7.5h-599zM88 0q-10 0 -18 7t-8 19v648q0 11 8 18.5t18 7.5h163q11 0 18.5 -7.5t7.5 -18.5v-226h204v226q0 11 8 18.5t18 7.5h163q11 0 18.5 -7.5
t7.5 -18.5v-648q0 -11 -7.5 -18.5t-18.5 -7.5h-163q-10 0 -18 7.5t-8 18.5v232h-204v-232q0 -11 -7.5 -18.5t-18.5 -7.5h-163z" />
    <glyph glyph-name="hbar" unicode="&#x127;" horiz-adv-x="667" 
d="M21 544q-11 0 -18.5 7.5t-7.5 18.5v44q0 11 7.5 18.5t18.5 7.5h276q11 0 18.5 -7.5t7.5 -18.5v-44q0 -11 -7.5 -18.5t-18.5 -7.5h-276zM78 0q-11 0 -18.5 7.5t-7.5 18.5v658q0 11 7.5 18.5t18.5 7.5h162q10 0 18 -7.5t8 -18.5v-219q26 30 65.5 47.5t89.5 17.5
q54 0 99.5 -25t73 -75t27.5 -126v-278q0 -11 -8 -18.5t-18 -7.5h-163q-11 0 -18.5 7.5t-7.5 18.5v271q0 37 -18 57t-51 20t-52 -20t-19 -57v-271q0 -11 -8 -18.5t-18 -7.5h-162z" />
    <glyph glyph-name="Itilde" unicode="&#x128;" horiz-adv-x="346" 
d="M88 0q-10 0 -18 7.5t-8 18.5v648q0 11 8 18.5t18 7.5h170q11 0 18.5 -7.5t7.5 -18.5v-648q0 -11 -7.5 -18.5t-18.5 -7.5h-170zM237 745q-29 0 -47.5 9t-33.5 18t-33 9q-15 0 -21.5 -7.5t-11.5 -15.5t-16 -8h-72q-7 0 -12.5 5.5t-5.5 12.5q0 16 6 40t20 47.5t38 39
t60 15.5q29 0 47.5 -9t33.5 -18t33 -9q15 0 21 8t11.5 15.5t16.5 7.5h72q9 0 13.5 -5.5t4.5 -12.5q0 -17 -6 -40.5t-20 -47t-38 -39t-60 -15.5z" />
    <glyph glyph-name="itilde" unicode="&#x129;" horiz-adv-x="304" 
d="M78 0q-11 0 -18.5 7.5t-7.5 18.5v468q0 11 7.5 18.5t18.5 7.5h148q11 0 19 -7.5t8 -18.5v-468q0 -11 -8 -18.5t-19 -7.5h-148zM216 590q-28 0 -46.5 9t-33 18t-32.5 9q-15 0 -21.5 -7.5t-11.5 -15.5t-16 -8h-72q-7 0 -12.5 5.5t-5.5 12.5q0 16 6 40t20 47t37.5 38.5
t60.5 15.5q28 0 46.5 -9t33 -18t33.5 -9q14 0 20 8t11.5 15.5t16.5 7.5h72q9 0 13.5 -5.5t4.5 -12.5q0 -17 -6 -40.5t-20 -46.5t-38 -38.5t-60 -15.5z" />
    <glyph glyph-name="Imacron" unicode="&#x12a;" horiz-adv-x="346" 
d="M88 0q-10 0 -18 7.5t-8 18.5v648q0 11 8 18.5t18 7.5h170q11 0 18.5 -7.5t7.5 -18.5v-648q0 -11 -7.5 -18.5t-18.5 -7.5h-170zM1 750q-11 0 -17 6t-6 17v88q0 11 6 17t17 6h343q11 0 17 -6t6 -17v-88q0 -11 -6 -17t-17 -6h-343z" />
    <glyph glyph-name="imacron" unicode="&#x12b;" horiz-adv-x="304" 
d="M78 0q-11 0 -18.5 7.5t-7.5 18.5v468q0 11 7.5 18.5t18.5 7.5h148q11 0 19 -7.5t8 -18.5v-468q0 -11 -8 -18.5t-19 -7.5h-148zM1 600q-11 0 -17 6.5t-6 16.5v87q0 10 6 16.5t17 6.5h303q10 0 16 -6.5t6 -16.5v-87q0 -10 -6 -16.5t-16 -6.5h-303z" />
    <glyph glyph-name="Ibreve" unicode="&#x12c;" horiz-adv-x="346" 
d="M88 0q-10 0 -18 7.5t-8 18.5v648q0 11 8 18.5t18 7.5h170q11 0 18.5 -7.5t7.5 -18.5v-648q0 -11 -7.5 -18.5t-18.5 -7.5h-170zM173 744q-57 0 -94 20t-54 53.5t-17 75.5q0 8 5 13.5t14 5.5h83q9 0 14 -5.5t5 -13.5q0 -23 9 -40t35 -17q27 0 35.5 17t8.5 40q0 8 5 13.5
t14 5.5h84q9 0 14 -5.5t5 -13.5q0 -42 -17.5 -75.5t-54 -53.5t-94.5 -20z" />
    <glyph glyph-name="ibreve" unicode="&#x12d;" horiz-adv-x="304" 
d="M78 0q-11 0 -18.5 7.5t-7.5 18.5v468q0 11 7.5 18.5t18.5 7.5h148q11 0 19 -7.5t8 -18.5v-468q0 -11 -8 -18.5t-19 -7.5h-148zM153 590q-53 0 -88.5 20t-53.5 53.5t-18 75.5q0 8 5 13.5t14 5.5h79q9 0 14 -5.5t5 -13.5q0 -23 9.5 -40.5t33.5 -17.5q25 0 34 17.5t9 40.5
q0 8 5 13.5t14 5.5h79q9 0 14 -5.5t5 -13.5q0 -42 -17.5 -75.5t-53.5 -53.5t-89 -20z" />
    <glyph glyph-name="Iogonek" unicode="&#x12e;" horiz-adv-x="349" 
d="M246 -222q-56 0 -92.5 22t-54 60t-17.5 84q0 22 6.5 38.5t17.5 27.5l-18 2q-9 0 -15.5 7.5t-6.5 16.5v638q0 11 7.5 18.5t18.5 7.5h169q11 0 18.5 -7.5t7.5 -18.5v-648q0 -11 -7.5 -18.5t-18.5 -7.5h-11q-30 0 -42.5 -18t-12.5 -38t12.5 -38t42.5 -18h11q11 0 18.5 -7.5
t7.5 -18.5v-58q0 -10 -7.5 -18t-18.5 -8h-15z" />
    <glyph glyph-name="iogonek" unicode="&#x12f;" horiz-adv-x="308" 
d="M217 -197q-79 0 -117.5 42.5t-38.5 106.5q0 20 6 34.5t16 23.5l-5 1q-9 0 -15.5 7t-6.5 16v460q0 11 7.5 18.5t18.5 7.5h148q11 0 18.5 -7.5t7.5 -18.5v-468q0 -11 -7.5 -18.5t-18.5 -7.5h-9q-29 0 -42 -14t-13 -34t13 -34t42 -14h11q11 0 18.5 -7.5t7.5 -18.5v-49
q0 -11 -7.5 -18.5t-18.5 -7.5h-15zM84 585q-11 0 -18.5 7.5t-7.5 18.5v105q0 11 7.5 19t18.5 8h144q11 0 18.5 -8t7.5 -19v-105q0 -11 -7.5 -18.5t-18.5 -7.5h-144z" />
    <glyph glyph-name="Idotaccent" unicode="&#x130;" horiz-adv-x="346" 
d="M88 0q-10 0 -18 7.5t-8 18.5v648q0 11 8 18.5t18 7.5h170q11 0 18.5 -7.5t7.5 -18.5v-648q0 -11 -7.5 -18.5t-18.5 -7.5h-170zM114 750q-11 0 -17 6t-6 17v119q0 10 6 16.5t17 6.5h119q10 0 16.5 -6.5t6.5 -16.5v-119q0 -11 -6.5 -17t-16.5 -6h-119z" />
    <glyph glyph-name="dotlessi" unicode="&#x131;" horiz-adv-x="304" 
d="M78 0q-11 0 -18.5 7.5t-7.5 18.5v468q0 11 7.5 18.5t18.5 7.5h148q11 0 19 -7.5t8 -18.5v-468q0 -11 -8 -18.5t-19 -7.5h-148z" />
    <glyph glyph-name="IJ" unicode="&#x132;" horiz-adv-x="766" 
d="M390 -10q-11 0 -18.5 7.5t-7.5 18.5v134q0 11 7.5 18.5t18.5 7.5q50 0 74 27t24 87v384q0 11 7.5 18.5t18.5 7.5h170q11 0 18.5 -7.5t7.5 -18.5v-417q0 -100 -38.5 -159t-110.5 -83.5t-171 -24.5zM88 0q-10 0 -18 7.5t-8 18.5v648q0 11 8 18.5t18 7.5h170q11 0 18.5 -7.5
t7.5 -18.5v-648q0 -11 -7.5 -18.5t-18.5 -7.5h-170z" />
    <glyph glyph-name="ij" unicode="&#x133;" horiz-adv-x="664" 
d="M78 0q-11 0 -18.5 7.5t-7.5 18.5v468q0 11 7.5 18.5t18.5 7.5h148q11 0 19 -7.5t8 -18.5v-468q0 -11 -8 -18.5t-19 -7.5h-148zM80 585q-11 0 -18.5 7.5t-7.5 18.5v105q0 11 7.5 19t18.5 8h144q11 0 19 -8t8 -19v-105q0 -11 -8 -18.5t-19 -7.5h-144zM304 -190
q-10 0 -18 7.5t-8 18.5v101q0 11 8 18.5t18 7.5h48q20 0 31.5 7.5t16 22t4.5 31.5v470q0 11 7.5 18.5t18.5 7.5h156q11 0 18.5 -7.5t7.5 -18.5v-475q0 -69 -29.5 -115.5t-82.5 -70t-123 -23.5h-73zM432 585q-11 0 -18.5 7.5t-7.5 18.5v105q0 11 7.5 19t18.5 8h152
q11 0 18.5 -8t7.5 -19v-105q0 -11 -7.5 -18.5t-18.5 -7.5h-152z" />
    <glyph glyph-name="Jcircumflex" unicode="&#x134;" horiz-adv-x="686" 
d="M320 -10q-60 0 -114 15.5t-96.5 45.5t-67 74t-25.5 102q0 9 6 15.5t15 6.5h170q16 0 23.5 -7t13.5 -23q7 -20 17.5 -33.5t26.5 -19.5t37 -6q39 0 60.5 25t21.5 79v260h-311q-11 0 -18.5 7.5t-7.5 18.5v124q0 11 7.5 18.5t18.5 7.5h507q11 0 18.5 -7.5t7.5 -18.5v-417
q0 -89 -40.5 -148.5t-111 -89t-158.5 -29.5zM170 750q-15 0 -15 15q0 8 6 14l107 115q10 11 18 15t18 4h108q10 0 18 -4t18 -15l107 -115q7 -6 7 -14q0 -15 -16 -15h-61q-9 0 -18 1t-19 6l-90 45l-90 -45q-9 -5 -18.5 -6t-18.5 -1h-61z" />
    <glyph glyph-name="jcircumflex" unicode="&#x135;" horiz-adv-x="442" 
d="M46 -190q-11 0 -18.5 7.5t-7.5 18.5v129q0 11 7.5 19t18.5 8h83q20 0 31 7.5t15.5 21.5t4.5 32v307h-130q-11 0 -18.5 8t-7.5 19v107q0 11 7.5 18.5t18.5 7.5h314q11 0 18.5 -7.5t7.5 -18.5v-441q0 -76 -29.5 -130t-82.5 -83.5t-123 -29.5h-109zM33 595q-15 0 -15 15
q0 8 6 14l107 115q11 11 18.5 15t17.5 4h100q10 0 18 -4t18 -15l107 -115q7 -6 7 -14q0 -15 -16 -15h-57q-9 0 -18 1t-19 6l-90 45l-90 -45q-8 -5 -18 -6t-19 -1h-57z" />
    <glyph glyph-name="uni0136" unicode="&#x136;" horiz-adv-x="689" 
d="M88 0q-10 0 -18 7.5t-8 18.5v648q0 11 8 18.5t18 7.5h159q11 0 18.5 -7.5t7.5 -18.5v-210l149 215q5 7 14 14t25 7h183q9 0 15.5 -6.5t6.5 -15.5q0 -6 -4 -11l-210 -302l228 -332q4 -4 4 -11q0 -9 -6.5 -15.5t-15.5 -6.5h-188q-20 0 -29.5 9t-11.5 13l-160 232v-228
q0 -11 -7.5 -18.5t-18.5 -7.5h-159zM248 -242q-8 0 -14 6t-6 15l20 134q2 14 11.5 25.5t28.5 11.5h131q9 0 15 -6t6 -15q0 -5 -2 -9l-52 -133q-4 -10 -13 -19.5t-27 -9.5h-98z" />
    <glyph glyph-name="uni0137" unicode="&#x137;" horiz-adv-x="614" 
d="M78 0q-11 0 -18.5 7.5t-7.5 18.5v658q0 11 7.5 18.5t18.5 7.5h145q11 0 18.5 -7.5t7.5 -18.5v-330l114 149q4 5 11 11t20 6h168q10 0 16.5 -6.5t6.5 -16.5q0 -4 -1.5 -9t-4.5 -7l-159 -195l184 -248q5 -8 5 -15q0 -10 -6.5 -16.5t-16.5 -6.5h-174q-15 0 -21.5 6.5
t-11.5 10.5l-130 180v-171q0 -11 -7.5 -18.5t-18.5 -7.5h-145zM213 -242q-9 0 -15 6t-5 15l20 134q2 14 11.5 25.5t27.5 11.5h123q8 0 14 -6t6 -15q0 -5 -1 -9l-52 -133q-4 -10 -13 -19.5t-27 -9.5h-89z" />
    <glyph glyph-name="kgreenlandic" unicode="&#x138;" horiz-adv-x="614" 
d="M78 0q-11 0 -18.5 7.5t-7.5 18.5v468q0 11 7.5 18.5t18.5 7.5h145q11 0 18.5 -7.5t7.5 -18.5v-169l123 178q4 5 11 11t21 6h159q9 0 16 -6.5t7 -16.5q0 -4 -1.5 -9t-5.5 -7l-152 -216l176 -227q6 -7 6 -15q0 -10 -6.5 -16.5t-16.5 -6.5h-174q-15 0 -22 7t-11 10l-130 175
v-166q0 -11 -7.5 -18.5t-18.5 -7.5h-145z" />
    <glyph glyph-name="Lacute" unicode="&#x139;" horiz-adv-x="611" 
d="M88 0q-10 0 -18 7.5t-8 18.5v648q0 11 8 18.5t18 7.5h166q11 0 19 -7.5t8 -18.5v-496h289q11 0 19 -7.5t8 -18.5v-126q0 -11 -8 -18.5t-19 -7.5h-482zM86 750q-16 0 -16 16q0 8 5 13l94 115q10 12 17.5 15.5t19.5 3.5h168q19 0 19 -20q0 -7 -5 -12l-140 -115
q-8 -7 -16.5 -11.5t-23.5 -4.5h-122z" />
    <glyph glyph-name="lacute" unicode="&#x13a;" horiz-adv-x="305" 
d="M78 0q-11 0 -18.5 7.5t-7.5 18.5v658q0 11 7.5 18.5t18.5 7.5h149q10 0 18 -7.5t8 -18.5v-658q0 -11 -8 -18.5t-18 -7.5h-149zM81 750q-16 0 -16 16q0 8 5 13l94 115q10 12 17.5 15.5t19.5 3.5h159q19 0 19 -20q0 -7 -5 -12l-140 -115q-8 -7 -16.5 -11.5t-23.5 -4.5h-113
z" />
    <glyph glyph-name="uni013B" unicode="&#x13b;" horiz-adv-x="611" 
d="M88 0q-10 0 -18 7.5t-8 18.5v648q0 11 8 18.5t18 7.5h166q11 0 19 -7.5t8 -18.5v-496h289q11 0 19 -7.5t8 -18.5v-126q0 -11 -8 -18.5t-19 -7.5h-482zM212 -242q-8 0 -14 6t-6 15l20 134q2 14 11.5 25.5t28.5 11.5h131q9 0 15 -6t6 -15q0 -5 -2 -9l-52 -133
q-4 -10 -13 -19.5t-27 -9.5h-98z" />
    <glyph glyph-name="uni013C" unicode="&#x13c;" horiz-adv-x="305" 
d="M78 0q-11 0 -18.5 7.5t-7.5 18.5v658q0 11 7.5 18.5t18.5 7.5h149q10 0 18 -7.5t8 -18.5v-658q0 -11 -8 -18.5t-18 -7.5h-149zM58 -242q-9 0 -15 6t-5 15l20 134q2 14 11.5 25.5t27.5 11.5h123q8 0 14 -6t6 -15q0 -5 -1 -9l-52 -133q-4 -10 -13 -19.5t-27 -9.5h-89z" />
    <glyph glyph-name="Lcaron" unicode="&#x13d;" horiz-adv-x="611" 
d="M88 0q-10 0 -18 7.5t-8 18.5v648q0 11 8 18.5t18 7.5h166q11 0 19 -7.5t8 -18.5v-496h289q11 0 19 -7.5t8 -18.5v-126q0 -11 -8 -18.5t-19 -7.5h-482zM382 465q-9 0 -15 6t-5 15l20 134q2 14 11.5 25.5t27.5 11.5h123q8 0 14 -6t6 -15q0 -5 -1 -9l-52 -133
q-4 -10 -13 -19.5t-27 -9.5h-89z" />
    <glyph glyph-name="lcaron" unicode="&#x13e;" horiz-adv-x="428" 
d="M78 0q-11 0 -18.5 7.5t-7.5 18.5v658q0 11 7.5 18.5t18.5 7.5h149q10 0 18 -7.5t8 -18.5v-658q0 -11 -8 -18.5t-18 -7.5h-149zM323 518q-9 0 -15 6t-5 15l20 134q2 14 11.5 25.5t27.5 11.5h123q8 0 14 -6t6 -15q0 -5 -1 -9l-52 -133q-4 -10 -13 -19.5t-27 -9.5h-89z" />
    <glyph glyph-name="Ldot" unicode="&#x13f;" horiz-adv-x="616" 
d="M88 0q-10 0 -18 7.5t-8 18.5v648q0 11 8 18.5t18 7.5h166q11 0 19 -7.5t8 -18.5v-496h289q11 0 19 -7.5t8 -18.5v-126q0 -11 -8 -18.5t-19 -7.5h-482zM419 311q-10 0 -16.5 6.5t-6.5 16.5v116q0 10 6.5 16.5t16.5 6.5h116q10 0 16.5 -6.5t6.5 -16.5v-116
q0 -10 -6.5 -16.5t-16.5 -6.5h-116z" />
    <glyph glyph-name="ldot" unicode="&#x140;" horiz-adv-x="460" 
d="M78 0q-11 0 -18.5 7.5t-7.5 18.5v658q0 11 7.5 18.5t18.5 7.5h149q10 0 18 -7.5t8 -18.5v-658q0 -11 -8 -18.5t-18 -7.5h-149zM325 281q-11 0 -17 6t-6 16v116q0 10 6 16.5t17 6.5h115q10 0 16.5 -6.5t6.5 -16.5v-116q0 -10 -6.5 -16t-16.5 -6h-115z" />
    <glyph glyph-name="Lslash" unicode="&#x141;" horiz-adv-x="619" 
d="M96 0q-10 0 -18 7.5t-8 18.5v212l-25 -10q-7 -3 -12 -3q-8 0 -14 5.5t-6 14.5v92q0 13 5 20t17 11l35 14v292q0 11 8 18.5t18 7.5h166q11 0 19 -7.5t8 -18.5v-206l145 57q8 3 11 3q9 0 15 -6t6 -15v-91q0 -13 -5 -20t-17 -12l-155 -60v-146h289q11 0 19 -7.5t8 -18.5
v-126q0 -11 -8 -18.5t-19 -7.5h-482z" />
    <glyph glyph-name="lslash" unicode="&#x142;" horiz-adv-x="371" 
d="M112 0q-11 0 -18.5 7.5t-7.5 18.5v220l-30 -12q-7 -3 -11 -3q-9 0 -15 6t-6 15v91q0 13 5 20t17 11l40 15v295q0 11 7.5 18.5t18.5 7.5h149q10 0 18 -7.5t8 -18.5v-217l30 12q8 3 11 3q9 0 15 -5.5t6 -14.5v-92q0 -12 -5 -19t-17 -12l-40 -16v-297q0 -11 -8 -18.5
t-18 -7.5h-149z" />
    <glyph glyph-name="Nacute" unicode="&#x143;" horiz-adv-x="730" 
d="M88 0q-10 0 -18 7.5t-8 18.5v648q0 11 8 18.5t18 7.5h133q18 0 26 -8t11 -13l206 -331v326q0 11 8 18.5t19 7.5h150q11 0 18.5 -7.5t7.5 -18.5v-648q0 -11 -7.5 -18.5t-18.5 -7.5h-132q-18 0 -26.5 8.5t-11.5 12.5l-206 313v-308q0 -11 -7.5 -18.5t-18.5 -7.5h-151z
M287 750q-16 0 -16 16q0 8 5 13l94 115q10 12 17.5 15.5t19.5 3.5h168q19 0 19 -20q0 -7 -5 -12l-140 -115q-8 -7 -16.5 -11.5t-23.5 -4.5h-122z" />
    <glyph glyph-name="nacute" unicode="&#x144;" horiz-adv-x="658" 
d="M78 0q-11 0 -18.5 7.5t-7.5 18.5v468q0 11 7.5 18.5t18.5 7.5h145q11 0 18.5 -7.5t7.5 -18.5v-36q26 30 69 51t98 21q54 0 98 -25t71 -75t27 -126v-278q0 -11 -8 -18.5t-19 -7.5h-158q-11 0 -18.5 7.5t-7.5 18.5v271q0 37 -18 57t-51 20t-52 -20t-19 -57v-271
q0 -11 -7.5 -18.5t-18.5 -7.5h-157zM261 595q-16 0 -16 16q0 8 5 13l94 115q10 12 17.5 15.5t19.5 3.5h159q19 0 19 -20q0 -7 -5 -12l-140 -115q-8 -7 -16.5 -11.5t-23.5 -4.5h-113z" />
    <glyph glyph-name="uni0145" unicode="&#x145;" horiz-adv-x="730" 
d="M88 0q-10 0 -18 7.5t-8 18.5v648q0 11 8 18.5t18 7.5h133q18 0 26 -8t11 -13l206 -331v326q0 11 8 18.5t19 7.5h150q11 0 18.5 -7.5t7.5 -18.5v-648q0 -11 -7.5 -18.5t-18.5 -7.5h-132q-18 0 -26.5 8.5t-11.5 12.5l-206 313v-308q0 -11 -7.5 -18.5t-18.5 -7.5h-151z
M268 -242q-8 0 -14 6t-6 15l20 134q2 14 11.5 25.5t28.5 11.5h131q9 0 15 -6t6 -15q0 -5 -2 -9l-52 -133q-4 -10 -13 -19.5t-27 -9.5h-98z" />
    <glyph glyph-name="uni0146" unicode="&#x146;" horiz-adv-x="658" 
d="M78 0q-11 0 -18.5 7.5t-7.5 18.5v468q0 11 7.5 18.5t18.5 7.5h145q11 0 18.5 -7.5t7.5 -18.5v-36q26 30 69 51t98 21q54 0 98 -25t71 -75t27 -126v-278q0 -11 -8 -18.5t-19 -7.5h-158q-11 0 -18.5 7.5t-7.5 18.5v271q0 37 -18 57t-51 20t-52 -20t-19 -57v-271
q0 -11 -7.5 -18.5t-18.5 -7.5h-157zM240 -242q-9 0 -15 6t-5 15l20 134q2 14 11.5 25.5t27.5 11.5h123q8 0 14 -6t6 -15q0 -5 -1 -9l-52 -133q-4 -10 -13 -19.5t-27 -9.5h-89z" />
    <glyph glyph-name="Ncaron" unicode="&#x147;" horiz-adv-x="730" 
d="M88 0q-10 0 -18 7.5t-8 18.5v648q0 11 8 18.5t18 7.5h133q18 0 26 -8t11 -13l206 -331v326q0 11 8 18.5t19 7.5h150q11 0 18.5 -7.5t7.5 -18.5v-648q0 -11 -7.5 -18.5t-18.5 -7.5h-132q-18 0 -26.5 8.5t-11.5 12.5l-206 313v-308q0 -11 -7.5 -18.5t-18.5 -7.5h-151z
M311 750q-10 0 -18 4t-18 14l-107 115q-6 6 -6 14q0 16 15 16h61q9 0 18.5 -1.5t18.5 -5.5l90 -46l90 46q10 4 19 5.5t18 1.5h61q16 0 16 -16q0 -8 -7 -14l-107 -115q-10 -10 -18 -14t-18 -4h-108z" />
    <glyph glyph-name="ncaron" unicode="&#x148;" horiz-adv-x="658" 
d="M78 0q-11 0 -18.5 7.5t-7.5 18.5v468q0 11 7.5 18.5t18.5 7.5h145q11 0 18.5 -7.5t7.5 -18.5v-36q26 30 69 51t98 21q54 0 98 -25t71 -75t27 -126v-278q0 -11 -8 -18.5t-19 -7.5h-158q-11 0 -18.5 7.5t-7.5 18.5v271q0 37 -18 57t-51 20t-52 -20t-19 -57v-271
q0 -11 -7.5 -18.5t-18.5 -7.5h-157zM282 595q-10 0 -17.5 4t-18.5 14l-107 115q-6 6 -6 14q0 16 15 16h57q9 0 19 -1.5t18 -5.5l90 -46l90 46q10 4 19 5.5t18 1.5h57q16 0 16 -16q0 -8 -7 -14l-107 -115q-10 -10 -18 -14t-18 -4h-100z" />
    <glyph glyph-name="napostrophe" unicode="&#x149;" horiz-adv-x="658" 
d="M-58 556q-9 0 -15 6.5t-6 15.5l20 134q2 13 11.5 25t28.5 12h122q9 0 15 -6.5t6 -14.5q0 -5 -2 -9l-52 -133q-4 -10 -12.5 -20t-27.5 -10h-88zM78 0q-11 0 -18.5 7.5t-7.5 18.5v468q0 11 7.5 18.5t18.5 7.5h145q11 0 18.5 -7.5t7.5 -18.5v-36q26 30 69 51t98 21
q54 0 98 -25t71 -75t27 -126v-278q0 -11 -8 -18.5t-19 -7.5h-158q-11 0 -18.5 7.5t-7.5 18.5v271q0 37 -18 57t-51 20t-52 -20t-19 -57v-271q0 -11 -7.5 -18.5t-18.5 -7.5h-157z" />
    <glyph glyph-name="Eng" unicode="&#x14a;" horiz-adv-x="730" 
d="M360 -225q-11 0 -18.5 7.5t-7.5 18.5v124q0 11 7.5 18.5t18.5 7.5h34q25 0 40 9t22.5 24t7.5 35v13l-199 302v-308q0 -11 -7.5 -18.5t-18.5 -7.5h-151q-10 0 -18 7.5t-8 18.5v648q0 11 8 18.5t18 7.5h133q18 0 26 -8t11 -13l206 -331v326q0 11 8 18.5t19 7.5h150
q11 0 18.5 -7.5t7.5 -18.5v-664q0 -77 -37.5 -130t-103.5 -79t-152 -26h-14z" />
    <glyph glyph-name="eng" unicode="&#x14b;" horiz-adv-x="658" 
d="M297 -225q-11 0 -18.5 7.5t-7.5 18.5v124q0 11 7.5 18.5t18.5 7.5h33q25 0 40.5 9t23 27.5t7.5 49.5v260q0 37 -18 57t-51 20t-52 -20t-19 -57v-271q0 -11 -7.5 -18.5t-18.5 -7.5h-157q-11 0 -18.5 7.5t-7.5 18.5v468q0 11 7.5 18.5t18.5 7.5h145q11 0 18.5 -7.5
t7.5 -18.5v-36q26 30 69 51t98 21q54 0 98 -25t71 -75t27 -126v-276q0 -86 -37 -142t-102.5 -83.5t-150.5 -27.5h-25z" />
    <glyph glyph-name="Omacron" unicode="&#x14c;" horiz-adv-x="727" 
d="M364 -10q-96 0 -166.5 30t-111 90.5t-43.5 150.5q-1 42 -1 86.5t1 88.5q3 89 43.5 150t111.5 92.5t166 31.5q94 0 165 -31.5t112 -92.5t43 -150q2 -44 2 -88.5t-2 -86.5q-3 -90 -43.5 -150.5t-111 -90.5t-165.5 -30zM364 160q42 0 69 25.5t28 81.5q2 43 2 83.5t-2 82.5
q-1 37 -13.5 61t-34 35t-49.5 11t-50 -11t-34.5 -35t-13.5 -61q-1 -42 -1 -82.5t1 -83.5q2 -56 28.5 -81.5t69.5 -25.5zM192 750q-11 0 -17 6t-6 17v88q0 11 6 17t17 6h343q11 0 17 -6t6 -17v-88q0 -11 -6 -17t-17 -6h-343z" />
    <glyph glyph-name="omacron" unicode="&#x14d;" horiz-adv-x="626" 
d="M313 -10q-88 0 -148.5 26t-92.5 76.5t-36 121.5q-1 21 -1 46t1 46q4 72 38 122t94.5 76t144.5 26t144.5 -26t94.5 -76t38 -122q2 -21 2 -46t-2 -46q-4 -71 -36 -121.5t-92.5 -76.5t-148.5 -26zM313 131q37 0 51 22t16 66q1 15 1 41t-1 41q-2 43 -16 65.5t-51 22.5
q-36 0 -50 -22.5t-17 -65.5q-1 -15 -1 -41t1 -41q3 -44 17 -66t50 -22zM162 600q-11 0 -17 6.5t-6 16.5v87q0 10 6 16.5t17 6.5h303q10 0 16 -6.5t6 -16.5v-87q0 -10 -6 -16.5t-16 -6.5h-303z" />
    <glyph glyph-name="Obreve" unicode="&#x14e;" horiz-adv-x="727" 
d="M364 -10q-96 0 -166.5 30t-111 90.5t-43.5 150.5q-1 42 -1 86.5t1 88.5q3 89 43.5 150t111.5 92.5t166 31.5q94 0 165 -31.5t112 -92.5t43 -150q2 -44 2 -88.5t-2 -86.5q-3 -90 -43.5 -150.5t-111 -90.5t-165.5 -30zM364 160q42 0 69 25.5t28 81.5q2 43 2 83.5t-2 82.5
q-1 37 -13.5 61t-34 35t-49.5 11t-50 -11t-34.5 -35t-13.5 -61q-1 -42 -1 -82.5t1 -83.5q2 -56 28.5 -81.5t69.5 -25.5zM363 744q-57 0 -94 20t-54 53.5t-17 75.5q0 8 5 13.5t14 5.5h83q9 0 14 -5.5t5 -13.5q0 -23 9 -40t35 -17q27 0 35.5 17t8.5 40q0 8 5 13.5t14 5.5h84
q9 0 14 -5.5t5 -13.5q0 -42 -17.5 -75.5t-54 -53.5t-94.5 -20z" />
    <glyph glyph-name="obreve" unicode="&#x14f;" horiz-adv-x="626" 
d="M313 -10q-88 0 -148.5 26t-92.5 76.5t-36 121.5q-1 21 -1 46t1 46q4 72 38 122t94.5 76t144.5 26t144.5 -26t94.5 -76t38 -122q2 -21 2 -46t-2 -46q-4 -71 -36 -121.5t-92.5 -76.5t-148.5 -26zM313 131q37 0 51 22t16 66q1 15 1 41t-1 41q-2 43 -16 65.5t-51 22.5
q-36 0 -50 -22.5t-17 -65.5q-1 -15 -1 -41t1 -41q3 -44 17 -66t50 -22zM313 590q-53 0 -88.5 20t-53.5 53.5t-18 75.5q0 8 5 13.5t14 5.5h79q9 0 14 -5.5t5 -13.5q0 -23 9.5 -40.5t33.5 -17.5q25 0 34 17.5t9 40.5q0 8 5 13.5t14 5.5h79q9 0 14 -5.5t5 -13.5
q0 -42 -17.5 -75.5t-53.5 -53.5t-89 -20z" />
    <glyph glyph-name="Ohungarumlaut" unicode="&#x150;" horiz-adv-x="727" 
d="M364 -10q-96 0 -166.5 30t-111 90.5t-43.5 150.5q-1 42 -1 86.5t1 88.5q3 89 43.5 150t111.5 92.5t166 31.5q94 0 165 -31.5t112 -92.5t43 -150q2 -44 2 -88.5t-2 -86.5q-3 -90 -43.5 -150.5t-111 -90.5t-165.5 -30zM364 160q42 0 69 25.5t28 81.5q2 43 2 83.5t-2 82.5
q-1 37 -13.5 61t-34 35t-49.5 11t-50 -11t-34.5 -35t-13.5 -61q-1 -42 -1 -82.5t1 -83.5q2 -56 28.5 -81.5t69.5 -25.5zM434 750q-16 0 -16 16q0 4 2 8t3 7l50 113q9 19 37 19h135q20 0 20 -19q0 -7 -6 -13l-106 -117q-12 -14 -33 -14h-86zM207 750q-16 0 -16 16q0 4 2 8
t3 7l50 113q9 19 37 19h135q20 0 20 -19q0 -7 -6 -13l-105 -117q-12 -14 -34 -14h-86z" />
    <glyph glyph-name="ohungarumlaut" unicode="&#x151;" horiz-adv-x="626" 
d="M313 -10q-88 0 -148.5 26t-92.5 76.5t-36 121.5q-1 21 -1 46t1 46q4 72 38 122t94.5 76t144.5 26t144.5 -26t94.5 -76t38 -122q2 -21 2 -46t-2 -46q-4 -71 -36 -121.5t-92.5 -76.5t-148.5 -26zM313 131q37 0 51 22t16 66q1 15 1 41t-1 41q-2 43 -16 65.5t-51 22.5
q-36 0 -50 -22.5t-17 -65.5q-1 -15 -1 -41t1 -41q3 -44 17 -66t50 -22zM373 595q-16 0 -16 16q0 4 2 8t3 7l51 113q9 19 37 19h126q20 0 20 -19q0 -7 -6 -13l-106 -117q-12 -14 -33 -14h-78zM138 595q-16 0 -16 16q0 4 2 8t3 7l51 113q9 19 37 19h126q20 0 20 -19
q0 -7 -6 -13l-106 -117q-12 -14 -33 -14h-78z" />
    <glyph glyph-name="OE" unicode="&#x152;" horiz-adv-x="983" 
d="M360 0q-96 0 -166.5 29.5t-109.5 90.5t-42 155q-1 42 -1 75t1 76q3 89 43.5 150t112.5 92.5t167 31.5h543q11 0 18.5 -7.5t7.5 -18.5v-118q0 -10 -7.5 -18t-18.5 -8h-286v-99h264q11 0 18.5 -7.5t7.5 -18.5v-108q0 -11 -7.5 -18.5t-18.5 -7.5h-264v-101h294q11 0 18.5 -8
t7.5 -19v-117q0 -11 -7.5 -18.5t-18.5 -7.5h-556zM365 170h51v360h-46q-50 0 -79 -25t-31 -80q-1 -28 -1.5 -51t0 -46t1.5 -52q2 -37 14.5 -60.5t35 -34.5t55.5 -11z" />
    <glyph glyph-name="oe" unicode="&#x153;" horiz-adv-x="957" 
d="M313 -10q-88 0 -148 26t-92 76.5t-37 121.5q-1 21 -1 46t1 46q5 72 39 122t94 76t144 26q55 0 100 -13t77 -37q32 24 73.5 37t91.5 13q92 0 152.5 -36.5t90.5 -97t30 -135.5v-28q0 -10 -8 -18t-19 -8h-308v-6q0 -24 6.5 -42.5t20.5 -29t34 -10.5q12 0 21 4t16 10.5
t12 12.5q9 9 14.5 11.5t17.5 2.5h157q9 0 15.5 -6t5.5 -15q-1 -18 -17 -43.5t-47.5 -49.5t-80 -40t-112.5 -16q-51 0 -93 12t-74 35q-32 -23 -75.5 -35t-100.5 -12zM313 131q37 0 51 22t16 66q1 15 1 41t-1 41q-2 43 -16 65.5t-51 22.5q-36 0 -50 -22.5t-16 -65.5
q-1 -15 -1 -41t1 -41q2 -44 16 -66t50 -22zM593 319h124v2q0 27 -7 46t-21 28.5t-34 9.5t-34 -9.5t-21 -28.5t-7 -46v-2z" />
    <glyph glyph-name="Racute" unicode="&#x154;" horiz-adv-x="707" 
d="M88 0q-10 0 -18 7.5t-8 18.5v648q0 11 8 18.5t18 7.5h285q136 0 213.5 -62t77.5 -173q0 -70 -32 -119t-84 -77l130 -236q3 -6 3 -11q0 -9 -6 -15.5t-15 -6.5h-169q-19 0 -29 9.5t-13 17.5l-100 206h-72v-207q0 -11 -7.5 -18.5t-18.5 -7.5h-163zM277 398h95q35 0 52 19.5
t17 48.5q0 30 -16.5 51t-52.5 21h-95v-140zM256 750q-16 0 -16 16q0 8 5 13l94 115q10 12 17.5 15.5t19.5 3.5h168q19 0 19 -20q0 -7 -5 -12l-140 -115q-8 -7 -16.5 -11.5t-23.5 -4.5h-122z" />
    <glyph glyph-name="racute" unicode="&#x155;" horiz-adv-x="486" 
d="M78 0q-11 0 -18.5 7.5t-7.5 18.5v468q0 11 7.5 18.5t18.5 7.5h145q11 0 18.5 -7.5t7.5 -18.5v-37q30 29 68.5 46t84.5 17h45q11 0 19 -7.5t8 -18.5v-129q0 -11 -8 -18.5t-19 -7.5h-112q-36 0 -55 -19t-19 -55v-239q0 -11 -7.5 -18.5t-18.5 -7.5h-157zM189 595
q-16 0 -16 16q0 8 5 13l94 115q10 12 17.5 15.5t19.5 3.5h159q19 0 19 -20q0 -7 -5 -12l-140 -115q-8 -7 -16.5 -11.5t-23.5 -4.5h-113z" />
    <glyph glyph-name="uni0156" unicode="&#x156;" horiz-adv-x="707" 
d="M88 0q-10 0 -18 7.5t-8 18.5v648q0 11 8 18.5t18 7.5h285q136 0 213.5 -62t77.5 -173q0 -70 -32 -119t-84 -77l130 -236q3 -6 3 -11q0 -9 -6 -15.5t-15 -6.5h-169q-19 0 -29 9.5t-13 17.5l-100 206h-72v-207q0 -11 -7.5 -18.5t-18.5 -7.5h-163zM277 398h95q35 0 52 19.5
t17 48.5q0 30 -16.5 51t-52.5 21h-95v-140zM260 -242q-8 0 -14 6t-6 15l20 134q2 14 11.5 25.5t28.5 11.5h131q9 0 15 -6t6 -15q0 -5 -2 -9l-52 -133q-4 -10 -13 -19.5t-27 -9.5h-98z" />
    <glyph glyph-name="uni0157" unicode="&#x157;" horiz-adv-x="486" 
d="M78 0q-11 0 -18.5 7.5t-7.5 18.5v468q0 11 7.5 18.5t18.5 7.5h145q11 0 18.5 -7.5t7.5 -18.5v-37q30 29 68.5 46t84.5 17h45q11 0 19 -7.5t8 -18.5v-129q0 -11 -8 -18.5t-19 -7.5h-112q-36 0 -55 -19t-19 -55v-239q0 -11 -7.5 -18.5t-18.5 -7.5h-157zM60 -242q-9 0 -15 6
t-5 15l20 134q2 14 11.5 25.5t27.5 11.5h123q8 0 14 -6t6 -15q0 -5 -1 -9l-52 -133q-4 -10 -13 -19.5t-27 -9.5h-89z" />
    <glyph glyph-name="Rcaron" unicode="&#x158;" horiz-adv-x="707" 
d="M88 0q-10 0 -18 7.5t-8 18.5v648q0 11 8 18.5t18 7.5h285q136 0 213.5 -62t77.5 -173q0 -70 -32 -119t-84 -77l130 -236q3 -6 3 -11q0 -9 -6 -15.5t-15 -6.5h-169q-19 0 -29 9.5t-13 17.5l-100 206h-72v-207q0 -11 -7.5 -18.5t-18.5 -7.5h-163zM277 398h95q35 0 52 19.5
t17 48.5q0 30 -16.5 51t-52.5 21h-95v-140zM279 750q-10 0 -18 4t-18 14l-107 115q-6 6 -6 14q0 16 15 16h61q9 0 18.5 -1.5t18.5 -5.5l90 -46l90 46q10 4 19 5.5t18 1.5h61q16 0 16 -16q0 -8 -7 -14l-107 -115q-10 -10 -18 -14t-18 -4h-108z" />
    <glyph glyph-name="rcaron" unicode="&#x159;" horiz-adv-x="486" 
d="M78 0q-11 0 -18.5 7.5t-7.5 18.5v468q0 11 7.5 18.5t18.5 7.5h145q11 0 18.5 -7.5t7.5 -18.5v-37q30 29 68.5 46t84.5 17h45q11 0 19 -7.5t8 -18.5v-129q0 -11 -8 -18.5t-19 -7.5h-112q-36 0 -55 -19t-19 -55v-239q0 -11 -7.5 -18.5t-18.5 -7.5h-157zM211 595
q-10 0 -17.5 4t-18.5 14l-107 115q-6 6 -6 14q0 16 15 16h57q9 0 19 -1.5t18 -5.5l90 -46l90 46q10 4 19 5.5t18 1.5h57q16 0 16 -16q0 -8 -7 -14l-107 -115q-10 -10 -18 -14t-18 -4h-100z" />
    <glyph glyph-name="Sacute" unicode="&#x15a;" horiz-adv-x="680" 
d="M339 -10q-105 0 -174.5 29.5t-104 77t-36.5 100.5q0 9 6 15t15 6h159q14 0 22 -4.5t17 -12.5q9 -11 21 -20.5t31 -15t44 -5.5q46 0 71 12.5t25 34.5q0 17 -13.5 28t-45.5 20t-87 19q-77 13 -133 38.5t-85.5 69t-29.5 107.5q0 65 36.5 115t102 78t152.5 28q72 0 127.5 -19
t93.5 -49.5t58 -65.5t21 -67q0 -9 -6.5 -15.5t-14.5 -6.5h-167q-12 0 -20 4t-16 13q-5 14 -25 25t-51 11q-34 0 -52 -11.5t-18 -33.5q0 -15 11 -26t39 -19.5t78 -18.5q95 -14 153.5 -40t85.5 -68t27 -105q0 -71 -41 -122t-112.5 -78.5t-163.5 -27.5zM263 750q-16 0 -16 16
q0 8 5 13l94 115q10 12 17.5 15.5t19.5 3.5h168q19 0 19 -20q0 -7 -5 -12l-140 -115q-8 -7 -16.5 -11.5t-23.5 -4.5h-122z" />
    <glyph glyph-name="sacute" unicode="&#x15b;" horiz-adv-x="572" 
d="M281 -10q-68 0 -116 14.5t-78.5 36.5t-44.5 45.5t-15 41.5q-1 11 6.5 18.5t16.5 7.5h145q1 0 3 -0.5t4 -2.5q13 -4 24.5 -13t26 -16t34.5 -7q17 0 30.5 7.5t13.5 21.5q0 12 -7.5 21t-31.5 17.5t-77 18.5q-49 10 -89.5 29.5t-64 52.5t-23.5 81q0 41 27 79t80.5 62.5
t131.5 24.5q59 0 104.5 -14t77 -35t48 -45t17.5 -43q1 -11 -6 -18.5t-16 -7.5h-131q-3 0 -6.5 0.5t-5.5 2.5q-14 3 -25.5 11.5t-24.5 16t-33 7.5q-17 0 -27.5 -8t-10.5 -21q0 -11 7 -20t32 -17t79 -17q70 -11 112 -36.5t60 -59.5t18 -68q0 -51 -30.5 -89t-90 -58.5
t-144.5 -20.5zM214 595q-16 0 -16 16q0 8 5 13l94 115q10 12 17.5 15.5t19.5 3.5h159q19 0 19 -20q0 -7 -5 -12l-140 -115q-8 -7 -16.5 -11.5t-23.5 -4.5h-113z" />
    <glyph glyph-name="Scircumflex" unicode="&#x15c;" horiz-adv-x="680" 
d="M339 -10q-105 0 -174.5 29.5t-104 77t-36.5 100.5q0 9 6 15t15 6h159q14 0 22 -4.5t17 -12.5q9 -11 21 -20.5t31 -15t44 -5.5q46 0 71 12.5t25 34.5q0 17 -13.5 28t-45.5 20t-87 19q-77 13 -133 38.5t-85.5 69t-29.5 107.5q0 65 36.5 115t102 78t152.5 28q72 0 127.5 -19
t93.5 -49.5t58 -65.5t21 -67q0 -9 -6.5 -15.5t-14.5 -6.5h-167q-12 0 -20 4t-16 13q-5 14 -25 25t-51 11q-34 0 -52 -11.5t-18 -33.5q0 -15 11 -26t39 -19.5t78 -18.5q95 -14 153.5 -40t85.5 -68t27 -105q0 -71 -41 -122t-112.5 -78.5t-163.5 -27.5zM152 750q-15 0 -15 15
q0 8 6 14l107 115q10 11 18 15t18 4h108q10 0 18 -4t18 -15l107 -115q7 -6 7 -14q0 -15 -16 -15h-61q-9 0 -18 1t-19 6l-90 45l-90 -45q-9 -5 -18.5 -6t-18.5 -1h-61z" />
    <glyph glyph-name="scircumflex" unicode="&#x15d;" horiz-adv-x="572" 
d="M281 -10q-68 0 -116 14.5t-78.5 36.5t-44.5 45.5t-15 41.5q-1 11 6.5 18.5t16.5 7.5h145q1 0 3 -0.5t4 -2.5q13 -4 24.5 -13t26 -16t34.5 -7q17 0 30.5 7.5t13.5 21.5q0 12 -7.5 21t-31.5 17.5t-77 18.5q-49 10 -89.5 29.5t-64 52.5t-23.5 81q0 41 27 79t80.5 62.5
t131.5 24.5q59 0 104.5 -14t77 -35t48 -45t17.5 -43q1 -11 -6 -18.5t-16 -7.5h-131q-3 0 -6.5 0.5t-5.5 2.5q-14 3 -25.5 11.5t-24.5 16t-33 7.5q-17 0 -27.5 -8t-10.5 -21q0 -11 7 -20t32 -17t79 -17q70 -11 112 -36.5t60 -59.5t18 -68q0 -51 -30.5 -89t-90 -58.5
t-144.5 -20.5zM101 595q-15 0 -15 15q0 8 6 14l107 115q11 11 18.5 15t17.5 4h100q10 0 18 -4t18 -15l107 -115q7 -6 7 -14q0 -15 -16 -15h-57q-9 0 -18 1t-19 6l-90 45l-90 -45q-8 -5 -18 -6t-19 -1h-57z" />
    <glyph glyph-name="Scedilla" unicode="&#x15e;" horiz-adv-x="680" 
d="M337 -220q-27 0 -48.5 9t-31 21t1.5 21l20 17q9 8 15 6t15.5 -7t27.5 -5q14 0 22.5 8t8.5 19t-8 19t-23 8q-11 0 -21 -3t-18.5 -3.5t-15.5 5.5l-20 20q-7 7 -7 13.5t6 19.5l20 45q-85 8 -142 38.5t-85.5 74t-29.5 91.5q0 9 6 15t15 6h159q14 0 22 -4.5t17 -12.5
q9 -11 21 -20.5t31 -15t44 -5.5q46 0 71 12.5t25 34.5q0 17 -13.5 28t-45.5 20t-87 19q-77 13 -133 38.5t-85.5 69t-29.5 107.5q0 65 36.5 115t102 78t152.5 28q72 0 127.5 -19t93.5 -49.5t58 -65.5t21 -67q0 -9 -6.5 -15.5t-14.5 -6.5h-167q-12 0 -20 4t-16 13
q-5 14 -25 25t-51 11q-34 0 -52 -11.5t-18 -33.5q0 -15 11 -26t39 -19.5t78 -18.5q95 -14 153.5 -40t85.5 -68t27 -105q0 -70 -41 -121t-111.5 -78.5t-161.5 -28.5l-19 -37q6 2 16.5 3.5t15.5 1.5q37 0 58.5 -24.5t21.5 -63.5q0 -40 -26.5 -65t-71.5 -25z" />
    <glyph glyph-name="scedilla" unicode="&#x15f;" horiz-adv-x="572" 
d="M292 -220q-27 0 -48.5 9t-31 21t1.5 21l19 17q9 8 15.5 6t16 -7t27.5 -5q14 0 22.5 8t8.5 19t-8 19t-23 8q-11 0 -21 -3t-18.5 -3.5t-15.5 5.5l-20 20q-7 7 -7 13.5t6 19.5l20 45q-74 8 -120.5 31.5t-67 52.5t-21.5 51q-1 11 6.5 18.5t16.5 7.5h138q3 0 5.5 -0.5
t5.5 -2.5q14 -3 26 -12t26.5 -16.5t35.5 -7.5q17 0 30.5 7.5t13.5 21.5q0 12 -7.5 21t-31.5 17.5t-77 18.5q-49 10 -89.5 29.5t-64 52.5t-23.5 81q0 41 27 79t80.5 62.5t131.5 24.5q59 0 104.5 -14t77 -35t48 -45t17.5 -43q1 -11 -6 -18.5t-16 -7.5h-133q-3 0 -5.5 0.5
t-4.5 2.5q-14 3 -25.5 11.5t-24.5 16t-33 7.5q-17 0 -27.5 -8t-10.5 -21q0 -11 7 -20t32 -17t79 -17q70 -11 112 -36.5t60 -59.5t18 -68q0 -75 -64.5 -120t-184.5 -48l-19 -37q6 2 16.5 3.5t15.5 1.5q37 0 58.5 -24.5t21.5 -63.5q0 -40 -26.5 -65t-71.5 -25z" />
    <glyph glyph-name="Scaron" unicode="&#x160;" horiz-adv-x="680" 
d="M339 -10q-105 0 -174.5 29.5t-104 77t-36.5 100.5q0 9 6 15t15 6h159q14 0 22 -4.5t17 -12.5q9 -11 21 -20.5t31 -15t44 -5.5q46 0 71 12.5t25 34.5q0 17 -13.5 28t-45.5 20t-87 19q-77 13 -133 38.5t-85.5 69t-29.5 107.5q0 65 36.5 115t102 78t152.5 28q72 0 127.5 -19
t93.5 -49.5t58 -65.5t21 -67q0 -9 -6.5 -15.5t-14.5 -6.5h-167q-12 0 -20 4t-16 13q-5 14 -25 25t-51 11q-34 0 -52 -11.5t-18 -33.5q0 -15 11 -26t39 -19.5t78 -18.5q95 -14 153.5 -40t85.5 -68t27 -105q0 -71 -41 -122t-112.5 -78.5t-163.5 -27.5zM286 750q-10 0 -18 4
t-18 14l-107 115q-6 6 -6 14q0 16 15 16h61q9 0 18.5 -1.5t18.5 -5.5l90 -46l90 46q10 4 19 5.5t18 1.5h61q16 0 16 -16q0 -8 -7 -14l-107 -115q-10 -10 -18 -14t-18 -4h-108z" />
    <glyph glyph-name="scaron" unicode="&#x161;" horiz-adv-x="572" 
d="M281 -10q-68 0 -116 14.5t-78.5 36.5t-44.5 45.5t-15 41.5q-1 11 6.5 18.5t16.5 7.5h145q1 0 3 -0.5t4 -2.5q13 -4 24.5 -13t26 -16t34.5 -7q17 0 30.5 7.5t13.5 21.5q0 12 -7.5 21t-31.5 17.5t-77 18.5q-49 10 -89.5 29.5t-64 52.5t-23.5 81q0 41 27 79t80.5 62.5
t131.5 24.5q59 0 104.5 -14t77 -35t48 -45t17.5 -43q1 -11 -6 -18.5t-16 -7.5h-131q-3 0 -6.5 0.5t-5.5 2.5q-14 3 -25.5 11.5t-24.5 16t-33 7.5q-17 0 -27.5 -8t-10.5 -21q0 -11 7 -20t32 -17t79 -17q70 -11 112 -36.5t60 -59.5t18 -68q0 -51 -30.5 -89t-90 -58.5
t-144.5 -20.5zM235 595q-10 0 -17.5 4t-18.5 14l-107 115q-6 6 -6 14q0 16 15 16h57q9 0 19 -1.5t18 -5.5l90 -46l90 46q10 4 19 5.5t18 1.5h57q16 0 16 -16q0 -8 -7 -14l-107 -115q-10 -10 -18 -14t-18 -4h-100z" />
    <glyph glyph-name="Tcaron" unicode="&#x164;" horiz-adv-x="652" 
d="M243 0q-11 0 -18.5 7.5t-7.5 18.5v488h-172q-11 0 -18.5 7.5t-7.5 18.5v134q0 11 7.5 18.5t18.5 7.5h562q11 0 18.5 -7.5t7.5 -18.5v-134q0 -11 -7.5 -18.5t-18.5 -7.5h-172v-488q0 -11 -7.5 -18.5t-18.5 -7.5h-166zM272 750q-10 0 -18 4t-18 14l-107 115q-6 6 -6 14
q0 16 15 16h61q9 0 18.5 -1.5t18.5 -5.5l90 -46l90 46q10 4 19 5.5t18 1.5h61q16 0 16 -16q0 -8 -7 -14l-107 -115q-10 -10 -18 -14t-18 -4h-108z" />
    <glyph glyph-name="tcaron" unicode="&#x165;" horiz-adv-x="500" 
d="M346 0q-68 0 -119.5 20t-80 65.5t-28.5 120.5v161h-79q-11 0 -18.5 7.5t-7.5 18.5v101q0 11 7.5 18.5t18.5 7.5h79v164q0 11 7.5 18.5t18.5 7.5h145q11 0 18.5 -7.5t7.5 -18.5v-164h126q11 0 18.5 -7.5t7.5 -18.5v-101q0 -11 -7.5 -18.5t-18.5 -7.5h-126v-144
q0 -29 12 -45.5t38 -16.5h84q11 0 18.5 -7.5t7.5 -18.5v-109q0 -11 -7.5 -18.5t-18.5 -7.5h-103zM394 611q-9 0 -15 6t-5 15l20 134q2 14 11.5 25.5t27.5 11.5h123q8 0 14 -6t6 -15q0 -5 -1 -9l-52 -133q-4 -10 -13 -19.5t-27 -9.5h-89z" />
    <glyph glyph-name="Tbar" unicode="&#x166;" horiz-adv-x="660" 
d="M247 0q-11 0 -18.5 7.5t-7.5 18.5v249h-95q-11 0 -18.5 8t-7.5 18v61q0 11 7.5 18.5t18.5 7.5h95v126h-172q-11 0 -18.5 7.5t-7.5 18.5v134q0 11 7.5 18.5t18.5 7.5h562q11 0 18.5 -7.5t7.5 -18.5v-134q0 -11 -7.5 -18.5t-18.5 -7.5h-172v-126h95q11 0 19 -7.5t8 -18.5
v-61q0 -10 -8 -18t-19 -8h-95v-249q0 -11 -7.5 -18.5t-18.5 -7.5h-166z" />
    <glyph glyph-name="tbar" unicode="&#x167;" horiz-adv-x="502" 
d="M348 0q-68 0 -119.5 20t-80.5 65.5t-29 120.5v66h-78q-11 0 -19 8t-8 18v44q0 11 8 19t19 8h78v55h-78q-11 0 -19 7.5t-8 18.5v44q0 11 8 18.5t19 7.5h78v164q0 11 8 18.5t18 7.5h146q11 0 18.5 -7.5t7.5 -18.5v-164h125q11 0 19 -7.5t8 -18.5v-44q0 -11 -8 -18.5
t-19 -7.5h-125v-55h125q11 0 19 -8t8 -19v-44q0 -10 -8 -18t-19 -8h-125v-49q0 -29 11.5 -45.5t38.5 -16.5h84q11 0 18.5 -7.5t7.5 -18.5v-109q0 -11 -7.5 -18.5t-18.5 -7.5h-103z" />
    <glyph glyph-name="Utilde" unicode="&#x168;" horiz-adv-x="736" 
d="M369 -10q-93 0 -163.5 29t-110 90.5t-39.5 155.5v409q0 11 8 18.5t18 7.5h163q11 0 18.5 -7.5t7.5 -18.5v-406q0 -51 25 -77t72 -26t71.5 26t24.5 77v406q0 11 8 18.5t19 7.5h162q11 0 18.5 -7.5t7.5 -18.5v-409q0 -94 -39 -155.5t-109 -90.5t-162 -29zM432 745
q-29 0 -47.5 9t-33.5 18t-33 9q-15 0 -21.5 -7.5t-11.5 -15.5t-16 -8h-72q-7 0 -12.5 5.5t-5.5 12.5q0 16 6 40t20 47.5t38 39t60 15.5q29 0 47.5 -9t33.5 -18t33 -9q15 0 21 8t11.5 15.5t16.5 7.5h72q9 0 13.5 -5.5t4.5 -12.5q0 -17 -6 -40.5t-20 -47t-38 -39t-60 -15.5z
" />
    <glyph glyph-name="utilde" unicode="&#x169;" horiz-adv-x="657" 
d="M242 -10q-53 0 -97.5 25t-71 75t-26.5 126v278q0 11 7.5 18.5t18.5 7.5h158q11 0 18.5 -7.5t7.5 -18.5v-271q0 -77 69 -77q33 0 51.5 20t18.5 57v271q0 11 7.5 18.5t18.5 7.5h158q10 0 18 -7.5t8 -18.5v-468q0 -11 -8 -18.5t-18 -7.5h-146q-11 0 -18.5 7.5t-7.5 18.5v36
q-25 -37 -68 -54.5t-98 -17.5zM391 590q-28 0 -46.5 9t-33 18t-32.5 9q-15 0 -21.5 -7.5t-11.5 -15.5t-16 -8h-72q-7 0 -12.5 5.5t-5.5 12.5q0 16 6 40t20 47t37.5 38.5t60.5 15.5q28 0 46.5 -9t33 -18t33.5 -9q14 0 20 8t11.5 15.5t16.5 7.5h72q9 0 13.5 -5.5t4.5 -12.5
q0 -17 -6 -40.5t-20 -46.5t-38 -38.5t-60 -15.5z" />
    <glyph glyph-name="Umacron" unicode="&#x16a;" horiz-adv-x="736" 
d="M369 -10q-93 0 -163.5 29t-110 90.5t-39.5 155.5v409q0 11 8 18.5t18 7.5h163q11 0 18.5 -7.5t7.5 -18.5v-406q0 -51 25 -77t72 -26t71.5 26t24.5 77v406q0 11 8 18.5t19 7.5h162q11 0 18.5 -7.5t7.5 -18.5v-409q0 -94 -39 -155.5t-109 -90.5t-162 -29zM196 750
q-11 0 -17 6t-6 17v88q0 11 6 17t17 6h343q11 0 17 -6t6 -17v-88q0 -11 -6 -17t-17 -6h-343z" />
    <glyph glyph-name="umacron" unicode="&#x16b;" horiz-adv-x="657" 
d="M242 -10q-53 0 -97.5 25t-71 75t-26.5 126v278q0 11 7.5 18.5t18.5 7.5h158q11 0 18.5 -7.5t7.5 -18.5v-271q0 -77 69 -77q33 0 51.5 20t18.5 57v271q0 11 7.5 18.5t18.5 7.5h158q10 0 18 -7.5t8 -18.5v-468q0 -11 -8 -18.5t-18 -7.5h-146q-11 0 -18.5 7.5t-7.5 18.5v36
q-25 -37 -68 -54.5t-98 -17.5zM176 600q-11 0 -17 6.5t-6 16.5v87q0 10 6 16.5t17 6.5h303q10 0 16 -6.5t6 -16.5v-87q0 -10 -6 -16.5t-16 -6.5h-303z" />
    <glyph glyph-name="Ubreve" unicode="&#x16c;" horiz-adv-x="736" 
d="M369 -10q-93 0 -163.5 29t-110 90.5t-39.5 155.5v409q0 11 8 18.5t18 7.5h163q11 0 18.5 -7.5t7.5 -18.5v-406q0 -51 25 -77t72 -26t71.5 26t24.5 77v406q0 11 8 18.5t19 7.5h162q11 0 18.5 -7.5t7.5 -18.5v-409q0 -94 -39 -155.5t-109 -90.5t-162 -29zM368 744
q-57 0 -94 20t-54 53.5t-17 75.5q0 8 5 13.5t14 5.5h83q9 0 14 -5.5t5 -13.5q0 -23 9 -40t35 -17q27 0 35.5 17t8.5 40q0 8 5 13.5t14 5.5h84q9 0 14 -5.5t5 -13.5q0 -42 -17.5 -75.5t-54 -53.5t-94.5 -20z" />
    <glyph glyph-name="ubreve" unicode="&#x16d;" horiz-adv-x="657" 
d="M242 -10q-53 0 -97.5 25t-71 75t-26.5 126v278q0 11 7.5 18.5t18.5 7.5h158q11 0 18.5 -7.5t7.5 -18.5v-271q0 -77 69 -77q33 0 51.5 20t18.5 57v271q0 11 7.5 18.5t18.5 7.5h158q10 0 18 -7.5t8 -18.5v-468q0 -11 -8 -18.5t-18 -7.5h-146q-11 0 -18.5 7.5t-7.5 18.5v36
q-25 -37 -68 -54.5t-98 -17.5zM328 590q-53 0 -88.5 20t-53.5 53.5t-18 75.5q0 8 5 13.5t14 5.5h79q9 0 14 -5.5t5 -13.5q0 -23 9.5 -40.5t33.5 -17.5q25 0 34 17.5t9 40.5q0 8 5 13.5t14 5.5h79q9 0 14 -5.5t5 -13.5q0 -42 -17.5 -75.5t-53.5 -53.5t-89 -20z" />
    <glyph glyph-name="Uring" unicode="&#x16e;" horiz-adv-x="736" 
d="M369 -10q-93 0 -163.5 29t-110 90.5t-39.5 155.5v409q0 11 8 18.5t18 7.5h163q11 0 18.5 -7.5t7.5 -18.5v-406q0 -51 25 -77t72 -26t71.5 26t24.5 77v406q0 11 8 18.5t19 7.5h162q11 0 18.5 -7.5t7.5 -18.5v-409q0 -94 -39 -155.5t-109 -90.5t-162 -29zM368 740
q-39 0 -67.5 26t-28.5 65q0 40 28 66t68 26t68 -26t28 -66q0 -39 -28 -65t-68 -26zM368 801q13 0 21.5 8.5t8.5 21.5t-8.5 21.5t-21.5 8.5t-21.5 -8.5t-8.5 -21.5t8.5 -21.5t21.5 -8.5z" />
    <glyph glyph-name="uring" unicode="&#x16f;" horiz-adv-x="657" 
d="M242 -10q-53 0 -97.5 25t-71 75t-26.5 126v278q0 11 7.5 18.5t18.5 7.5h158q11 0 18.5 -7.5t7.5 -18.5v-271q0 -77 69 -77q33 0 51.5 20t18.5 57v271q0 11 7.5 18.5t18.5 7.5h158q10 0 18 -7.5t8 -18.5v-468q0 -11 -8 -18.5t-18 -7.5h-146q-11 0 -18.5 7.5t-7.5 18.5v36
q-25 -37 -68 -54.5t-98 -17.5zM328 590q-39 0 -67.5 26t-28.5 65q0 40 28 66t68 26t68 -26t28 -66q0 -39 -28 -65t-68 -26zM328 651q13 0 21.5 8.5t8.5 21.5t-8.5 21.5t-21.5 8.5t-21.5 -8.5t-8.5 -21.5t8.5 -21.5t21.5 -8.5z" />
    <glyph glyph-name="Uhungarumlaut" unicode="&#x170;" horiz-adv-x="736" 
d="M369 -10q-93 0 -163.5 29t-110 90.5t-39.5 155.5v409q0 11 8 18.5t18 7.5h163q11 0 18.5 -7.5t7.5 -18.5v-406q0 -51 25 -77t72 -26t71.5 26t24.5 77v406q0 11 8 18.5t19 7.5h162q11 0 18.5 -7.5t7.5 -18.5v-409q0 -94 -39 -155.5t-109 -90.5t-162 -29zM438 750
q-16 0 -16 16q0 4 2 8t3 7l50 113q9 19 37 19h135q20 0 20 -19q0 -7 -6 -13l-106 -117q-12 -14 -33 -14h-86zM211 750q-16 0 -16 16q0 4 2 8t3 7l50 113q9 19 37 19h135q20 0 20 -19q0 -7 -6 -13l-105 -117q-12 -14 -34 -14h-86z" />
    <glyph glyph-name="uhungarumlaut" unicode="&#x171;" horiz-adv-x="657" 
d="M242 -10q-53 0 -97.5 25t-71 75t-26.5 126v278q0 11 7.5 18.5t18.5 7.5h158q11 0 18.5 -7.5t7.5 -18.5v-271q0 -77 69 -77q33 0 51.5 20t18.5 57v271q0 11 7.5 18.5t18.5 7.5h158q10 0 18 -7.5t8 -18.5v-468q0 -11 -8 -18.5t-18 -7.5h-146q-11 0 -18.5 7.5t-7.5 18.5v36
q-25 -37 -68 -54.5t-98 -17.5zM388 595q-16 0 -16 16q0 4 2 8t3 7l51 113q9 19 37 19h126q20 0 20 -19q0 -7 -6 -13l-106 -117q-12 -14 -33 -14h-78zM153 595q-16 0 -16 16q0 4 2 8t3 7l51 113q9 19 37 19h126q20 0 20 -19q0 -7 -6 -13l-106 -117q-12 -14 -33 -14h-78z" />
    <glyph glyph-name="Uogonek" unicode="&#x172;" horiz-adv-x="736" 
d="M448 -220q-56 0 -92.5 22t-54 59.5t-17.5 83.5q0 14 1.5 27t4.5 24q-107 17 -170.5 82.5t-63.5 186.5v409q0 11 8 18.5t18 7.5h163q11 0 18.5 -7.5t7.5 -18.5v-406q0 -51 25 -77t72 -26t71.5 26t24.5 77v406q0 11 8 18.5t19 7.5h162q11 0 18.5 -7.5t7.5 -18.5v-409
q0 -82 -29.5 -137.5t-83 -87.5t-125.5 -45q-25 -5 -34.5 -18.5t-9.5 -31.5q0 -20 12.5 -37.5t42.5 -17.5h11q11 0 18.5 -7.5t7.5 -18.5v-58q0 -11 -7.5 -18.5t-18.5 -7.5h-15z" />
    <glyph glyph-name="uogonek" unicode="&#x173;" horiz-adv-x="657" 
d="M566 -220q-54 0 -89.5 21.5t-53 58.5t-17.5 83q0 14 2.5 25t7.5 21l9 18q-7 2 -12 8.5t-5 14.5v32q-25 -37 -68 -54.5t-98 -17.5q-53 0 -97.5 25t-71 75t-26.5 126v278q0 11 7.5 18.5t18.5 7.5h158q11 0 18.5 -7.5t7.5 -18.5v-271q0 -77 69 -77q33 0 51.5 20t18.5 57v271
q0 11 7.5 18.5t18.5 7.5h158q10 0 18 -7.5t8 -18.5v-468q0 -10 -7.5 -17.5t-17.5 -8.5h-14q-26 -4 -37 -21t-11 -36q0 -20 11.5 -36.5t39.5 -16.5h10q10 0 18 -7.5t8 -18.5v-58q0 -11 -8 -18.5t-18 -7.5h-14z" />
    <glyph glyph-name="Wcircumflex" unicode="&#x174;" horiz-adv-x="843" 
d="M172 0q-19 0 -29.5 11t-13.5 24l-100 639v2v2q0 9 6 15.5t15 6.5h155q31 0 34 -25l49 -336l57 178q2 8 9 18t24 10h87q17 0 24 -10t10 -18l56 -177l50 335q3 25 33 25h155q9 0 15.5 -6.5t6.5 -15.5v-2t-1 -2l-100 -639q-1 -13 -12.5 -24t-30.5 -11h-119q-18 0 -27 9.5
t-12 16.5l-91 246l-92 -246q-2 -7 -11.5 -16.5t-27.5 -9.5h-119zM234 750q-15 0 -15 15q0 8 6 14l107 115q10 11 18 15t18 4h108q10 0 18 -4t18 -15l107 -115q7 -6 7 -14q0 -15 -16 -15h-61q-9 0 -18 1t-19 6l-90 45l-90 -45q-9 -5 -18.5 -6t-18.5 -1h-61z" />
    <glyph glyph-name="wcircumflex" unicode="&#x175;" horiz-adv-x="853" 
d="M200 0q-15 0 -22.5 7.5t-10.5 17.5l-145 463q-1 5 -1 9q0 9 6.5 16t16.5 7h129q14 0 22 -7.5t9 -14.5l73 -247l77 246q2 7 10 15t23 8h79q15 0 23 -8t10 -15l77 -246l73 247q2 7 10 14.5t22 7.5h129q9 0 16 -7t7 -16q0 -4 -1 -9l-145 -463q-4 -10 -11 -17.5t-22 -7.5
h-112q-15 0 -22.5 7.5t-11.5 17.5l-81 238l-82 -238q-3 -10 -10.5 -17.5t-22.5 -7.5h-112zM243 595q-15 0 -15 15q0 8 6 14l107 115q11 11 18.5 15t17.5 4h100q10 0 18 -4t18 -15l107 -115q7 -6 7 -14q0 -15 -16 -15h-57q-9 0 -18 1t-19 6l-90 45l-90 -45q-8 -5 -18 -6
t-19 -1h-57z" />
    <glyph glyph-name="Ycircumflex" unicode="&#x176;" horiz-adv-x="695" 
d="M266 0q-11 0 -18.5 7.5t-7.5 18.5v206l-228 437q-1 2 -2 4.5t-1 4.5q0 9 6.5 15.5t15.5 6.5h156q18 0 27 -9t12 -14l122 -230l122 230q2 5 11.5 14t26.5 9h157q8 0 14.5 -6.5t6.5 -15.5q0 -2 -0.5 -4.5t-1.5 -4.5l-229 -437v-206q0 -11 -7.5 -18.5t-18.5 -7.5h-163z
M160 750q-15 0 -15 15q0 8 6 14l107 115q10 11 18 15t18 4h108q10 0 18 -4t18 -15l107 -115q7 -6 7 -14q0 -15 -16 -15h-61q-9 0 -18 1t-19 6l-90 45l-90 -45q-9 -5 -18.5 -6t-18.5 -1h-61z" />
    <glyph glyph-name="ycircumflex" unicode="&#x177;" horiz-adv-x="617" 
d="M152 -190q-9 0 -15.5 6t-6.5 15q0 2 0.5 5t1.5 7l80 189l-193 455q-2 6 -2 10q2 9 8.5 16t15.5 7h141q15 0 21.5 -7.5t9.5 -14.5l98 -260l101 260q4 8 11 15t21 7h140q8 0 15 -6.5t7 -14.5q0 -6 -2 -12l-282 -655q-4 -8 -11.5 -15t-21.5 -7h-137zM127 595q-15 0 -15 15
q0 8 6 14l107 115q11 11 18.5 15t17.5 4h100q10 0 18 -4t18 -15l107 -115q7 -6 7 -14q0 -15 -16 -15h-57q-9 0 -18 1t-19 6l-90 45l-90 -45q-8 -5 -18 -6t-19 -1h-57z" />
    <glyph glyph-name="Ydieresis" unicode="&#x178;" horiz-adv-x="695" 
d="M266 0q-11 0 -18.5 7.5t-7.5 18.5v206l-228 437q-1 2 -2 4.5t-1 4.5q0 9 6.5 15.5t15.5 6.5h156q18 0 27 -9t12 -14l122 -230l122 230q2 5 11.5 14t26.5 9h157q8 0 14.5 -6.5t6.5 -15.5q0 -2 -0.5 -4.5t-1.5 -4.5l-229 -437v-206q0 -11 -7.5 -18.5t-18.5 -7.5h-163z
M419 750q-10 0 -16 6t-6 17v108q0 10 6 16.5t16 6.5h108q10 0 16.5 -6.5t6.5 -16.5v-108q0 -11 -6.5 -17t-16.5 -6h-108zM167 750q-11 0 -17 6t-6 17v108q0 10 6 16.5t17 6.5h107q10 0 16.5 -6.5t6.5 -16.5v-108q0 -11 -6.5 -17t-16.5 -6h-107z" />
    <glyph glyph-name="Zacute" unicode="&#x179;" horiz-adv-x="672" 
d="M62 0q-10 0 -18 7.5t-8 18.5v121q0 14 6 23t9 13l302 341h-281q-11 0 -18.5 7.5t-7.5 18.5v124q0 11 7.5 18.5t18.5 7.5h526q11 0 19 -7.5t8 -18.5v-119q0 -11 -4 -19.5t-9 -14.5l-289 -343h288q11 0 18.5 -7.5t7.5 -18.5v-126q0 -11 -7.5 -18.5t-18.5 -7.5h-549z
M249 750q-16 0 -16 16q0 8 5 13l94 115q10 12 17.5 15.5t19.5 3.5h168q19 0 19 -20q0 -7 -5 -12l-140 -115q-8 -7 -16.5 -11.5t-23.5 -4.5h-122z" />
    <glyph glyph-name="zacute" unicode="&#x17a;" horiz-adv-x="571" 
d="M63 0q-11 0 -18.5 7.5t-7.5 18.5v97q0 11 4.5 19.5t11.5 14.5l217 212h-199q-11 0 -18.5 8t-7.5 18v99q0 11 7.5 18.5t18.5 7.5h422q11 0 18.5 -7.5t7.5 -18.5v-106q0 -8 -3.5 -15.5t-10.5 -13.5l-209 -208h218q11 0 18.5 -8t7.5 -18v-99q0 -11 -7.5 -18.5t-18.5 -7.5
h-451zM216 595q-16 0 -16 16q0 8 5 13l94 115q10 12 17.5 15.5t19.5 3.5h159q19 0 19 -20q0 -7 -5 -12l-140 -115q-8 -7 -16.5 -11.5t-23.5 -4.5h-113z" />
    <glyph glyph-name="Zdotaccent" unicode="&#x17b;" horiz-adv-x="672" 
d="M62 0q-10 0 -18 7.5t-8 18.5v121q0 14 6 23t9 13l302 341h-281q-11 0 -18.5 7.5t-7.5 18.5v124q0 11 7.5 18.5t18.5 7.5h526q11 0 19 -7.5t8 -18.5v-119q0 -11 -4 -19.5t-9 -14.5l-289 -343h288q11 0 18.5 -7.5t7.5 -18.5v-126q0 -11 -7.5 -18.5t-18.5 -7.5h-549z
M267 750q-11 0 -17 6t-6 17v119q0 10 6 16.5t17 6.5h119q10 0 16.5 -6.5t6.5 -16.5v-119q0 -11 -6.5 -17t-16.5 -6h-119z" />
    <glyph glyph-name="zdotaccent" unicode="&#x17c;" horiz-adv-x="571" 
d="M63 0q-11 0 -18.5 7.5t-7.5 18.5v97q0 11 4.5 19.5t11.5 14.5l217 212h-199q-11 0 -18.5 8t-7.5 18v99q0 11 7.5 18.5t18.5 7.5h422q11 0 18.5 -7.5t7.5 -18.5v-106q0 -8 -3.5 -15.5t-10.5 -13.5l-209 -208h218q11 0 18.5 -8t7.5 -18v-99q0 -11 -7.5 -18.5t-18.5 -7.5
h-451zM229 599q-11 0 -17 6.5t-6 16.5v115q0 10 6 16.5t17 6.5h115q10 0 16.5 -6.5t6.5 -16.5v-115q0 -10 -6.5 -16.5t-16.5 -6.5h-115z" />
    <glyph glyph-name="Zcaron" unicode="&#x17d;" horiz-adv-x="672" 
d="M62 0q-10 0 -18 7.5t-8 18.5v121q0 14 6 23t9 13l302 341h-281q-11 0 -18.5 7.5t-7.5 18.5v124q0 11 7.5 18.5t18.5 7.5h526q11 0 19 -7.5t8 -18.5v-119q0 -11 -4 -19.5t-9 -14.5l-289 -343h288q11 0 18.5 -7.5t7.5 -18.5v-126q0 -11 -7.5 -18.5t-18.5 -7.5h-549z
M272 750q-10 0 -18 4t-18 14l-107 115q-6 6 -6 14q0 16 15 16h61q9 0 18.5 -1.5t18.5 -5.5l90 -46l90 46q10 4 19 5.5t18 1.5h61q16 0 16 -16q0 -8 -7 -14l-107 -115q-10 -10 -18 -14t-18 -4h-108z" />
    <glyph glyph-name="zcaron" unicode="&#x17e;" horiz-adv-x="571" 
d="M63 0q-11 0 -18.5 7.5t-7.5 18.5v97q0 11 4.5 19.5t11.5 14.5l217 212h-199q-11 0 -18.5 8t-7.5 18v99q0 11 7.5 18.5t18.5 7.5h422q11 0 18.5 -7.5t7.5 -18.5v-106q0 -8 -3.5 -15.5t-10.5 -13.5l-209 -208h218q11 0 18.5 -8t7.5 -18v-99q0 -11 -7.5 -18.5t-18.5 -7.5
h-451zM237 595q-10 0 -17.5 4t-18.5 14l-107 115q-6 6 -6 14q0 16 15 16h57q9 0 19 -1.5t18 -5.5l90 -46l90 46q10 4 19 5.5t18 1.5h57q16 0 16 -16q0 -8 -7 -14l-107 -115q-10 -10 -18 -14t-18 -4h-100z" />
    <glyph glyph-name="longs" unicode="&#x17f;" horiz-adv-x="365" 
d="M141 0q-10 0 -18 7.5t-8 18.5v341h-72q-11 0 -18.5 7.5t-7.5 18.5v101q0 11 7.5 18.5t18.5 7.5h72v24q0 75 31 118t85 60.5t124 17.5h85q11 0 18.5 -7.5t7.5 -18.5v-101q0 -11 -7.5 -18.5t-18.5 -7.5h-75q-20 0 -31.5 -6t-16 -16.5t-4.5 -24.5v-514q0 -11 -7.5 -18.5
t-18.5 -7.5h-146z" />
    <glyph glyph-name="florin" unicode="&#x192;" horiz-adv-x="498" 
d="M23 -225q-11 0 -18.5 7.5t-7.5 18.5v124q0 11 7.5 18.5t18.5 7.5h33q25 0 40.5 9t23 27.5t7.5 49.5v330h-73q-10 0 -18 7.5t-8 18.5v101q0 11 8 18.5t18 7.5h73v25q0 75 31 117.5t85 60t124 17.5h85q11 0 18.5 -7.5t7.5 -18.5v-101q0 -11 -7.5 -18.5t-18.5 -7.5h-76
q-27 0 -39 -12.5t-12 -34.5v-20h116q11 0 18.5 -7.5t7.5 -18.5v-101q0 -11 -7.5 -18.5t-18.5 -7.5h-116v-339q0 -86 -30 -142t-90 -83.5t-149 -27.5h-33z" />
    <glyph glyph-name="AEacute" unicode="&#x1fc;" horiz-adv-x="989" 
d="M26 0q-9 0 -15.5 6.5t-6.5 15.5q0 4 2 8q15 43 30.5 87.5t32.5 91t36.5 97t42 107t49.5 120.5t59 137q3 11 13 20.5t28 9.5h617q11 0 19 -7.5t8 -18.5v-118q0 -10 -8 -18t-19 -8h-284v-99h262q11 0 19 -7.5t8 -18.5v-108q0 -11 -8 -18.5t-19 -7.5h-262v-101h292
q11 0 19 -8t8 -19v-117q0 -11 -8 -18.5t-19 -7.5h-473q-11 0 -18.5 7.5t-7.5 18.5v81h-170q-9 -18 -15 -31t-10 -22t-6.5 -16.5t-5.5 -14.5q-3 -8 -10.5 -15.5t-25.5 -7.5h-154zM300 276h123v253h-26zM417 750q-16 0 -16 16q0 8 5 13l94 115q10 12 17.5 15.5t19.5 3.5h168
q19 0 19 -20q0 -7 -5 -12l-140 -115q-8 -7 -16.5 -11.5t-23.5 -4.5h-122z" />
    <glyph glyph-name="aeacute" unicode="&#x1fd;" horiz-adv-x="925" 
d="M229 -10q-65 0 -111.5 21t-71 56.5t-24.5 79.5q0 72 58.5 114t156.5 58l116 18v8q0 31 -10.5 45.5t-39.5 14.5q-21 0 -33 -8t-22.5 -17.5t-24.5 -12.5q-1 -3 -2.5 -3.5t-4.5 -0.5h-138q-10 0 -16 6t-6 16q0 18 14 42.5t44 48t77 39t113 15.5q60 0 99 -12.5t62 -34.5
q31 22 70.5 34.5t86.5 12.5q74 0 125 -22t84 -60.5t48 -87t15 -99.5v-28q0 -10 -7.5 -18t-18.5 -8h-307v-6q0 -28 7.5 -46.5t21.5 -27t31 -8.5q15 0 27 7t23 20q9 9 15 11.5t17 2.5h156q22 0 22 -21q0 -18 -15.5 -43t-47.5 -49.5t-80.5 -40.5t-114.5 -16q-63 0 -112.5 18.5
t-82.5 51.5q-43 -42 -96 -56t-103 -14zM271 121q25 0 44 10.5t29.5 32.5t10.5 55v7l-72 -14q-36 -7 -51.5 -20t-15.5 -30q0 -12 7.5 -21t19.5 -14.5t28 -5.5zM561 319h123v4q0 40 -15.5 61t-46.5 21q-17 0 -31 -8.5t-22 -26.5t-8 -47v-4zM392 595q-16 0 -16 16q0 8 5 13
l94 115q10 12 17.5 15.5t19.5 3.5h159q19 0 19 -20q0 -7 -5 -12l-140 -115q-8 -7 -16.5 -11.5t-23.5 -4.5h-113z" />
    <glyph glyph-name="Oslashacute" unicode="&#x1fe;" horiz-adv-x="727" 
d="M364 -10q-96 0 -166.5 30t-111 90.5t-43.5 150.5q-1 42 -1 86.5t1 88.5q3 89 43.5 150t111.5 92.5t166 31.5q94 0 165 -31.5t112 -92.5t43 -150q2 -44 2 -88.5t-2 -86.5q-3 -90 -43.5 -150.5t-111 -90.5t-165.5 -30zM364 160q42 0 69 25.5t28 81.5q2 43 2 83.5t-2 82.5
q-1 37 -13.5 61t-34 35t-49.5 11t-50 -11t-34.5 -35t-13.5 -61q-1 -42 -1 -82.5t1 -83.5q2 -56 28.5 -81.5t69.5 -25.5zM81 -65q-12 0 -17.5 11.5t4.5 26.5l517 778q2 3 7.5 8.5t15.5 5.5h40q13 0 17.5 -12t-3.5 -24l-519 -779q-2 -3 -7.5 -9t-16.5 -6h-38zM286 750
q-16 0 -16 16q0 8 5 13l94 115q10 12 17.5 15.5t19.5 3.5h168q19 0 19 -20q0 -7 -5 -12l-140 -115q-8 -7 -16.5 -11.5t-23.5 -4.5h-122z" />
    <glyph glyph-name="oslashacute" unicode="&#x1ff;" horiz-adv-x="626" 
d="M313 -10q-88 0 -148.5 26t-92.5 76.5t-36 121.5q-1 21 -1 46t1 46q4 72 38 122t94.5 76t144.5 26t144.5 -26t94.5 -76t38 -122q2 -21 2 -46t-2 -46q-4 -71 -36 -121.5t-92.5 -76.5t-148.5 -26zM313 131q37 0 51 22t16 66q1 15 1 41t-1 41q-2 43 -16 65.5t-51 22.5
q-36 0 -50 -22.5t-17 -65.5q-1 -15 -1 -41t1 -41q3 -44 17 -66t50 -22zM62 -28q-8 0 -14 6t-6 14q0 3 1 6.5t5 8.5l457 525q3 4 9 9.5t16 5.5h34q8 0 14 -6t6 -14q0 -1 -0.5 -5.5t-4.5 -9.5l-457 -525q-3 -4 -9 -9.5t-16 -5.5h-35zM242 595q-16 0 -16 16q0 8 5 13l94 115
q10 12 17.5 15.5t19.5 3.5h159q19 0 19 -20q0 -7 -5 -12l-140 -115q-8 -7 -16.5 -11.5t-23.5 -4.5h-113z" />
    <glyph glyph-name="uni0218" unicode="&#x218;" horiz-adv-x="680" 
d="M339 -10q-105 0 -174.5 29.5t-104 77t-36.5 100.5q0 9 6 15t15 6h159q14 0 22 -4.5t17 -12.5q9 -11 21 -20.5t31 -15t44 -5.5q46 0 71 12.5t25 34.5q0 17 -13.5 28t-45.5 20t-87 19q-77 13 -133 38.5t-85.5 69t-29.5 107.5q0 65 36.5 115t102 78t152.5 28q72 0 127.5 -19
t93.5 -49.5t58 -65.5t21 -67q0 -9 -6.5 -15.5t-14.5 -6.5h-167q-12 0 -20 4t-16 13q-5 14 -25 25t-51 11q-34 0 -52 -11.5t-18 -33.5q0 -15 11 -26t39 -19.5t78 -18.5q95 -14 153.5 -40t85.5 -68t27 -105q0 -71 -41 -122t-112.5 -78.5t-163.5 -27.5zM241 -242q-8 0 -14 6
t-6 15l20 134q2 14 11.5 25.5t28.5 11.5h131q9 0 15 -6t6 -15q0 -5 -2 -9l-52 -133q-4 -10 -13 -19.5t-27 -9.5h-98z" />
    <glyph glyph-name="uni0219" unicode="&#x219;" horiz-adv-x="572" 
d="M281 -10q-68 0 -116 14.5t-78.5 36.5t-44.5 45.5t-15 41.5q-1 11 6.5 18.5t16.5 7.5h145q1 0 3 -0.5t4 -2.5q13 -4 24.5 -13t26 -16t34.5 -7q17 0 30.5 7.5t13.5 21.5q0 12 -7.5 21t-31.5 17.5t-77 18.5q-49 10 -89.5 29.5t-64 52.5t-23.5 81q0 41 27 79t80.5 62.5
t131.5 24.5q59 0 104.5 -14t77 -35t48 -45t17.5 -43q1 -11 -6 -18.5t-16 -7.5h-131q-3 0 -6.5 0.5t-5.5 2.5q-14 3 -25.5 11.5t-24.5 16t-33 7.5q-17 0 -27.5 -8t-10.5 -21q0 -11 7 -20t32 -17t79 -17q70 -11 112 -36.5t60 -59.5t18 -68q0 -51 -30.5 -89t-90 -58.5
t-144.5 -20.5zM191 -242q-9 0 -15 6t-5 15l20 134q2 14 11.5 25.5t27.5 11.5h123q8 0 14 -6t6 -15q0 -5 -1 -9l-52 -133q-4 -10 -13 -19.5t-27 -9.5h-89z" />
    <glyph glyph-name="uni021A" unicode="&#x21a;" horiz-adv-x="652" 
d="M243 0q-11 0 -18.5 7.5t-7.5 18.5v488h-172q-11 0 -18.5 7.5t-7.5 18.5v134q0 11 7.5 18.5t18.5 7.5h562q11 0 18.5 -7.5t7.5 -18.5v-134q0 -11 -7.5 -18.5t-18.5 -7.5h-172v-488q0 -11 -7.5 -18.5t-18.5 -7.5h-166zM226 -242q-8 0 -14 6t-6 15l20 134q2 14 11.5 25.5
t28.5 11.5h131q9 0 15 -6t6 -15q0 -5 -2 -9l-52 -133q-4 -10 -13 -19.5t-27 -9.5h-98z" />
    <glyph glyph-name="uni021B" unicode="&#x21b;" horiz-adv-x="500" 
d="M346 0q-68 0 -119.5 20t-80 65.5t-28.5 120.5v161h-79q-11 0 -18.5 7.5t-7.5 18.5v101q0 11 7.5 18.5t18.5 7.5h79v164q0 11 7.5 18.5t18.5 7.5h145q11 0 18.5 -7.5t7.5 -18.5v-164h126q11 0 18.5 -7.5t7.5 -18.5v-101q0 -11 -7.5 -18.5t-18.5 -7.5h-126v-144
q0 -29 12 -45.5t38 -16.5h84q11 0 18.5 -7.5t7.5 -18.5v-109q0 -11 -7.5 -18.5t-18.5 -7.5h-103zM201 -242q-9 0 -15 6t-5 15l20 134q2 14 11.5 25.5t27.5 11.5h123q8 0 14 -6t6 -15q0 -5 -1 -9l-52 -133q-4 -10 -13 -19.5t-27 -9.5h-89z" />
    <glyph glyph-name="uni0237" unicode="&#x237;" horiz-adv-x="442" 
d="M46 -190q-11 0 -18.5 7.5t-7.5 18.5v129q0 11 7.5 19t18.5 8h83q20 0 31 7.5t15.5 21.5t4.5 32v307h-130q-11 0 -18.5 8t-7.5 19v107q0 11 7.5 18.5t18.5 7.5h314q11 0 18.5 -7.5t7.5 -18.5v-441q0 -76 -29.5 -130t-82.5 -83.5t-123 -29.5h-109z" />
    <glyph glyph-name="uni02BC" unicode="&#x2bc;" horiz-adv-x="203" 
d="M21 603q-9 0 -15 6t-5 15l20 134q2 14 11.5 25.5t27.5 11.5h123q8 0 14 -6t6 -15q0 -5 -1 -9l-52 -133q-4 -10 -13 -19.5t-27 -9.5h-89z" />
    <glyph glyph-name="circumflex" unicode="&#x2c6;" horiz-adv-x="506" 
d="M69 595q-15 0 -15 15q0 8 6 14l107 115q11 11 18.5 15t17.5 4h100q10 0 18 -4t18 -15l107 -115q7 -6 7 -14q0 -15 -16 -15h-57q-9 0 -18 1t-19 6l-90 45l-90 -45q-8 -5 -18 -6t-19 -1h-57z" />
    <glyph glyph-name="caron" unicode="&#x2c7;" horiz-adv-x="506" 
d="M203 595q-10 0 -17.5 4t-18.5 14l-107 115q-6 6 -6 14q0 16 15 16h57q9 0 19 -1.5t18 -5.5l90 -46l90 46q10 4 19 5.5t18 1.5h57q16 0 16 -16q0 -8 -7 -14l-107 -115q-10 -10 -18 -14t-18 -4h-100z" />
    <glyph glyph-name="breve" unicode="&#x2d8;" horiz-adv-x="431" 
d="M215 590q-53 0 -88.5 20t-53.5 53.5t-18 75.5q0 8 5 13.5t14 5.5h79q9 0 14 -5.5t5 -13.5q0 -23 9.5 -40.5t33.5 -17.5q25 0 34 17.5t9 40.5q0 8 5 13.5t14 5.5h79q9 0 14 -5.5t5 -13.5q0 -42 -17.5 -75.5t-53.5 -53.5t-89 -20z" />
    <glyph glyph-name="dotaccent" unicode="&#x2d9;" horiz-adv-x="269" 
d="M77 599q-11 0 -17 6.5t-6 16.5v115q0 10 6 16.5t17 6.5h115q10 0 16.5 -6.5t6.5 -16.5v-115q0 -10 -6.5 -16.5t-16.5 -6.5h-115z" />
    <glyph glyph-name="ring" unicode="&#x2da;" horiz-adv-x="300" 
d="M150 590q-39 0 -67.5 26t-28.5 65q0 40 28 66t68 26t68 -26t28 -66q0 -39 -28 -65t-68 -26zM150 651q13 0 21.5 8.5t8.5 21.5t-8.5 21.5t-21.5 8.5t-21.5 -8.5t-8.5 -21.5t8.5 -21.5t21.5 -8.5z" />
    <glyph glyph-name="ogonek" unicode="&#x2db;" horiz-adv-x="305" 
d="M210 -220q-56 0 -92.5 22t-54 59.5t-17.5 83.5q0 47 17.5 84t54 59t92.5 22h15q11 0 18.5 -7.5t7.5 -18.5v-58q0 -11 -7.5 -18.5t-18.5 -7.5h-11q-30 0 -42.5 -17.5t-12.5 -37.5t12.5 -37.5t42.5 -17.5h11q11 0 18.5 -7.5t7.5 -18.5v-58q0 -11 -7.5 -18.5t-18.5 -7.5h-15
z" />
    <glyph glyph-name="tilde" unicode="&#x2dc;" horiz-adv-x="483" 
d="M305 590q-28 0 -46.5 9t-33 18t-32.5 9q-15 0 -21.5 -7.5t-11.5 -15.5t-16 -8h-72q-7 0 -12.5 5.5t-5.5 12.5q0 16 6 40t20 47t37.5 38.5t60.5 15.5q28 0 46.5 -9t33 -18t33.5 -9q14 0 20 8t11.5 15.5t16.5 7.5h72q9 0 13.5 -5.5t4.5 -12.5q0 -17 -6 -40.5t-20 -46.5
t-38 -38.5t-60 -15.5z" />
    <glyph glyph-name="hungarumlaut" unicode="&#x2dd;" horiz-adv-x="583" 
d="M306 595q-16 0 -16 16q0 4 2 8t3 7l51 113q9 19 37 19h126q20 0 20 -19q0 -7 -6 -13l-106 -117q-12 -14 -33 -14h-78zM71 595q-16 0 -16 16q0 4 2 8t3 7l51 113q9 19 37 19h126q20 0 20 -19q0 -7 -6 -13l-106 -117q-12 -14 -33 -14h-78z" />
    <glyph glyph-name="gravecomb" unicode="&#x300;" 
d="M239 595q-15 0 -23.5 4.5t-16.5 11.5l-140 115q-5 5 -5 12q0 20 19 20h159q12 0 19.5 -3.5t17.5 -15.5l94 -115q5 -5 5 -13q0 -16 -16 -16h-113z" />
    <glyph glyph-name="acutecomb" unicode="&#x301;" 
d="M70 595q-16 0 -16 16q0 8 5 13l94 115q10 12 17.5 15.5t19.5 3.5h159q19 0 19 -20q0 -7 -5 -12l-140 -115q-8 -7 -16.5 -11.5t-23.5 -4.5h-113z" />
    <glyph glyph-name="uni0302" unicode="&#x302;" 
d="M69 595q-15 0 -15 15q0 8 6 14l107 115q11 11 18.5 15t17.5 4h100q10 0 18 -4t18 -15l107 -115q7 -6 7 -14q0 -15 -16 -15h-57q-9 0 -18 1t-19 6l-90 45l-90 -45q-8 -5 -18 -6t-19 -1h-57z" />
    <glyph glyph-name="tildecomb" unicode="&#x303;" 
d="M305 590q-28 0 -46.5 9t-33 18t-32.5 9q-15 0 -21.5 -7.5t-11.5 -15.5t-16 -8h-72q-7 0 -12.5 5.5t-5.5 12.5q0 16 6 40t20 47t37.5 38.5t60.5 15.5q28 0 46.5 -9t33 -18t33.5 -9q14 0 20 8t11.5 15.5t16.5 7.5h72q9 0 13.5 -5.5t4.5 -12.5q0 -17 -6 -40.5t-20 -46.5
t-38 -38.5t-60 -15.5z" />
    <glyph glyph-name="uni0304" unicode="&#x304;" 
d="M77 600q-11 0 -17 6.5t-6 16.5v87q0 10 6 16.5t17 6.5h303q10 0 16 -6.5t6 -16.5v-87q0 -10 -6 -16.5t-16 -6.5h-303z" />
    <glyph glyph-name="uni0306" unicode="&#x306;" 
d="M215 590q-53 0 -88.5 20t-53.5 53.5t-18 75.5q0 8 5 13.5t14 5.5h79q9 0 14 -5.5t5 -13.5q0 -23 9.5 -40.5t33.5 -17.5q25 0 34 17.5t9 40.5q0 8 5 13.5t14 5.5h79q9 0 14 -5.5t5 -13.5q0 -42 -17.5 -75.5t-53.5 -53.5t-89 -20z" />
    <glyph glyph-name="uni0307" unicode="&#x307;" 
d="M77 599q-11 0 -17 6.5t-6 16.5v115q0 10 6 16.5t17 6.5h115q10 0 16.5 -6.5t6.5 -16.5v-115q0 -10 -6.5 -16.5t-16.5 -6.5h-115z" />
    <glyph glyph-name="uni0308" unicode="&#x308;" 
d="M299 601q-10 0 -16 6t-6 17v108q0 10 6 16.5t16 6.5h108q10 0 16.5 -6.5t6.5 -16.5v-108q0 -11 -6.5 -17t-16.5 -6h-108zM77 601q-11 0 -17 6t-6 17v108q0 10 6 16.5t17 6.5h107q10 0 16.5 -6.5t6.5 -16.5v-108q0 -11 -6.5 -17t-16.5 -6h-107z" />
    <glyph glyph-name="uni030A" unicode="&#x30a;" 
d="M150 590q-39 0 -67.5 26t-28.5 65q0 40 28 66t68 26t68 -26t28 -66q0 -39 -28 -65t-68 -26zM150 651q13 0 21.5 8.5t8.5 21.5t-8.5 21.5t-21.5 8.5t-21.5 -8.5t-8.5 -21.5t8.5 -21.5t21.5 -8.5z" />
    <glyph glyph-name="uni030B" unicode="&#x30b;" 
d="M306 595q-16 0 -16 16q0 4 2 8t3 7l51 113q9 19 37 19h126q20 0 20 -19q0 -7 -6 -13l-106 -117q-12 -14 -33 -14h-78zM71 595q-16 0 -16 16q0 4 2 8t3 7l51 113q9 19 37 19h126q20 0 20 -19q0 -7 -6 -13l-106 -117q-12 -14 -33 -14h-78z" />
    <glyph glyph-name="uni030C" unicode="&#x30c;" 
d="M203 595q-10 0 -17.5 4t-18.5 14l-107 115q-6 6 -6 14q0 16 15 16h57q9 0 19 -1.5t18 -5.5l90 -46l90 46q10 4 19 5.5t18 1.5h57q16 0 16 -16q0 -8 -7 -14l-107 -115q-10 -10 -18 -14t-18 -4h-100z" />
    <glyph glyph-name="uni0312" unicode="&#x312;" 
d="M264 595q-8 0 -14 6t-6 15q0 5 1 9l52 133q4 10 13.5 20t26.5 10h89q9 0 15 -6.5t5 -15.5l-20 -134q-2 -13 -11.5 -25t-28.5 -12h-122z" />
    <glyph glyph-name="uni0326" unicode="&#x326;" 
d="M75 -242q-9 0 -15 6t-5 15l20 134q2 14 11.5 25.5t27.5 11.5h123q8 0 14 -6t6 -15q0 -5 -1 -9l-52 -133q-4 -10 -13 -19.5t-27 -9.5h-89z" />
    <glyph glyph-name="uni0327" unicode="&#x327;" 
d="M137 -220q-26 0 -48 9t-31 21t1 21l20 17q9 8 15 6t15.5 -7t27.5 -5q15 0 23 8t8 19t-7.5 19t-23.5 8q-10 0 -20 -3t-19 -3.5t-16 5.5l-20 20q-6 7 -6.5 13.5t5.5 19.5l35 79h66l-38 -74q6 2 16.5 3.5t14.5 1.5q37 0 58.5 -24.5t21.5 -63.5q0 -40 -26 -65t-72 -25z" />
    <glyph glyph-name="uni0328" unicode="&#x328;" 
d="M210 -220q-56 0 -92.5 22t-54 59.5t-17.5 83.5q0 47 17.5 84t54 59t92.5 22h15q11 0 18.5 -7.5t7.5 -18.5v-58q0 -11 -7.5 -18.5t-18.5 -7.5h-11q-30 0 -42.5 -17.5t-12.5 -37.5t12.5 -37.5t42.5 -17.5h11q11 0 18.5 -7.5t7.5 -18.5v-58q0 -11 -7.5 -18.5t-18.5 -7.5h-15
z" />
    <glyph glyph-name="uni0335" unicode="&#x335;" 
d="M76 239q-11 0 -18.5 7.5t-7.5 18.5v57q0 11 7.5 19t18.5 8h318q11 0 18.5 -8t7.5 -19v-57q0 -11 -7.5 -18.5t-18.5 -7.5h-318z" />
    <glyph glyph-name="uni0337" unicode="&#x337;" 
d="M54 -31q-8 0 -14 6t-6 14q0 3 1 6.5t5 8.5l457 525q3 4 9 9.5t16 5.5h34q8 0 14 -6t6 -14q0 -1 -0.5 -5.5t-4.5 -9.5l-457 -525q-3 -4 -9 -9.5t-16 -5.5h-35z" />
    <glyph glyph-name="uni0338" unicode="&#x338;" 
d="M-8 -64q-12 0 -17.5 11.5t4.5 26.5l517 778q2 3 7.5 8.5t15.5 5.5h40q13 0 17.5 -12t-3.5 -24l-519 -779q-2 -3 -7.5 -9t-16.5 -6h-38z" />
    <glyph glyph-name="uni0400" unicode="&#x400;" horiz-adv-x="653" 
d="M88 0q-10 0 -18 7.5t-8 18.5v648q0 11 8 18.5t18 7.5h490q11 0 19 -7.5t8 -18.5v-118q0 -10 -8 -18t-19 -8h-309v-99h287q11 0 19 -7.5t8 -18.5v-108q0 -11 -8 -18.5t-19 -7.5h-287v-101h317q11 0 19 -8t8 -19v-117q0 -11 -8 -18.5t-19 -7.5h-498zM304 750
q-15 0 -23.5 4.5t-16.5 11.5l-140 115q-5 5 -5 12q0 20 19 20h168q12 0 19 -3.5t18 -15.5l94 -115q5 -5 5 -13q0 -16 -16 -16h-122z" />
    <glyph glyph-name="uni0401" unicode="&#x401;" horiz-adv-x="653" 
d="M88 0q-10 0 -18 7.5t-8 18.5v648q0 11 8 18.5t18 7.5h490q11 0 19 -7.5t8 -18.5v-118q0 -10 -8 -18t-19 -8h-309v-99h287q11 0 19 -7.5t8 -18.5v-108q0 -11 -8 -18.5t-19 -7.5h-287v-101h317q11 0 19 -8t8 -19v-117q0 -11 -8 -18.5t-19 -7.5h-498zM403 781q-10 0 -16 6
t-6 17v108q0 10 6 16.5t16 6.5h108q10 0 16.5 -6.5t6.5 -16.5v-108q0 -11 -6.5 -17t-16.5 -6h-108zM181 781q-11 0 -17 6t-6 17v108q0 10 6 16.5t17 6.5h107q10 0 16.5 -6.5t6.5 -16.5v-108q0 -11 -6.5 -17t-16.5 -6h-107z" />
    <glyph glyph-name="uni0402" unicode="&#x402;" horiz-adv-x="797" 
d="M189 0q-11 0 -18.5 7.5t-7.5 18.5v519h-121q-10 0 -16.5 6.5t-6.5 16.5v109q0 10 6.5 16.5t16.5 6.5h546q11 0 17 -6.5t6 -16.5v-109q0 -10 -6 -16.5t-17 -6.5h-210v-100q15 11 38 19t50.5 13t53.5 5q126 0 185.5 -59t59.5 -178v-27q0 -74 -35 -122.5t-100.5 -72
t-158.5 -23.5h-17q-11 0 -18.5 7.5t-7.5 18.5v105q0 11 7.5 19t18.5 8h17q31 0 48 8t24 21.5t7 31.5v8q0 31 -20 44.5t-63 13.5q-21 0 -37.5 -3t-28 -9t-17.5 -15t-6 -21v-211q0 -11 -8 -18.5t-18 -7.5h-163z" />
    <glyph glyph-name="uni0403" unicode="&#x403;" horiz-adv-x="581" 
d="M88 0q-10 0 -18 7.5t-8 18.5v648q0 11 8 18.5t18 7.5h451q11 0 18.5 -7.5t7.5 -18.5v-126q0 -11 -7.5 -18.5t-18.5 -7.5h-262v-496q0 -11 -7.5 -18.5t-18.5 -7.5h-163zM266 750q-16 0 -16 16q0 8 5 13l94 115q10 12 17.5 15.5t19.5 3.5h168q19 0 19 -20q0 -7 -5 -12
l-140 -115q-8 -7 -16.5 -11.5t-23.5 -4.5h-122z" />
    <glyph glyph-name="uni0404" unicode="&#x404;" horiz-adv-x="708" 
d="M358 -10q-95 0 -166 29.5t-111 91t-44 157.5q0 8 -0.5 31t-0.5 50.5t0.5 51t0.5 31.5q4 95 45 156t112 91.5t164 30.5q83 0 149.5 -22.5t107.5 -67t49 -112.5q1 -9 -6 -15t-16 -6h-165q-12 0 -18 3.5t-12 13.5q-6 14 -27 25t-57 11q-49 0 -76 -23.5t-27 -76.5v-13h174
q11 0 18.5 -8.5t7.5 -19.5v-100q0 -10 -7.5 -19t-18.5 -9h-174v-12q0 -50 27.5 -75.5t75.5 -25.5q36 0 57 10t31 27q8 9 14 13t18 4h163q9 0 16 -6.5t6 -15.5q-8 -68 -51.5 -112.5t-111 -66t-147.5 -21.5z" />
    <glyph glyph-name="uni0405" unicode="&#x405;" horiz-adv-x="680" 
d="M339 -10q-105 0 -174.5 29.5t-104 77t-36.5 100.5q0 9 6 15t15 6h159q14 0 22 -4.5t17 -12.5q9 -11 21 -20.5t31 -15t44 -5.5q46 0 71 12.5t25 34.5q0 17 -13.5 28t-45.5 20t-87 19q-77 13 -133 38.5t-85.5 69t-29.5 107.5q0 65 36.5 115t102 78t152.5 28q72 0 127.5 -19
t93.5 -49.5t58 -65.5t21 -67q0 -9 -6.5 -15.5t-14.5 -6.5h-167q-12 0 -20 4t-16 13q-5 14 -25 25t-51 11q-34 0 -52 -11.5t-18 -33.5q0 -15 11 -26t39 -19.5t78 -18.5q95 -14 153.5 -40t85.5 -68t27 -105q0 -71 -41 -122t-112.5 -78.5t-163.5 -27.5z" />
    <glyph glyph-name="uni0406" unicode="&#x406;" horiz-adv-x="346" 
d="M88 0q-10 0 -18 7.5t-8 18.5v648q0 11 8 18.5t18 7.5h170q11 0 18.5 -7.5t7.5 -18.5v-648q0 -11 -7.5 -18.5t-18.5 -7.5h-170z" />
    <glyph glyph-name="uni0407" unicode="&#x407;" horiz-adv-x="346" 
d="M88 0q-10 0 -18 7.5t-8 18.5v648q0 11 8 18.5t18 7.5h170q11 0 18.5 -7.5t7.5 -18.5v-648q0 -11 -7.5 -18.5t-18.5 -7.5h-170zM230 781q-10 0 -16 6t-6 17v108q0 10 6 16.5t16 6.5h108q10 0 16.5 -6.5t6.5 -16.5v-108q0 -11 -6.5 -17t-16.5 -6h-108zM8 781q-11 0 -17 6
t-6 17v108q0 10 6 16.5t17 6.5h107q10 0 16.5 -6.5t6.5 -16.5v-108q0 -11 -6.5 -17t-16.5 -6h-107z" />
    <glyph glyph-name="uni0408" unicode="&#x408;" horiz-adv-x="686" 
d="M320 -10q-60 0 -114 15.5t-96.5 45.5t-67 74t-25.5 102q0 9 6 15.5t15 6.5h170q16 0 23.5 -7t13.5 -23q7 -20 17.5 -33.5t26.5 -19.5t37 -6q39 0 60.5 25t21.5 79v260h-311q-11 0 -18.5 7.5t-7.5 18.5v124q0 11 7.5 18.5t18.5 7.5h507q11 0 18.5 -7.5t7.5 -18.5v-417
q0 -89 -40.5 -148.5t-111 -89t-158.5 -29.5z" />
    <glyph glyph-name="uni0409" unicode="&#x409;" horiz-adv-x="1119" 
d="M59 0q-11 0 -19 8t-8 18v132q0 22 26 26q27 5 44 29.5t26.5 63.5t13 90.5t3.5 109.5v197q0 11 7.5 18.5t18.5 7.5h523q11 0 18.5 -7.5t7.5 -18.5v-203h80q137 0 212.5 -57t75.5 -175q0 -74 -34 -128t-98.5 -82.5t-155.5 -28.5h-269q-11 0 -18.5 7.5t-7.5 18.5v484h-153
v-61q0 -121 -11 -206t-41.5 -138.5t-88.5 -78.5t-152 -26zM720 162h78q33 0 50 22t17 54q0 36 -18.5 53.5t-48.5 17.5h-78v-147z" />
    <glyph glyph-name="uni040A" unicode="&#x40a;" horiz-adv-x="1091" 
d="M88 0q-10 0 -18 7t-8 19v648q0 11 8 18.5t18 7.5h163q11 0 18.5 -7.5t7.5 -18.5v-226h201v226q0 11 7.5 18.5t18.5 7.5h162q11 0 18.5 -7.5t7.5 -18.5v-203h80q137 0 212.5 -57t75.5 -175q0 -74 -33.5 -128t-98 -82.5t-156.5 -28.5h-268q-11 0 -18.5 7.5t-7.5 18.5v232
h-201v-232q0 -11 -7.5 -18.5t-18.5 -7.5h-163zM692 162h78q34 0 50.5 22t16.5 54q0 36 -18.5 53.5t-48.5 17.5h-78v-147z" />
    <glyph glyph-name="uni040B" unicode="&#x40b;" horiz-adv-x="807" 
d="M189 0q-11 0 -18.5 7.5t-7.5 18.5v519h-121q-10 0 -16.5 6.5t-6.5 16.5v109q0 10 6.5 16.5t16.5 6.5h546q11 0 17 -6.5t6 -16.5v-109q0 -10 -6 -16.5t-17 -6.5h-210v-116q15 11 38.5 19.5t51 12.5t52.5 4q125 0 185 -58.5t60 -177.5v-203q0 -11 -7.5 -18.5t-18.5 -7.5
h-163q-10 0 -18 7.5t-8 18.5v185q0 30 -20 44t-63 14q-15 0 -30.5 -1.5t-29 -7t-21.5 -15t-8 -24.5v-195q0 -11 -8 -18.5t-18 -7.5h-163z" />
    <glyph glyph-name="uni040C" unicode="&#x40c;" horiz-adv-x="727" 
d="M88 0q-10 0 -18 7t-8 19v648q0 11 8 18.5t18 7.5h163q11 0 18.5 -7.5t7.5 -18.5v-226h39l135 231q5 8 14 14.5t24 6.5h183q9 0 15 -6.5t6 -15.5q0 -5 -3 -11l-183 -303l201 -331q2 -3 2 -11q0 -9 -6.5 -15.5t-15.5 -6.5h-188q-18 0 -26.5 8.5t-11.5 12.5l-139 237h-46
v-232q0 -11 -7.5 -18.5t-18.5 -7.5h-163zM275 750q-16 0 -16 16q0 8 5 13l94 115q10 12 17.5 15.5t19.5 3.5h168q19 0 19 -20q0 -7 -5 -12l-140 -115q-8 -7 -16.5 -11.5t-23.5 -4.5h-122z" />
    <glyph glyph-name="uni040D" unicode="&#x40d;" horiz-adv-x="794" 
d="M88 0q-10 0 -18 7.5t-8 18.5v648q0 11 8 18.5t19 7.5h162q11 0 18.5 -7.5t7.5 -18.5v-353l247 358q6 9 15 15t22 6h145q11 0 18.5 -7.5t7.5 -18.5v-648q0 -11 -7.5 -18.5t-18.5 -7.5h-163q-11 0 -18.5 7.5t-7.5 18.5v335l-247 -340q-5 -8 -13 -14.5t-24 -6.5h-145z
M361 750q-15 0 -23.5 4.5t-16.5 11.5l-140 115q-5 5 -5 12q0 20 19 20h168q12 0 19 -3.5t18 -15.5l94 -115q5 -5 5 -13q0 -16 -16 -16h-122z" />
    <glyph glyph-name="uni040E" unicode="&#x40e;" horiz-adv-x="675" 
d="M139 0q-11 0 -18.5 7.5t-7.5 18.5v133q0 11 7.5 18.5t18.5 7.5h40q24 0 41 8t30.5 24.5t25.5 42.5l182 418q5 11 13 16.5t19 5.5h164q10 0 16.5 -6.5t6.5 -14.5q0 -5 -2 -10.5t-4 -10.5l-196 -454q-25 -58 -49.5 -97.5t-54.5 -63t-71.5 -33.5t-101.5 -10h-59zM267 184
l-258 485q-2 4 -2 8q0 9 7.5 16t17.5 7h174q11 0 18 -6t12 -16l140 -286zM354 741q-65 0 -106.5 20t-61 54.5t-19.5 77.5q0 8 4.5 13.5t14.5 5.5h99q9 0 14 -5.5t5 -13.5q0 -13 4.5 -24.5t15 -18t30.5 -6.5t30.5 6.5t15 18t4.5 24.5q0 8 5 13.5t14 5.5h99q9 0 14 -5.5
t5 -13.5q0 -43 -19.5 -77.5t-60.5 -54.5t-107 -20z" />
    <glyph glyph-name="uni040F" unicode="&#x40f;" horiz-adv-x="759" 
d="M298 -140q-11 0 -18.5 7.5t-7.5 18.5v114h-184q-10 0 -18 7.5t-8 18.5v648q0 12 8 19t18 7h163q11 0 18.5 -7.5t7.5 -18.5v-484h204v484q0 11 8 18.5t18 7.5h163q11 0 18.5 -7.5t7.5 -18.5v-648q0 -11 -7.5 -18.5t-18.5 -7.5h-183v-114q0 -11 -8 -18.5t-19 -7.5h-162z
" />
    <glyph glyph-name="uni0410" unicode="&#x410;" horiz-adv-x="735" 
d="M26 0q-9 0 -15 6.5t-6 15.5q0 4 1 7l228 640q4 11 14 21t28 10h183q19 0 29 -10t13 -21l229 -640q1 -3 1 -7q0 -9 -6.5 -15.5t-15.5 -6.5h-154q-17 0 -25 8t-11 15l-31 84h-241l-31 -84q-3 -7 -10.5 -15t-25.5 -8h-154zM293 276h149l-75 225z" />
    <glyph glyph-name="uni0411" unicode="&#x411;" horiz-adv-x="665" 
d="M88 0q-10 0 -18 7.5t-8 18.5v648q0 11 8 18.5t18 7.5h499q11 0 19 -7.5t8 -18.5v-126q0 -11 -8 -18.5t-19 -7.5h-310v-83h115q126 0 199 -58t73 -159q0 -49 -18 -90t-52.5 -70.5t-85 -45.5t-116.5 -16h-304zM277 151h97q22 0 37 10.5t22.5 26.5t7.5 34q0 28 -17.5 49
t-49.5 21h-97v-141z" />
    <glyph glyph-name="uni0412" unicode="&#x412;" horiz-adv-x="719" 
d="M88 0q-10 0 -18 7.5t-8 18.5v648q0 11 8 18.5t18 7.5h319q91 0 149 -24t86 -69t28 -111q0 -34 -13.5 -60.5t-32.5 -44t-36 -25.5q39 -17 68 -57.5t29 -92.5q0 -70 -31.5 -118t-91 -73t-145.5 -25h-329zM277 151h117q34 0 50 20.5t16 45.5q0 26 -17 45.5t-49 19.5h-117
v-131zM277 429h107q32 0 47 18t15 42t-15 42t-47 18h-107v-120z" />
    <glyph glyph-name="uni0413" unicode="&#x413;" horiz-adv-x="581" 
d="M88 0q-10 0 -18 7.5t-8 18.5v648q0 11 8 18.5t18 7.5h451q11 0 18.5 -7.5t7.5 -18.5v-126q0 -11 -7.5 -18.5t-18.5 -7.5h-262v-496q0 -11 -7.5 -18.5t-18.5 -7.5h-163z" />
    <glyph glyph-name="uni0414" unicode="&#x414;" horiz-adv-x="813" 
d="M58 -140q-11 0 -18.5 7.5t-7.5 18.5v278q0 11 7.5 18.5t18.5 7.5h17q24 0 39.5 23.5t24 63.5t12 92t3.5 108v197q0 11 7.5 18.5t18.5 7.5h504q11 0 18.5 -7.5t7.5 -18.5v-484h46q11 0 18.5 -7.5t7.5 -18.5v-278q0 -11 -7.5 -18.5t-18.5 -7.5h-162q-11 0 -19 7.5t-8 18.5
v114h-320v-114q0 -11 -7.5 -18.5t-18.5 -7.5h-163zM324 190h171v320h-134v-61q0 -90 -9.5 -153.5t-27.5 -105.5z" />
    <glyph glyph-name="uni0415" unicode="&#x415;" horiz-adv-x="653" 
d="M88 0q-10 0 -18 7.5t-8 18.5v648q0 11 8 18.5t18 7.5h490q11 0 19 -7.5t8 -18.5v-118q0 -10 -8 -18t-19 -8h-309v-99h287q11 0 19 -7.5t8 -18.5v-108q0 -11 -8 -18.5t-19 -7.5h-287v-101h317q11 0 19 -8t8 -19v-117q0 -11 -8 -18.5t-19 -7.5h-498z" />
    <glyph glyph-name="uni0416" unicode="&#x416;" horiz-adv-x="1102" 
d="M39 0q-9 0 -15.5 6.5t-6.5 15.5q0 8 2 11l201 331l-183 303q-3 6 -3 11q0 9 6 15.5t15 6.5h182q16 0 25.5 -6.5t13.5 -14.5l135 -231h37v226q0 11 7.5 18.5t18.5 7.5h155q10 0 18 -7.5t8 -18.5v-226h36l135 231q5 8 14 14.5t25 6.5h182q10 0 16 -6.5t6 -15.5q0 -5 -3 -11
l-183 -303l200 -331q3 -3 3 -11q0 -9 -6.5 -15.5t-15.5 -6.5h-189q-18 0 -26 8.5t-11 12.5l-140 237h-43v-232q0 -12 -8 -19t-18 -7h-155q-11 0 -18.5 7t-7.5 19v232h-44l-139 -237q-3 -4 -11.5 -12.5t-26.5 -8.5h-188z" />
    <glyph glyph-name="uni0417" unicode="&#x417;" horiz-adv-x="693" 
d="M346 -10q-83 0 -141 18t-94 47.5t-53.5 65.5t-21.5 69q-1 9 6 15.5t16 6.5h162q13 0 19.5 -4.5t13.5 -13.5q10 -17 31 -26.5t57 -9.5q31 0 52.5 7t32 20t10.5 31q0 30 -23.5 44t-66.5 14h-74q-11 0 -19 8.5t-8 19.5v100q0 11 8 19.5t19 8.5h73q33 0 53.5 13t20.5 41
q0 16 -8 29t-25 20t-44 7q-37 0 -57.5 -10.5t-26.5 -25.5q-5 -9 -11 -13t-19 -4h-164q-9 0 -16 6t-6 15q4 35 20.5 70.5t51.5 65t92 48t141 18.5q88 0 153.5 -28t102 -74t36.5 -102q0 -22 -6.5 -47.5t-23 -49t-48.5 -41.5q38 -19 59.5 -46t30 -57.5t8.5 -58.5
q0 -65 -38 -113.5t-108.5 -75.5t-166.5 -27z" />
    <glyph glyph-name="uni0418" unicode="&#x418;" horiz-adv-x="794" 
d="M88 0q-10 0 -18 7.5t-8 18.5v648q0 11 8 18.5t19 7.5h162q11 0 18.5 -7.5t7.5 -18.5v-353l247 358q6 9 15 15t22 6h145q11 0 18.5 -7.5t7.5 -18.5v-648q0 -11 -7.5 -18.5t-18.5 -7.5h-163q-11 0 -18.5 7.5t-7.5 18.5v335l-247 -340q-5 -8 -13 -14.5t-24 -6.5h-145z" />
    <glyph glyph-name="uni0419" unicode="&#x419;" horiz-adv-x="794" 
d="M88 0q-10 0 -18 7.5t-8 18.5v648q0 11 8 18.5t19 7.5h162q11 0 18.5 -7.5t7.5 -18.5v-353l247 358q6 9 15 15t22 6h145q11 0 18.5 -7.5t7.5 -18.5v-648q0 -11 -7.5 -18.5t-18.5 -7.5h-163q-11 0 -18.5 7.5t-7.5 18.5v335l-247 -340q-5 -8 -13 -14.5t-24 -6.5h-145z
M404 741q-65 0 -106.5 20t-61 54.5t-19.5 77.5q0 8 4.5 13.5t14.5 5.5h99q9 0 14 -5.5t5 -13.5q0 -13 4.5 -24.5t15 -18t30.5 -6.5t30.5 6.5t15 18t4.5 24.5q0 8 5 13.5t14 5.5h99q9 0 14 -5.5t5 -13.5q0 -43 -19.5 -77.5t-60.5 -54.5t-107 -20z" />
    <glyph glyph-name="uni041A" unicode="&#x41a;" horiz-adv-x="727" 
d="M88 0q-10 0 -18 7t-8 19v648q0 11 8 18.5t18 7.5h163q11 0 18.5 -7.5t7.5 -18.5v-226h39l135 231q5 8 14 14.5t24 6.5h183q9 0 15 -6.5t6 -15.5q0 -5 -3 -11l-183 -303l201 -331q2 -3 2 -11q0 -9 -6.5 -15.5t-15.5 -6.5h-188q-18 0 -26.5 8.5t-11.5 12.5l-139 237h-46
v-232q0 -11 -7.5 -18.5t-18.5 -7.5h-163z" />
    <glyph glyph-name="uni041B" unicode="&#x41b;" horiz-adv-x="788" 
d="M537 0q-11 0 -18.5 7.5t-7.5 18.5v484h-159v-61q0 -121 -11 -206t-41.5 -138.5t-88.5 -78.5t-152 -26q-11 0 -19 8t-8 18v132q0 22 26 26q27 5 44 29.5t26.5 63.5t13 90.5t3.5 109.5v197q0 11 7.5 18.5t18.5 7.5h529q11 0 18.5 -7.5t7.5 -18.5v-648q0 -11 -7.5 -18.5
t-18.5 -7.5h-163z" />
    <glyph glyph-name="uni041C" unicode="&#x41c;" horiz-adv-x="842" 
d="M89 0q-11 0 -19 7.5t-8 18.5v648q0 11 8 18.5t19 7.5h133q18 0 27 -10t12 -14l160 -278l160 278q3 4 12 14t27 10h133q11 0 18.5 -7.5t7.5 -18.5v-648q0 -11 -7.5 -18.5t-18.5 -7.5h-150q-11 0 -18.5 7.5t-7.5 18.5v324l-90 -158q-5 -8 -13 -16t-23 -8h-61q-14 0 -22 8
t-13 16l-90 158v-324q0 -11 -7.5 -18.5t-18.5 -7.5h-150z" />
    <glyph glyph-name="uni041D" unicode="&#x41d;" horiz-adv-x="759" 
d="M88 0q-10 0 -18 7t-8 19v648q0 11 8 18.5t18 7.5h163q11 0 18.5 -7.5t7.5 -18.5v-226h204v226q0 11 8 18.5t18 7.5h163q11 0 18.5 -7.5t7.5 -18.5v-648q0 -11 -7.5 -18.5t-18.5 -7.5h-163q-10 0 -18 7.5t-8 18.5v232h-204v-232q0 -11 -7.5 -18.5t-18.5 -7.5h-163z" />
    <glyph glyph-name="uni041E" unicode="&#x41e;" horiz-adv-x="727" 
d="M364 -10q-96 0 -166.5 30t-111 90.5t-43.5 150.5q-1 42 -1 86.5t1 88.5q3 89 43.5 150t111.5 92.5t166 31.5q94 0 165 -31.5t112 -92.5t43 -150q2 -44 2 -88.5t-2 -86.5q-3 -90 -43.5 -150.5t-111 -90.5t-165.5 -30zM364 160q42 0 69 25.5t28 81.5q2 43 2 83.5t-2 82.5
q-1 37 -13.5 61t-34 35t-49.5 11t-50 -11t-34.5 -35t-13.5 -61q-1 -42 -1 -82.5t1 -83.5q2 -56 28.5 -81.5t69.5 -25.5z" />
    <glyph glyph-name="uni041F" unicode="&#x41f;" horiz-adv-x="759" 
d="M88 0q-10 0 -18 7t-8 19v648q0 11 8 18.5t18 7.5h582q11 0 18.5 -7.5t7.5 -18.5v-648q0 -11 -7.5 -18.5t-18.5 -7.5h-163q-10 0 -18 7.5t-8 18.5v484h-204v-484q0 -11 -7.5 -18.5t-18.5 -7.5h-163z" />
    <glyph glyph-name="uni0420" unicode="&#x420;" horiz-adv-x="691" 
d="M88 0q-10 0 -18 7.5t-8 18.5v648q0 11 8 18.5t18 7.5h292q87 0 151.5 -26t100.5 -79t36 -133t-36 -131.5t-100.5 -75.5t-151.5 -24h-95v-205q0 -11 -7.5 -18.5t-18.5 -7.5h-171zM281 392h94q29 0 49.5 17.5t20.5 54.5q0 29 -16 51.5t-54 22.5h-94v-146z" />
    <glyph glyph-name="uni0421" unicode="&#x421;" horiz-adv-x="718" 
d="M364 -10q-95 0 -166 29.5t-111.5 89.5t-44.5 152q-1 41 -1 88t1 90q4 90 45.5 150.5t113 90.5t163.5 30q66 0 123.5 -15.5t102.5 -47t71 -77.5t27 -108q0 -9 -6.5 -15.5t-15.5 -6.5h-169q-15 0 -22 6t-12 21q-13 43 -38 58t-61 15q-44 0 -70 -23.5t-28 -82.5
q-3 -82 0 -168q2 -59 28 -82.5t70 -23.5q36 0 61.5 16t37.5 57q4 16 11.5 21.5t22.5 5.5h169q9 0 15.5 -6t6.5 -15q-1 -62 -27 -108.5t-71 -78t-102.5 -47t-123.5 -15.5z" />
    <glyph glyph-name="uni0422" unicode="&#x422;" horiz-adv-x="652" 
d="M243 0q-11 0 -18.5 7.5t-7.5 18.5v488h-172q-11 0 -18.5 7.5t-7.5 18.5v134q0 11 7.5 18.5t18.5 7.5h562q11 0 18.5 -7.5t7.5 -18.5v-134q0 -11 -7.5 -18.5t-18.5 -7.5h-172v-488q0 -11 -7.5 -18.5t-18.5 -7.5h-166z" />
    <glyph glyph-name="uni0423" unicode="&#x423;" horiz-adv-x="675" 
d="M139 0q-11 0 -18.5 7.5t-7.5 18.5v133q0 11 7.5 18.5t18.5 7.5h40q24 0 41 8t30.5 24.5t25.5 42.5l182 418q5 11 13 16.5t19 5.5h164q10 0 16.5 -6.5t6.5 -14.5q0 -5 -2 -10.5t-4 -10.5l-196 -454q-25 -58 -49.5 -97.5t-54.5 -63t-71.5 -33.5t-101.5 -10h-59zM267 184
l-258 485q-2 4 -2 8q0 9 7.5 16t17.5 7h174q11 0 18 -6t12 -16l140 -286z" />
    <glyph glyph-name="uni0424" unicode="&#x424;" horiz-adv-x="959" 
d="M398 -32q-11 0 -18.5 7.5t-7.5 18.5v65q-150 0 -235 67.5t-94 199.5q-1 6 -1 22t0.5 32.5t0.5 21.5q5 87 46 147t113.5 92t169.5 32v52q0 11 7.5 18.5t18.5 7.5h163q11 0 18.5 -7.5t7.5 -18.5v-52q98 0 170 -32t113.5 -92t45.5 -147q2 -24 2 -38t-2 -38
q-8 -132 -93.5 -199.5t-235.5 -67.5v-65q0 -11 -7.5 -18.5t-18.5 -7.5h-163zM374 228v275q-51 0 -78.5 -25t-30.5 -78v-34v-34q3 -53 30 -78.5t79 -25.5zM585 228q52 0 79.5 25.5t29.5 78.5q1 6 1 20v28t-1 20q-3 53 -30.5 78t-78.5 25v-275z" />
    <glyph glyph-name="uni0425" unicode="&#x425;" horiz-adv-x="715" 
d="M27 0q-9 0 -15 6.5t-6 15.5q0 2 0.5 4.5t2.5 6.5l214 325l-195 309q-4 6 -4 11q0 9 6.5 15.5t15.5 6.5h181q17 0 26 -9t12 -14l95 -152l99 152q3 5 12 14t26 9h172q9 0 15.5 -6.5t6.5 -15.5q0 -6 -3 -11l-199 -307l217 -327q2 -4 2.5 -6.5t0.5 -4.5q0 -9 -6.5 -15.5
t-14.5 -6.5h-188q-16 0 -25.5 8.5t-11.5 13.5l-110 163l-107 -163q-2 -5 -11 -13.5t-26 -8.5h-182z" />
    <glyph glyph-name="uni0426" unicode="&#x426;" horiz-adv-x="799" 
d="M580 -140q-11 0 -19 7.5t-8 18.5v114h-465q-10 0 -18 7.5t-8 18.5v648q0 12 8 19t18 7h163q11 0 18.5 -7.5t7.5 -18.5v-484h204v484q0 11 8 18.5t18 7.5h163q11 0 18.5 -7.5t7.5 -18.5v-484h46q11 0 18.5 -7.5t7.5 -18.5v-278q0 -11 -7.5 -18.5t-18.5 -7.5h-162z" />
    <glyph glyph-name="uni0427" unicode="&#x427;" horiz-adv-x="718" 
d="M459 0q-10 0 -18 7.5t-8 18.5v197q-15 -12 -36.5 -19.5t-46.5 -11.5t-51 -4q-129 0 -193 66t-64 204v216q0 11 7.5 18.5t18.5 7.5h163q11 0 18.5 -7.5t7.5 -18.5v-207q0 -43 20.5 -62.5t66.5 -19.5q14 0 29.5 2.5t29 7.5t22 13.5t8.5 20.5v245q0 11 8 18.5t18 7.5h163
q11 0 18.5 -7.5t7.5 -18.5v-648q0 -11 -7.5 -18.5t-18.5 -7.5h-163z" />
    <glyph glyph-name="uni0428" unicode="&#x428;" horiz-adv-x="1000" 
d="M88 0q-10 0 -18 7.5t-8 18.5v648q0 12 8 19t18 7h163q11 0 18.5 -7.5t7.5 -18.5v-484h116v484q0 11 7.5 18.5t18.5 7.5h163q11 0 18.5 -7.5t7.5 -18.5v-484h115v484q0 11 7.5 18.5t18.5 7.5h163q11 0 18.5 -7.5t7.5 -18.5v-648q0 -11 -7.5 -18.5t-18.5 -7.5h-824z" />
    <glyph glyph-name="uni0429" unicode="&#x429;" horiz-adv-x="1041" 
d="M821 -140q-11 0 -18.5 7.5t-7.5 18.5v114h-707q-10 0 -18 7.5t-8 18.5v648q0 12 8 19t18 7h163q11 0 18.5 -7.5t7.5 -18.5v-484h116v484q0 11 7.5 18.5t18.5 7.5h163q11 0 18.5 -7.5t7.5 -18.5v-484h115v484q0 11 7.5 18.5t18.5 7.5h163q11 0 18.5 -7.5t7.5 -18.5v-484
h46q11 0 18.5 -7.5t7.5 -18.5v-278q0 -11 -7.5 -18.5t-18.5 -7.5h-163z" />
    <glyph glyph-name="uni042A" unicode="&#x42a;" horiz-adv-x="786" 
d="M194 0q-10 0 -18 7.5t-8 18.5v504h-123q-11 0 -18.5 8t-7.5 18v118q0 11 7.5 18.5t18.5 7.5h312q11 0 18.5 -7.5t7.5 -18.5v-203h84q136 0 212 -57t76 -175q0 -74 -34 -128t-98.5 -82.5t-155.5 -28.5h-273zM383 162h82q33 0 50 22t17 54q0 36 -19 53.5t-48 17.5h-82v-147
z" />
    <glyph glyph-name="uni042B" unicode="&#x42b;" horiz-adv-x="996" 
d="M88 0q-10 0 -18 7.5t-8 18.5v648q0 11 8 18.5t18 7.5h163q11 0 18.5 -7.5t7.5 -18.5v-203h80q137 0 212.5 -57t75.5 -175q0 -74 -34 -128t-98 -82.5t-156 -28.5h-269zM277 162h78q33 0 50 22t17 54q0 36 -18.5 53.5t-48.5 17.5h-78v-147zM738 0q-10 0 -18 7.5t-8 18.5
v648q0 11 8 18.5t18 7.5h170q11 0 18.5 -7.5t7.5 -18.5v-648q0 -11 -7.5 -18.5t-18.5 -7.5h-170z" />
    <glyph glyph-name="uni042C" unicode="&#x42c;" horiz-adv-x="682" 
d="M88 0q-10 0 -18 7.5t-8 18.5v648q0 11 8 18.5t18 7.5h163q11 0 18.5 -7.5t7.5 -18.5v-203h86q136 0 212 -57t76 -175q0 -74 -34 -128t-98.5 -82.5t-155.5 -28.5h-275zM277 162h84q33 0 49.5 22t16.5 54q0 36 -18.5 53.5t-47.5 17.5h-84v-147z" />
    <glyph glyph-name="uni042D" unicode="&#x42d;" horiz-adv-x="712" 
d="M348 -10q-81 0 -148.5 23t-110.5 67t-51 110q-1 9 6 15.5t16 6.5h163q12 0 18.5 -4t13.5 -13q10 -17 31 -27t58 -10q48 0 75 25.5t27 75.5v12h-174q-11 0 -18.5 9t-7.5 19v100q0 11 7.5 19.5t18.5 8.5h174v13q0 52 -27 76t-75 24q-37 0 -58 -11t-27 -25q-6 -10 -12 -13.5
t-18 -3.5h-165q-9 0 -16 6t-6 15q9 70 51.5 114.5t109 66t145.5 21.5q94 0 164.5 -30.5t111.5 -91.5t45 -156q1 -33 1.5 -57.5t0 -48.5t-1.5 -58q-4 -96 -44 -157.5t-110.5 -91t-166.5 -29.5z" />
    <glyph glyph-name="uni042E" unicode="&#x42e;" horiz-adv-x="1073" 
d="M710 -10q-71 0 -128 16.5t-97.5 49t-64 79.5t-29.5 108q-1 5 -1.5 8.5t-0.5 6.5h-112v-232q0 -11 -7.5 -18.5t-18.5 -7.5h-163q-10 0 -18 7t-8 19v648q0 11 8 18.5t18 7.5h163q11 0 18.5 -7.5t7.5 -18.5v-226h113q0 4 0.5 8.5t0.5 7.5q7 57 31.5 102.5t65.5 77.5t96.5 49
t125.5 17q74 0 132 -19t99.5 -54.5t64 -86.5t25.5 -114q2 -44 2 -88.5t-2 -86.5q-3 -65 -26 -115.5t-64 -85t-99 -52.5t-132 -18zM710 160q28 0 50 11t34 34.5t14 60.5q2 43 2 84.5t-2 83.5q-2 37 -14.5 60.5t-34 34.5t-49.5 11t-49.5 -11t-34.5 -34.5t-14 -60.5
q-1 -42 -1 -83.5t1 -84.5q1 -37 14 -60.5t34 -34.5t50 -11z" />
    <glyph glyph-name="uni042F" unicode="&#x42f;" horiz-adv-x="719" 
d="M468 0q-11 0 -18.5 7.5t-7.5 18.5v203h-121q-74 0 -133 29t-92.5 81.5t-33.5 122.5q0 72 34 125.5t98.5 83t155.5 29.5h281q11 0 18.5 -7.5t7.5 -18.5v-648q0 -11 -7.5 -18.5t-18.5 -7.5h-163zM67 0q-9 0 -15.5 6.5t-6.5 15.5q0 5 3 11l142 250l198 -36l-110 -220
q-5 -10 -14.5 -18.5t-27.5 -8.5h-169zM352 395h90v143h-90q-32 0 -49.5 -21.5t-17.5 -52.5q0 -32 17 -50.5t50 -18.5z" />
    <glyph glyph-name="uni0430" unicode="&#x430;" horiz-adv-x="606" 
d="M213 -10q-55 0 -98.5 21t-68 56.5t-24.5 79.5q0 72 58.5 113.5t156.5 57.5l116 18v7q0 31 -10 46.5t-40 15.5q-21 0 -34 -8t-24 -23q-10 -11 -26 -11h-141q-10 0 -16.5 6t-5.5 16q1 18 15 42.5t43.5 48t76.5 39t113 15.5q67 0 115 -15t79 -42t46 -65.5t15 -85.5v-296
q0 -11 -7.5 -18.5t-18.5 -7.5h-145q-11 0 -19 7.5t-8 18.5v32q-13 -20 -34.5 -35t-50 -24t-63.5 -9zM271 121q25 0 44 10.5t29.5 32.5t10.5 55v7l-72 -14q-37 -7 -52 -20t-15 -30q0 -12 7 -21t19.5 -14.5t28.5 -5.5z" />
    <glyph glyph-name="uni0431" unicode="&#x431;" horiz-adv-x="628" 
d="M315 -10q-96 0 -155.5 29t-88 91t-34.5 162v61v60q4 81 20.5 137.5t49 95t84.5 64.5t125.5 46t172.5 41q10 2 19.5 -3.5t10.5 -17.5l21 -113q2 -13 -3.5 -21.5t-15.5 -10.5q-78 -13 -130.5 -25t-85.5 -27t-49 -39t-22 -61.5t-5 -93.5l-25 36q9 21 31 38t52.5 27t64.5 10
q76 0 128 -23.5t80 -69t32 -111.5q3 -39 0 -78q-4 -64 -36 -110t-92.5 -70t-148.5 -24zM315 116q37 0 51 21t16 62q1 13 1 34t-1 35q-2 40 -15.5 60.5t-46.5 20.5q-38 0 -54 -20.5t-18 -60.5q-1 -14 -1 -35t1 -34q2 -41 16.5 -62t50.5 -21z" />
    <glyph glyph-name="uni0432" unicode="&#x432;" horiz-adv-x="625" 
d="M78 0q-11 0 -18.5 7.5t-7.5 18.5v468q0 11 7.5 18.5t18.5 7.5h246q129 0 186.5 -41t57.5 -111q0 -35 -14 -59t-37 -41q31 -16 50 -44t19 -68q0 -71 -58 -113.5t-187 -42.5h-263zM245 122h86q24 0 38.5 8.5t14.5 28.5q0 21 -13.5 29t-39.5 8h-86v-74zM245 324h85
q25 0 38.5 9t13.5 29q0 21 -14 28.5t-38 7.5h-85v-74z" />
    <glyph glyph-name="uni0433" unicode="&#x433;" horiz-adv-x="472" 
d="M78 0q-11 0 -18.5 7.5t-7.5 18.5v468q0 11 7.5 18.5t18.5 7.5h349q11 0 19 -7.5t8 -18.5v-101q0 -11 -8 -18.5t-19 -7.5h-174v-341q0 -11 -8 -18.5t-19 -7.5h-148z" />
    <glyph glyph-name="uni0434" unicode="&#x434;" horiz-adv-x="680" 
d="M50 -110q-11 0 -18.5 7.5t-7.5 18.5v211q0 11 7.5 18.5t18.5 7.5h12q25 0 37.5 24t16.5 67.5t4 102.5v147q0 11 7.5 18.5t18.5 7.5h425q11 0 18.5 -7.5t7.5 -18.5v-341h41q10 0 18 -7.5t8 -18.5v-211q0 -11 -8 -18.5t-18 -7.5h-149q-11 0 -18.5 7.5t-7.5 18.5v84h-238
v-84q0 -11 -7.5 -18.5t-18.5 -7.5h-149zM283 153h113v214h-86v-41q0 -61 -6.5 -104t-20.5 -69z" />
    <glyph glyph-name="uni0435" unicode="&#x435;" horiz-adv-x="609" 
d="M307 -10q-125 0 -198.5 64.5t-75.5 197.5v10.5v9.5q3 83 36.5 140.5t94 87.5t142.5 30q92 0 152.5 -36.5t90.5 -97t30 -135.5v-28q0 -10 -8 -18t-19 -8h-308v-2v-4q0 -24 6.5 -42.5t20.5 -29t34 -10.5q13 0 22 4t16 10.5t12 12.5q9 9 14.5 11.5t17.5 2.5h157q9 0 15.5 -6
t5.5 -15q-1 -18 -17 -43.5t-47.5 -49.5t-80.5 -40t-113 -16zM244 319h124v2q0 27 -7 46t-21 28.5t-34 9.5t-34 -9.5t-21 -28.5t-7 -46v-2z" />
    <glyph glyph-name="uni0436" unicode="&#x436;" horiz-adv-x="964" 
d="M40 0q-10 0 -16.5 6.5t-6.5 15.5q0 7 4 13l156 232l-132 216q-1 3 -3 7t-2 8q0 9 6.5 15.5t16.5 6.5h160q13 0 19.5 -6t8.5 -11l98 -163h34v154q0 11 7.5 18.5t18.5 7.5h146q10 0 18 -7.5t8 -18.5v-154h33l98 163q3 5 9.5 11t19.5 6h159q10 0 17 -6.5t7 -15.5
q0 -4 -1.5 -8t-3.5 -7l-133 -216l156 -232q5 -6 5 -13q0 -9 -7 -15.5t-16 -6.5h-176q-14 0 -20.5 7t-9.5 9l-107 171h-30v-161q0 -11 -8 -18.5t-18 -7.5h-146q-11 0 -18.5 7.5t-7.5 18.5v161h-30l-107 -171q-2 -2 -9.5 -9t-21.5 -7h-175z" />
    <glyph glyph-name="uni0437" unicode="&#x437;" horiz-adv-x="578" 
d="M286 -10q-74 0 -122 15.5t-75.5 40t-40 51.5t-15.5 49q-2 7 4 12t13 5h145q13 0 18 -4t10 -9q7 -13 21.5 -19.5t41.5 -6.5q19 0 32 5t19.5 14t6.5 23q0 18 -11 28.5t-43 10.5h-56q-9 0 -15 7t-6 15v70q0 9 6 15.5t15 6.5h55q27 0 37.5 9t10.5 27q0 11 -5.5 20t-16.5 14
t-31 5q-28 0 -40.5 -7t-21.5 -21q-4 -5 -9.5 -9t-17.5 -4h-140q-8 0 -13 5t-4 12q3 24 16 52t40.5 52.5t74 40t117.5 15.5q89 0 142.5 -19.5t77.5 -53t24 -76.5q0 -32 -15 -61t-51 -46q46 -17 62.5 -53t16.5 -73q0 -46 -30 -82t-88 -56t-139 -20z" />
    <glyph glyph-name="uni0438" unicode="&#x438;" horiz-adv-x="650" 
d="M77 0q-10 0 -17.5 7.5t-7.5 18.5v468q0 11 7.5 18.5t18.5 7.5h148q11 0 19 -7.5t8 -18.5v-340l-53 20l223 329q5 8 12 12.5t17 4.5h132q11 0 18.5 -7.5t7.5 -17.5v-469q0 -11 -7.5 -18.5t-18.5 -7.5h-149q-10 0 -18 7.5t-8 18.5v335l54 -14l-224 -330q-5 -8 -12.5 -12.5
t-16.5 -4.5h-133z" />
    <glyph glyph-name="uni0439" unicode="&#x439;" horiz-adv-x="650" 
d="M77 0q-10 0 -17.5 7.5t-7.5 18.5v468q0 11 7.5 18.5t18.5 7.5h148q11 0 19 -7.5t8 -18.5v-340l-53 20l223 329q5 8 12 12.5t17 4.5h132q11 0 18.5 -7.5t7.5 -17.5v-469q0 -11 -7.5 -18.5t-18.5 -7.5h-149q-10 0 -18 7.5t-8 18.5v335l54 -14l-224 -330q-5 -8 -12.5 -12.5
t-16.5 -4.5h-133zM342 587q-65 0 -106 20t-61 54.5t-20 77.5q0 8 5 13.5t14 5.5h100q9 0 14 -5.5t5 -13.5q0 -20 10 -34.5t39 -14.5t39 14.5t10 34.5q0 8 5 13.5t14 5.5h99q9 0 14 -5.5t5 -13.5q0 -43 -19.5 -77.5t-60.5 -54.5t-106 -20z" />
    <glyph glyph-name="uni043A" unicode="&#x43a;" horiz-adv-x="636" 
d="M78 0q-11 0 -18.5 7.5t-7.5 18.5v468q0 11 7.5 18.5t18.5 7.5h145q11 0 18.5 -7.5t7.5 -18.5v-154h38l98 163q2 5 9 11t19 6h160q10 0 16.5 -6.5t6.5 -15.5q0 -4 -1.5 -8t-3.5 -7l-132 -216l156 -232q4 -6 4 -13q0 -9 -6.5 -15.5t-16.5 -6.5h-175q-12 0 -18.5 4.5
t-11.5 11.5l-107 170h-35v-160q0 -11 -7.5 -18.5t-18.5 -7.5h-145z" />
    <glyph glyph-name="uni043B" unicode="&#x43b;" horiz-adv-x="645" 
d="M51 0q-11 0 -18.5 7.5t-7.5 18.5v110q0 22 26 26q28 4 40.5 25.5t16 62t3.5 97.5v147q0 11 7.5 18.5t18.5 7.5h424q11 0 18.5 -7.5t7.5 -18.5v-468q0 -11 -7.5 -18.5t-18.5 -7.5h-148q-11 0 -18.5 7.5t-7.5 18.5v341h-86v-41q0 -95 -10 -158.5t-37.5 -100t-76.5 -52
t-126 -15.5z" />
    <glyph glyph-name="uni043C" unicode="&#x43c;" horiz-adv-x="742" 
d="M72 0q-8 0 -14 6t-6 14v480q0 8 6 14t14 6h143q19 0 30 -19l123 -210l122 210q11 19 31 19h143q9 0 15 -6t6 -14v-480q0 -8 -6 -14t-16 -6h-156q-9 0 -14.5 6t-5.5 14v296l54 -14l-122 -206q-5 -9 -11 -15t-17 -6h-46q-10 0 -17 5.5t-12 15.5l-120 203l52 13v-292
q0 -8 -6 -14t-14 -6h-156z" />
    <glyph glyph-name="uni043D" unicode="&#x43d;" horiz-adv-x="650" 
d="M78 0q-11 0 -18.5 7.5t-7.5 18.5v468q0 11 7.5 18.5t18.5 7.5h148q11 0 19 -7.5t8 -18.5v-154h139v154q0 11 8 18.5t18 7.5h149q11 0 18.5 -7.5t7.5 -18.5v-468q0 -11 -7.5 -18.5t-18.5 -7.5h-149q-10 0 -18 7.5t-8 18.5v161h-139v-161q0 -11 -8 -18.5t-19 -7.5h-148z
" />
    <glyph glyph-name="uni043E" unicode="&#x43e;" horiz-adv-x="626" 
d="M313 -10q-88 0 -148.5 26t-92.5 76.5t-36 121.5q-1 21 -1 46t1 46q4 72 38 122t94.5 76t144.5 26t144.5 -26t94.5 -76t38 -122q2 -21 2 -46t-2 -46q-4 -71 -36 -121.5t-92.5 -76.5t-148.5 -26zM313 131q37 0 51 22t16 66q1 15 1 41t-1 41q-2 43 -16 65.5t-51 22.5
q-36 0 -50 -22.5t-17 -65.5q-1 -15 -1 -41t1 -41q3 -44 17 -66t50 -22z" />
    <glyph glyph-name="uni043F" unicode="&#x43f;" horiz-adv-x="647" 
d="M78 0q-11 0 -18.5 7.5t-7.5 18.5v468q0 11 7.5 18.5t18.5 7.5h485q11 0 18.5 -7.5t7.5 -18.5v-468q0 -11 -7.5 -18.5t-18.5 -7.5h-148q-11 0 -18.5 7.5t-7.5 18.5v341h-136v-341q0 -11 -8 -18.5t-19 -7.5h-148z" />
    <glyph glyph-name="uni0440" unicode="&#x440;" horiz-adv-x="646" 
d="M78 -190q-11 0 -18.5 7.5t-7.5 18.5v658q0 11 7.5 18.5t18.5 7.5h141q11 0 18.5 -7.5t7.5 -18.5v-33q24 30 61 49.5t91 19.5q47 0 84.5 -14t65.5 -42.5t44 -72.5t19 -103q1 -21 1 -38t-1 -39q-2 -56 -18 -99t-44 -72.5t-66 -44.5t-85 -15q-46 0 -81 15.5t-58 48.5v-218
q0 -11 -8 -18.5t-18 -7.5h-154zM329 146q26 0 40.5 10.5t21 29t8.5 42.5q3 32 0 64q-2 24 -8.5 42.5t-21 29t-40.5 10.5t-41.5 -11t-22 -29t-7.5 -40q-1 -21 -1 -37.5t1 -37.5t8.5 -37t22.5 -26t40 -10z" />
    <glyph glyph-name="uni0441" unicode="&#x441;" horiz-adv-x="606" 
d="M304 -10q-75 0 -134.5 26.5t-95 78t-39.5 124.5q-1 16 -1 40t1 41q4 74 39 125.5t95 78t135 26.5q74 0 126.5 -21t85 -52t48.5 -62t17 -52q1 -11 -7.5 -18.5t-18.5 -7.5h-161q-11 0 -17 5t-11 15q-10 22 -23 32.5t-35 10.5q-31 0 -46 -21.5t-16 -63.5q-2 -41 0 -71
q2 -43 16.5 -63.5t45.5 -20.5q25 0 37 10.5t21 32.5q4 10 10.5 15.5t17.5 5.5h161q10 0 18.5 -8t7.5 -19q-1 -14 -10.5 -37.5t-29 -49t-51.5 -48.5t-78 -37.5t-108 -14.5z" />
    <glyph glyph-name="uni0442" unicode="&#x442;" horiz-adv-x="564" 
d="M209 0q-11 0 -18.5 7.5t-7.5 18.5v341h-142q-11 0 -18.5 7.5t-7.5 18.5v101q0 11 7.5 18.5t18.5 7.5h482q11 0 18.5 -7.5t7.5 -18.5v-101q0 -11 -7.5 -18.5t-18.5 -7.5h-142v-341q0 -11 -8 -18.5t-18 -7.5h-146z" />
    <glyph glyph-name="uni0443" unicode="&#x443;" horiz-adv-x="612" 
d="M113 -191q-10 0 -18 7.5t-8 18.5v101q0 11 8 18.5t18 7.5h39q16 0 27 5.5t20 19t18 36.5l192 475q4 8 11 15t21 7h135q8 0 15 -6.5t7 -14.5v-5t-2 -7l-190 -461q-22 -55 -45 -95.5t-50 -67.5t-62 -40.5t-81 -13.5h-55zM222 9l-205 478q-2 6 -2 10q1 9 7.5 16t16.5 7h141
q14 0 20.5 -7.5t9.5 -14.5l134 -354z" />
    <glyph glyph-name="uni0444" unicode="&#x444;" horiz-adv-x="845" 
d="M348 -190q-11 0 -18.5 7.5t-7.5 18.5v164q-92 0 -154 25t-94.5 73.5t-37.5 117.5q-3 44 0 88q5 69 39.5 117.5t97 73.5t149.5 25v164q0 11 7.5 18.5t18.5 7.5h149q11 0 18.5 -7.5t7.5 -18.5v-164q88 0 150 -25t96.5 -73.5t39.5 -117.5q3 -44 0 -88q-5 -69 -37.5 -117.5
t-94.5 -73.5t-154 -25v-164q0 -11 -7.5 -18.5t-18.5 -7.5h-149zM324 141v238q-48 0 -67 -21.5t-22 -66.5q-1 -13 -1 -31.5t1 -30.5q4 -48 23.5 -68t65.5 -20zM521 141q48 0 67 20.5t22 67.5q1 12 1 30.5t-1 31.5q-2 47 -22.5 67.5t-66.5 20.5v-238z" />
    <glyph glyph-name="uni0445" unicode="&#x445;" horiz-adv-x="609" 
d="M33 0q-10 0 -16.5 7t-6.5 16q0 3 1 7t4 8l164 230l-148 214q-2 3 -3.5 7t-1.5 8q0 9 7 16t16 7h153q14 0 21 -6.5t10 -11.5l75 -109l75 109q4 5 10.5 11.5t20.5 6.5h146q9 0 16 -7t7 -15q0 -5 -1 -9t-4 -7l-151 -214l167 -230q3 -4 4 -8t1 -7q0 -9 -7 -16t-16 -7h-160
q-13 0 -19 6t-10 11l-83 116l-86 -116q-3 -5 -9.5 -11t-19.5 -6h-156z" />
    <glyph glyph-name="uni0446" unicode="&#x446;" horiz-adv-x="673" 
d="M482 -114q-11 0 -19 8t-8 18v88h-377q-11 0 -18.5 7.5t-7.5 18.5v468q0 11 7.5 18.5t18.5 7.5h148q11 0 19 -7.5t8 -18.5v-341h136v341q0 11 7.5 18.5t18.5 7.5h148q11 0 18.5 -7.5t7.5 -18.5v-341h41q11 0 18.5 -7.5t7.5 -18.5v-215q0 -10 -7.5 -18t-18.5 -8h-148z" />
    <glyph glyph-name="uni0447" unicode="&#x447;" horiz-adv-x="629" 
d="M383 0q-10 0 -18 7.5t-8 18.5v137q-21 -16 -54 -24.5t-75 -8.5q-96 0 -147.5 51.5t-51.5 166.5v146q0 11 7.5 18.5t18.5 7.5h154q11 0 18.5 -7.5t7.5 -18.5v-137q0 -31 13 -42.5t46 -11.5q27 0 45 9.5t18 27.5v154q0 11 8 18.5t18 7.5h162q11 0 18.5 -7.5t7.5 -18.5v-468
q0 -11 -7.5 -18.5t-18.5 -7.5h-162z" />
    <glyph glyph-name="uni0448" unicode="&#x448;" horiz-adv-x="849" 
d="M78 0q-11 0 -18.5 7.5t-7.5 18.5v468q0 11 7.5 18.5t18.5 7.5h140q11 0 18.5 -7.5t7.5 -18.5v-341h87v341q0 11 8 18.5t18 7.5h129q10 0 18 -7.5t8 -18.5v-341h87v341q0 11 7.5 18.5t18.5 7.5h140q11 0 18.5 -7.5t7.5 -18.5v-468q0 -11 -7.5 -18.5t-18.5 -7.5h-687z" />
    <glyph glyph-name="uni0449" unicode="&#x449;" horiz-adv-x="874" 
d="M684 -114q-11 0 -18.5 8t-7.5 18v88h-580q-11 0 -18.5 7.5t-7.5 18.5v468q0 11 7.5 18.5t18.5 7.5h140q11 0 18.5 -7.5t7.5 -18.5v-341h87v341q0 11 8 18.5t18 7.5h129q10 0 18 -7.5t8 -18.5v-341h87v341q0 11 7.5 18.5t18.5 7.5h140q11 0 18.5 -7.5t7.5 -18.5v-341h40
q11 0 19 -7.5t8 -18.5v-215q0 -10 -8 -18t-19 -8h-147z" />
    <glyph glyph-name="uni044A" unicode="&#x44a;" horiz-adv-x="682" 
d="M180 0q-10 0 -18 7.5t-8 18.5v341h-113q-11 0 -18.5 7.5t-7.5 18.5v101q0 11 7.5 18.5t18.5 7.5h289q11 0 18.5 -7.5t7.5 -18.5v-129h84q100 0 158.5 -49t58.5 -135q0 -87 -59.5 -134t-160.5 -47h-257zM352 132h70q30 0 44 12t14 37t-14 38.5t-44 13.5h-70v-101z" />
    <glyph glyph-name="uni044B" unicode="&#x44b;" horiz-adv-x="872" 
d="M78 0q-11 0 -18.5 7.5t-7.5 18.5v468q0 11 7.5 18.5t18.5 7.5h149q11 0 18.5 -7.5t7.5 -18.5v-129h86q100 0 158.5 -49t58.5 -135q0 -87 -59.5 -134t-160.5 -47h-258zM249 132h73q29 0 43 12t14 37t-14 38.5t-43 13.5h-73v-101zM640 0q-11 0 -18.5 7.5t-7.5 18.5v468
q0 11 7.5 18.5t18.5 7.5h148q11 0 18.5 -7.5t7.5 -18.5v-468q0 -11 -7.5 -18.5t-18.5 -7.5h-148z" />
    <glyph glyph-name="uni044C" unicode="&#x44c;" horiz-adv-x="583" 
d="M78 0q-11 0 -18.5 7.5t-7.5 18.5v468q0 11 7.5 18.5t18.5 7.5h149q11 0 18.5 -7.5t7.5 -18.5v-129h88q100 0 158.5 -49t58.5 -135q0 -87 -59.5 -134t-160.5 -47h-260zM249 132h74q30 0 44 12t14 37t-14 38.5t-44 13.5h-74v-101z" />
    <glyph glyph-name="uni044D" unicode="&#x44d;" horiz-adv-x="614" 
d="M295 -10q-74 0 -122 15.5t-76 40.5t-40.5 52.5t-16.5 50.5q-1 8 5 13t13 5h144q13 0 18 -4t10 -10q8 -14 23.5 -21.5t41.5 -7.5q33 0 49 18t16 56v5h-124q-9 0 -15 7t-6 15v70q0 9 6 15.5t15 6.5h124v6q0 32 -16 51.5t-49 19.5q-26 0 -41.5 -6.5t-25.5 -23.5
q-5 -5 -10 -9t-17 -4h-140q-8 0 -13 5t-4 13q3 23 16 51t41 53t75 41t119 16q125 0 197.5 -57.5t79.5 -166.5q1 -21 1 -45.5t-1 -46.5q-7 -109 -76 -166.5t-201 -57.5z" />
    <glyph glyph-name="uni044E" unicode="&#x44e;" horiz-adv-x="904" 
d="M431 187h-178v-161q0 -11 -8 -18.5t-19 -7.5h-148q-11 0 -18.5 7.5t-7.5 18.5v468q0 11 7.5 18.5t18.5 7.5h148q11 0 19 -7.5t8 -18.5v-154h178v-153zM591 -10q-88 0 -148 26t-92.5 76.5t-36.5 121.5q-1 21 -1 46t1 46q4 72 38.5 122t95 76t143.5 26q84 0 144.5 -26
t94.5 -76t39 -122q1 -21 1 -46t-1 -46q-5 -71 -37 -121.5t-92 -76.5t-149 -26zM591 131q37 0 51 22t16 66q1 15 1 41t-1 41q-2 43 -16 65.5t-51 22.5q-36 0 -50 -22.5t-16 -65.5q-1 -15 -1 -41t1 -41q2 -44 16 -66t50 -22z" />
    <glyph glyph-name="uni044F" unicode="&#x44f;" horiz-adv-x="630" 
d="M393 0q-11 0 -19 7.5t-8 18.5v133h-70v5q-112 0 -172.5 46.5t-60.5 130.5q0 86 59.5 132.5t159.5 46.5h264q11 0 18.5 -7.5t7.5 -18.5v-468q0 -11 -7.5 -18.5t-18.5 -7.5h-153zM66 0q-9 0 -15 6t-6 14q0 2 1 5.5t3 7.5l102 175l167 -33l-79 -160q-3 -7 -9 -11t-14 -4
h-150zM294 291h77v97h-75q-28 0 -41.5 -11.5t-13.5 -35.5q0 -23 13 -36.5t40 -13.5z" />
    </font>
</defs>
</svg>
