<?xml version="1.0" standalone="no"?>
<!DOCTYPE svg PUBLIC "-//W3C//DTD SVG 1.1//EN" "http://www.w3.org/Graphics/SVG/1.1/DTD/svg11.dtd" >
<svg xmlns="http://www.w3.org/2000/svg" xmlns:xlink="http://www.w3.org/1999/xlink" version="1.1">
<metadata>
Created by FontForge 20170731 at Tue May 24 20:52:59 2016
 By Aleksey,,,
Copyright (c) 2015, Cadson Demak (info@cadsondemak.com)
</metadata>
<defs>
<font id="Prompt-ExtraLight" horiz-adv-x="0" >
  <font-face 
    font-family="Prompt ExtraLight"
    font-weight="275"
    font-stretch="normal"
    units-per-em="1000"
    panose-1="0 0 3 0 0 0 0 0 0 0"
    ascent="750"
    descent="-250"
    x-height="480"
    cap-height="699"
    bbox="-573 -349 1229 1035"
    underline-thickness="50"
    underline-position="-150"
    unicode-range="U+000D-FB02"
  />
<missing-glyph horiz-adv-x="506" 
d="M55 714h396v-714h-396v714zM427 28v657h-348v-657h348z" />
    <glyph glyph-name="fi" unicode="fi" horiz-adv-x="550" 
d="M112 438h-77v42h77v117q0 73 43.5 110t110.5 37q35 0 65 -8v-45q-28 10 -54 10q-53 0 -83 -26.5t-30 -78.5v-116h290v-480h-52v438h-238v-438h-52v438zM401.5 604.5q-10.5 10.5 -10.5 26.5q0 15 10.5 26t26.5 11q15 0 26 -11t11 -26q0 -16 -11 -26.5t-26 -10.5
q-16 0 -26.5 10.5z" />
    <glyph glyph-name="fl" unicode="fl" horiz-adv-x="539" 
d="M112 438h-77v42h77v117q0 73 43.5 110t110.5 37q35 0 65 -8v-45q-28 10 -54 10q-53 0 -83 -26.5t-30 -78.5v-116h238v209h52v-689h-52v438h-238v-438h-52v438z" />
    <glyph glyph-name="ru_lakkhangyaothai" unicode="&#xe24;&#xe45;" horiz-adv-x="851" 
d="M494 347q0 82 -44 121t-132 39q-68 0 -116 -20.5t-90 -67.5l45 -70v-250q0 -30 13.5 -42.5t43.5 -12.5h55v-44h-75q-43 0 -66 24t-23 67v256l-50 77q48 62 111 94t152 32q80 0 134 -28q25 12 61.5 20t74.5 8q96 0 142 -52t46 -147v-547h-53v550q0 77 -32 115t-107 38
q-54 0 -93 -12q56 -51 56 -142v-549h-53v543z" />
    <glyph glyph-name="lu_lakkhangyaothai" unicode="&#xe26;&#xe45;" horiz-adv-x="879" 
d="M523 347q0 160 -176 160q-68 0 -116 -20t-89 -66l64 -71v-259q0 -43 -23 -67t-66 -24h-62v44h43q31 0 43.5 12t12.5 43v248l-70 77q48 62 111 94t152 32q80 0 134 -28q24 12 60.5 20t74.5 8q188 0 188 -199v-547h-52v550q0 77 -32.5 115t-107.5 38q-53 0 -92 -12
q56 -51 56 -142v-549h-53v543z" />
    <glyph glyph-name=".notdef" horiz-adv-x="506" 
d="M55 714h396v-714h-396v714zM427 28v657h-348v-657h348z" />
    <glyph glyph-name=".null" horiz-adv-x="500" 
 />
    <glyph glyph-name="nonmarkingreturn" unicode="&#xd;" horiz-adv-x="260" 
 />
    <glyph glyph-name="space" unicode=" " horiz-adv-x="390" 
 />
    <glyph glyph-name="exclam" unicode="!" horiz-adv-x="184" 
d="M66 699h52v-515h-52v515zM65.5 -4.5q-10.5 10.5 -10.5 26.5q0 15 10.5 26t26.5 11q15 0 26 -11t11 -26q0 -16 -11 -26.5t-26 -10.5q-16 0 -26.5 10.5z" />
    <glyph glyph-name="quotedbl" unicode="&#x22;" horiz-adv-x="316" 
d="M55 699h52v-175h-52v175zM209 699h52v-175h-52v175z" />
    <glyph glyph-name="numbersign" unicode="#" horiz-adv-x="748" 
d="M157 193h-102v45h115l61 216h-136v45h148l57 200h49l-57 -200h253l57 200h50l-57 -200h98v-45h-110l-61 -216h131v-45h-144l-54 -193h-50l54 193h-253l-54 -193h-49zM472 238l61 216h-253l-61 -216h253z" />
    <glyph glyph-name="dollar" unicode="$" horiz-adv-x="549" 
d="M259 -15h-6q-56 0 -110 9t-88 25v49q87 -37 196 -37h8v304l-8 3q-100 39 -144 84.5t-44 117.5q0 73 53.5 120t142.5 53v89h49v-89q82 -3 156 -33v-48q-77 32 -156 35v-301q66 -25 104.5 -48t60 -59t21.5 -93q0 -76 -47 -122t-139 -56v-91h-49v88zM259 665
q-70 -6 -107.5 -39.5t-37.5 -85.5q0 -53 32.5 -87.5t112.5 -67.5v280zM443 166q0 56 -30 87t-105 62v-281q135 19 135 132z" />
    <glyph glyph-name="percent" unicode="%" horiz-adv-x="873" 
d="M146 371.5q-42 24.5 -66.5 66.5t-24.5 92t24.5 92.5t66.5 67t92 24.5t92.5 -24.5t67 -67t24.5 -92.5t-24.5 -92t-67 -66.5t-92.5 -24.5t-92 24.5zM604 699h52l-387 -699h-52zM309.5 407.5q32.5 18.5 51 50.5t18.5 71t-18.5 71.5t-51 51t-71.5 18.5t-71.5 -18.5t-51 -51
t-18.5 -71.5t18.5 -71t51 -50.5t71.5 -18.5t71.5 18.5zM542 9.5q-42 24.5 -66.5 66.5t-24.5 92t24.5 92.5t66.5 67t92 24.5t92.5 -24.5t67 -67t24.5 -92.5t-24.5 -92t-67 -66.5t-92.5 -24.5t-92 24.5zM705.5 45.5q32.5 18.5 51 50.5t18.5 71t-18.5 71.5t-51 51t-71.5 18.5
t-71 -18.5t-50.5 -51t-18.5 -71.5t18.5 -71t50.5 -50.5t71 -18.5t71.5 18.5z" />
    <glyph glyph-name="ampersand" unicode="&#x26;" horiz-adv-x="751" 
d="M122.5 32.5q-67.5 47.5 -67.5 134.5q0 68 41.5 119t134.5 102q-58 51 -83.5 89.5t-25.5 83.5q0 69 46 111t118 42q46 0 83.5 -20t58.5 -55t21 -78q0 -54 -31 -92t-112 -89l235 -226q24 37 32.5 80.5t8.5 109.5h52q0 -74 -12.5 -126t-44.5 -99l124 -119h-64l-89 86
q-48 -54 -111.5 -77.5t-142.5 -23.5q-104 0 -171.5 47.5zM372 483q28 32 28 78q0 49 -31.5 78t-82.5 29q-52 0 -83 -29t-31 -78q0 -39 22 -68.5t79 -82.5q71 41 99 73zM421 51.5q54 21.5 92 67.5l-246 238q-87 -46 -123.5 -87.5t-36.5 -102.5q0 -68 53.5 -102.5t133.5 -34.5
q73 0 127 21.5z" />
    <glyph glyph-name="quotesingle" unicode="'" horiz-adv-x="162" 
d="M55 699h52v-175h-52v175z" />
    <glyph glyph-name="parenleft" unicode="(" horiz-adv-x="295" 
d="M93 26q-38 112 -38 244q0 131 38 243.5t110 200.5h56q-76 -97 -114 -206t-38 -238t38 -238t114 -206h-56q-72 88 -110 200z" />
    <glyph glyph-name="parenright" unicode=")" horiz-adv-x="295" 
d="M150 32q38 109 38 238t-38 238t-114 206h56q72 -88 110 -200.5t38 -243.5q0 -132 -38 -244t-110 -200h-56q76 97 114 206z" />
    <glyph glyph-name="asterisk" unicode="*" horiz-adv-x="426" 
d="M97 423l87 122l-129 46l14 34l124 -46v120h40v-120l124 46l14 -34l-129 -46l87 -121l-33 -20l-83 117l-83 -118z" />
    <glyph glyph-name="plus" unicode="+" horiz-adv-x="405" 
d="M180 272h-125v44h125v126h44v-126h126v-44h-126v-125h-44v125z" />
    <glyph glyph-name="comma" unicode="," horiz-adv-x="245" 
d="M134 47h56l-88 -193h-47z" />
    <glyph glyph-name="hyphen" unicode="-" horiz-adv-x="405" 
d="M55 316h295v-44h-295v44z" />
    <glyph glyph-name="period" unicode="." horiz-adv-x="180" 
d="M65 10q-10 10 -10 25q0 14 10 24.5t25 10.5q14 0 24.5 -10.5t10.5 -24.5q0 -15 -10.5 -25t-24.5 -10q-15 0 -25 10z" />
    <glyph glyph-name="slash" unicode="/" horiz-adv-x="449" 
d="M340 714h54l-285 -714h-54z" />
    <glyph glyph-name="zero" unicode="0" horiz-adv-x="652" 
d="M180 29.5q-61 44.5 -93 126.5t-32 193q0 170 70.5 267.5t200.5 97.5q86 0 147 -44.5t92.5 -126.5t31.5 -194q0 -111 -32 -193t-93 -126.5t-146 -44.5t-146 44.5zM443 69q50 39 77 111t27 169t-26.5 169t-76.5 111t-118 39q-69 0 -118.5 -39t-76 -111t-26.5 -169t27 -169
t77 -111t117 -39t117 39z" />
    <glyph glyph-name="one" unicode="1" horiz-adv-x="340" 
d="M212 639l-157 -114v56l161 118h49v-699h-53v639z" />
    <glyph glyph-name="two" unicode="2" horiz-adv-x="574" 
d="M55 38l177 181l35 35q60 60 94 99t55.5 82t21.5 89q0 68 -41.5 106t-124.5 38q-48 0 -92 -15t-89 -49v53q41 29 85.5 43t101.5 14q100 0 156 -51t56 -139q0 -50 -23 -97.5t-63 -95t-110 -119.5l-163 -167h388v-45h-464v38z" />
    <glyph glyph-name="three" unicode="3" horiz-adv-x="564" 
d="M148 -6.5q-53 8.5 -93 25.5v50q43 -20 95 -29.5t103 -9.5q204 0 204 155q0 148 -217 148h-72v45h71q86 0 140.5 39t54.5 109q0 69 -42 105.5t-125 36.5q-55 0 -98 -12.5t-93 -42.5v48q86 53 195 53q104 0 159.5 -50t55.5 -138q0 -63 -36 -106.5t-107 -62.5
q78 -10 122 -55t44 -117q0 -92 -61 -146t-192 -54q-55 0 -108 8.5z" />
    <glyph glyph-name="four" unicode="4" horiz-adv-x="585" 
d="M388 185h-353v39l345 475h61v-470h109v-44h-109v-185h-53v185zM391 229v407l-294 -407h294z" />
    <glyph glyph-name="five" unicode="5" horiz-adv-x="556" 
d="M137 -4q-47 11 -82 28v52q38 -22 86.5 -34t93.5 -12q103 0 158.5 49t55.5 139q0 81 -49.5 125t-147.5 44q-39 0 -79 -7t-71 -20l-30 18l25 321h352v-45h-305l-19 -239q67 19 139 19q112 0 174.5 -58.5t62.5 -157.5q0 -111 -66.5 -172t-199.5 -61q-51 0 -98 11z" />
    <glyph glyph-name="six" unicode="6" horiz-adv-x="590" 
d="M175.5 17q-55.5 32 -88 96t-32.5 157q0 444 315 444q46 0 78 -8v-47q-28 9 -74 9q-131 0 -193.5 -84.5t-72.5 -256.5q26 54 79.5 84t121.5 30q66 0 117.5 -28.5t80 -80t28.5 -118.5t-29 -119t-82.5 -81t-124.5 -29q-68 0 -123.5 32zM433.5 80q50.5 50 50.5 134
q0 83 -50.5 132t-134.5 49q-51 0 -93.5 -23t-67 -64.5t-24.5 -95.5q0 -48 23 -90t65.5 -67t96.5 -25q84 0 134.5 50z" />
    <glyph glyph-name="seven" unicode="7" horiz-adv-x="547" 
d="M449 654h-404v45h457v-46l-293 -653h-52z" />
    <glyph glyph-name="eight" unicode="8" horiz-adv-x="581" 
d="M117.5 37q-62.5 52 -62.5 148q0 73 40.5 120.5t106.5 61.5q-55 15 -88.5 59t-33.5 105q0 84 57.5 133.5t152.5 49.5t152.5 -49.5t57.5 -133.5q0 -61 -33 -105t-88 -59q66 -14 106.5 -61.5t40.5 -120.5q0 -96 -63 -148t-173 -52t-172.5 52zM406 424.5q44 38.5 44 102.5
q0 65 -43.5 104.5t-116.5 39.5t-116 -39.5t-43 -104.5q0 -64 43.5 -102.5t115.5 -38.5t116 38.5zM426.5 67.5q48.5 42.5 48.5 120.5q0 75 -51 117.5t-134 42.5t-134 -42.5t-51 -117.5q0 -78 48.5 -120.5t136.5 -42.5t136.5 42.5z" />
    <glyph glyph-name="nine" unicode="9" horiz-adv-x="590" 
d="M142 -8v47q33 -9 74 -9q131 0 194 85t72 256q-26 -54 -79.5 -83.5t-121.5 -29.5q-66 0 -117.5 28.5t-80 80t-28.5 118.5t29 119t82.5 81t124.5 29q70 0 125 -31.5t87 -95.5t32 -158q0 -444 -315 -444q-43 0 -78 7zM384.5 326q42.5 23 67 64.5t24.5 95.5q0 48 -23 90
t-65.5 67.5t-96.5 25.5q-83 0 -134 -50.5t-51 -133.5q0 -84 50.5 -133t134.5 -49q51 0 93.5 23z" />
    <glyph glyph-name="colon" unicode=":" horiz-adv-x="180" 
d="M65 410.5q-10 10.5 -10 24.5q0 15 10 25.5t25 10.5q14 0 24.5 -10.5t10.5 -25.5q0 -14 -10.5 -24.5t-24.5 -10.5q-15 0 -25 10.5zM65 37.5q-10 10.5 -10 24.5q0 15 10 25.5t25 10.5q14 0 24.5 -10.5t10.5 -25.5q0 -14 -10.5 -24.5t-24.5 -10.5q-15 0 -25 10.5z" />
    <glyph glyph-name="semicolon" unicode=";" horiz-adv-x="249" 
d="M133.5 410.5q-10.5 10.5 -10.5 24.5q0 15 10.5 25.5t24.5 10.5q15 0 25.5 -10.5t10.5 -25.5q0 -14 -10.5 -24.5t-25.5 -10.5q-14 0 -24.5 10.5zM134 47h56l-88 -193h-47z" />
    <glyph glyph-name="less" unicode="&#x3c;" horiz-adv-x="548" 
d="M55 303v39l438 215v-53l-373 -182l373 -181v-53z" />
    <glyph glyph-name="equal" unicode="=" horiz-adv-x="535" 
d="M60 475h436v-24h-436v24zM60 265h436v-24h-436v24z" />
    <glyph glyph-name="greater" unicode="&#x3e;" horiz-adv-x="548" 
d="M55 141l371 181l-371 182v53l438 -215v-39l-438 -215v53z" />
    <glyph glyph-name="question" unicode="?" horiz-adv-x="502" 
d="M176 197q0 69 26.5 113.5t89.5 87.5q44 30 64.5 49t29.5 42t9 60q0 57 -41 88t-120 31q-99 0 -179 -35v47q83 34 179 34q100 0 156.5 -45t56.5 -120q0 -55 -24.5 -94t-88.5 -81q-43 -28 -65 -50.5t-31.5 -51.5t-9.5 -75v-13h-52v13zM175.5 -4.5q-10.5 10.5 -10.5 26.5
q0 15 10.5 26t26.5 11q15 0 26 -11t11 -26q0 -16 -11 -26.5t-26 -10.5q-16 0 -26.5 10.5z" />
    <glyph glyph-name="at" unicode="@" horiz-adv-x="909" 
d="M242 -35.5q-89 40.5 -138 120.5t-49 195q0 128 51.5 226t148 153t227.5 55q176 0 274 -88t98 -251q0 -70 -18.5 -130t-55 -96.5t-89.5 -36.5q-38 0 -69 22.5t-40 61.5q-22 -41 -62 -62.5t-93 -21.5q-72 0 -115 45t-43 129q0 65 26 118t75 84t114 31q75 0 143 -26
l-14 -243q-3 -45 18 -69t59 -24q57 0 83.5 59t26.5 159q0 143 -80.5 218t-237.5 75q-115 0 -199 -48t-129 -135.5t-45 -204.5q0 -149 88 -230t253 -81q103 0 198 33v-44q-90 -34 -198 -34q-119 0 -208 40.5zM530.5 191q35.5 34 37.5 80l11 186q-39 16 -96 16
q-72 0 -115.5 -51t-43.5 -133q0 -67 27 -99.5t83 -32.5q61 0 96.5 34z" />
    <glyph glyph-name="A" unicode="A" horiz-adv-x="715" 
d="M334 699h47l279 -699h-54l-80 201h-337l-80 -201h-54zM510 246l-153 387l-152 -387h305z" />
    <glyph glyph-name="B" unicode="B" horiz-adv-x="633" 
d="M75 699h299q179 0 179 -183q0 -57 -27 -98t-70 -59q57 -13 89.5 -56t32.5 -114q0 -58 -24.5 -101t-67.5 -65.5t-95 -22.5h-316v699zM378 380q55 0 89 35.5t34 99.5q0 76 -33 107.5t-99 31.5h-241v-274h250zM383 45q66 0 104.5 34.5t38.5 110.5t-40 110.5t-116 34.5h-242
v-290h255z" />
    <glyph glyph-name="C" unicode="C" horiz-adv-x="722" 
d="M232 30.5q-83 45.5 -130 128t-47 190.5t47 191t130 128.5t187 45.5q144 0 239 -79v-53q-91 84 -236 84q-90 0 -161.5 -39t-112.5 -111t-41 -167q0 -96 41.5 -167.5t113.5 -110.5t160 -39q76 0 136 20.5t109 68.5v-53q-89 -83 -248 -83q-104 0 -187 45.5z" />
    <glyph glyph-name="D" unicode="D" horiz-adv-x="698" 
d="M75 699h207q112 0 193.5 -42t124.5 -120t43 -184q0 -175 -99 -264t-281 -89h-188v699zM255 45q336 0 336 308q0 142 -80.5 221.5t-232.5 79.5h-150v-609h127z" />
    <glyph glyph-name="E" unicode="E" horiz-adv-x="563" 
d="M75 699h438v-45h-385v-282h291v-45h-291v-282h385v-45h-438v699z" />
    <glyph glyph-name="F" unicode="F" horiz-adv-x="548" 
d="M75 699h438v-45h-385v-282h291v-45h-291v-327h-53v699z" />
    <glyph glyph-name="G" unicode="G" horiz-adv-x="724" 
d="M232 30.5q-83 45.5 -130 128t-47 190.5t47 191t130 128.5t187 45.5q145 0 238 -78v-53q-87 83 -235 83q-90 0 -161.5 -39t-112.5 -111t-41 -167q0 -96 41.5 -168t113 -110.5t159.5 -38.5q61 0 107.5 13.5t87.5 44.5v235h-162v45h215v-302q-89 -83 -250 -83
q-104 0 -187 45.5z" />
    <glyph glyph-name="H" unicode="H" horiz-adv-x="681" 
d="M75 699h53v-320h425v320h53v-699h-53v334h-425v-334h-53v699z" />
    <glyph glyph-name="I" unicode="I" horiz-adv-x="204" 
d="M75 699h53v-699h-53v699z" />
    <glyph glyph-name="J" unicode="J" horiz-adv-x="357" 
d="M77 -11.5q-27 3.5 -42 9.5v46q15 -6 40 -9.5t44 -3.5q115 0 115 113v555h53v-558q0 -76 -44 -116t-114 -40q-25 0 -52 3.5z" />
    <glyph glyph-name="K" unicode="K" horiz-adv-x="604" 
d="M75 699h53v-342l342 342h67l-345 -345l367 -354h-68l-363 351v-351h-53v699z" />
    <glyph glyph-name="L" unicode="L" horiz-adv-x="546" 
d="M75 699h53v-654h385v-45h-438v699z" />
    <glyph glyph-name="M" unicode="M" horiz-adv-x="823" 
d="M75 699h56l281 -615l280 615h56v-699h-52v591l-270 -591h-29l-270 591v-591h-52v699z" />
    <glyph glyph-name="N" unicode="N" horiz-adv-x="670" 
d="M75 699h50l417 -607v607h53v-699h-49l-418 608v-608h-53v699z" />
    <glyph glyph-name="O" unicode="O" horiz-adv-x="837" 
d="M232.5 30.5q-82.5 45.5 -130 128.5t-47.5 190t47.5 190t130 129t185.5 46t186 -46t130.5 -129t47.5 -190t-47.5 -190t-130.5 -128.5t-186 -45.5t-185.5 45.5zM575.5 71q71.5 39 113 111t41.5 167q0 94 -41 166t-111.5 111.5t-157.5 39.5t-158.5 -39t-113 -111t-41.5 -167
t41.5 -167t112.5 -111t157 -39t157.5 39z" />
    <glyph glyph-name="P" unicode="P" horiz-adv-x="581" 
d="M75 699h249q108 0 165 -48t57 -147q0 -194 -222 -194h-196v-310h-53v699zM322 355q81 0 126.5 32.5t45.5 116.5q0 85 -45.5 117.5t-126.5 32.5h-194v-299h194z" />
    <glyph glyph-name="Q" unicode="Q" horiz-adv-x="833" 
d="M235.5 43q-85.5 43 -133 122.5t-47.5 183.5q0 107 47.5 190t130 129t185.5 46t185.5 -46t130 -129t47.5 -190q0 -110 -53.5 -189t-146.5 -115h207v-45h-358q-109 0 -194.5 43zM575.5 83.5q70.5 35.5 112 103.5t41.5 162q0 95 -41 167t-112 111t-158 39t-158 -39
t-112 -111t-41 -167t41 -163t111.5 -103t158.5 -35q87 0 157.5 35.5z" />
    <glyph glyph-name="R" unicode="R" horiz-adv-x="601" 
d="M75 699h259q212 0 212 -192q0 -77 -47 -128t-133 -60l179 -319h-55l-178 318h-184v-318h-53v699zM330 363q77 0 120.5 37t43.5 107q0 80 -42.5 113.5t-120.5 33.5h-203v-291h202z" />
    <glyph glyph-name="S" unicode="S" horiz-adv-x="549" 
d="M143 -6q-54 9 -88 25v50q87 -37 196 -37q98 0 144.5 33.5t46.5 100.5q0 45 -19 73t-56.5 48t-115.5 50q-100 38 -144 84t-44 119q0 52 27.5 91.5t77.5 61t115 21.5q52 0 95 -8t86 -26v-48q-85 35 -176 35q-83 0 -128 -34.5t-45 -92.5q0 -39 17 -67t54.5 -51t105.5 -49
q74 -28 114.5 -51t64 -60t23.5 -96q0 -87 -61 -134t-180 -47q-56 0 -110 9z" />
    <glyph glyph-name="T" unicode="T" horiz-adv-x="585" 
d="M266 654h-231v45h515v-45h-231v-654h-53v654z" />
    <glyph glyph-name="U" unicode="U" horiz-adv-x="679" 
d="M138 51.5q-68 66.5 -68 187.5v460h53v-468q0 -101 58 -150t158 -49t158.5 49t58.5 150v468h53v-460q0 -121 -68.5 -187.5t-201.5 -66.5t-201 66.5z" />
    <glyph glyph-name="V" unicode="V" horiz-adv-x="715" 
d="M55 699h55l247 -624l248 624h55l-279 -699h-47z" />
    <glyph glyph-name="W" unicode="W" horiz-adv-x="1011" 
d="M55 699h54l187 -610l187 610h46l185 -610l187 610h55l-214 -699h-49l-188 618l-187 -618h-49z" />
    <glyph glyph-name="X" unicode="X" horiz-adv-x="707" 
d="M323 359l-252 340h60l222 -299l223 299h60l-253 -340l268 -359h-60l-238 319l-237 -319h-60z" />
    <glyph glyph-name="Y" unicode="Y" horiz-adv-x="672" 
d="M309 265l-254 434h55l226 -387l226 387h55l-255 -434v-265h-53v265z" />
    <glyph glyph-name="Z" unicode="Z" horiz-adv-x="616" 
d="M55 40l430 614h-419v45h482v-41l-430 -614h443v-44h-506v40z" />
    <glyph glyph-name="bracketleft" unicode="[" horiz-adv-x="277" 
d="M55 787h177v-45h-124v-794h124v-44h-177v883z" />
    <glyph glyph-name="backslash" unicode="\" horiz-adv-x="447" 
d="M55 714h52l285 -714h-52z" />
    <glyph glyph-name="bracketright" unicode="]" horiz-adv-x="277" 
d="M45 -52h123v794h-123v45h177v-883h-177v44z" />
    <glyph glyph-name="asciicircum" unicode="^" horiz-adv-x="517" 
d="M238 719h40l184 -322h-51l-153 268l-152 -268h-51z" />
    <glyph glyph-name="underscore" unicode="_" horiz-adv-x="486" 
d="M55 0h376v-44h-376v44z" />
    <glyph glyph-name="grave" unicode="`" horiz-adv-x="234" 
d="M55 740h54l70 -169h-46z" />
    <glyph glyph-name="a" unicode="a" horiz-adv-x="558" 
d="M105.5 26q-50.5 41 -50.5 115q0 77 49 117t141 40q113 0 190 -46v59q0 72 -39 106.5t-125 34.5q-80 0 -154 -31v45q30 13 73 21t84 8q109 0 161.5 -49t52.5 -138v-308h-49v69q-63 -84 -197 -84q-86 0 -136.5 41zM363.5 52.5q48.5 24.5 71.5 67.5v89q-44 24 -86 35.5
t-96 11.5q-78 0 -112.5 -28.5t-34.5 -86.5q0 -55 37 -84t112 -29q60 0 108.5 24.5z" />
    <glyph glyph-name="b" unicode="b" horiz-adv-x="652" 
d="M126 96v-96h-51v739h52v-355q30 54 90 82.5t129 28.5q70 0 127.5 -32t90.5 -90.5t33 -133.5q0 -77 -33 -134.5t-90.5 -88.5t-127.5 -31q-148 0 -220 111zM442.5 53.5q47.5 26.5 75 74.5t27.5 111t-27.5 111.5t-75 75t-104.5 26.5q-75 0 -133 -39.5t-78 -108.5v-131
q22 -68 78.5 -107t132.5 -39q57 0 104.5 26.5z" />
    <glyph glyph-name="c" unicode="c" horiz-adv-x="546" 
d="M181.5 15.5q-58.5 30.5 -92.5 88.5t-34 135q0 76 34 134.5t93.5 90t133.5 31.5q54 0 94.5 -10t73.5 -33v-45q-34 24 -74 34.5t-91 10.5q-60 0 -108.5 -25.5t-76.5 -73.5t-28 -114t27.5 -114t75.5 -73t107 -25q54 0 95.5 12t79.5 37v-45q-34 -24 -77.5 -35t-101.5 -11
q-72 0 -130.5 30.5z" />
    <glyph glyph-name="d" unicode="d" horiz-adv-x="652" 
d="M178 16q-57 31 -90 88.5t-33 134.5q0 75 33 133.5t90 90.5t127 32q72 0 130.5 -28t88.5 -83v355h53v-739h-52v96q-70 -111 -220 -111q-70 0 -127 31zM445.5 65.5q56.5 38.5 78.5 107.5v131q-19 69 -76.5 108.5t-134.5 39.5q-57 0 -104.5 -26.5t-75 -75t-27.5 -111.5
t27.5 -111t75 -74.5t104.5 -26.5q76 0 132.5 38.5z" />
    <glyph glyph-name="e" unicode="e" horiz-adv-x="607" 
d="M126.5 51.5q-71.5 66.5 -71.5 187.5q0 118 64.5 187t183.5 69q80 0 136 -31t84.5 -86t28.5 -125v-33h-449q2 -95 63 -144t165 -49q47 0 92 8t80 23v-45q-29 -12 -79.5 -20t-96.5 -8q-129 0 -200.5 66.5zM504 259q-1 89 -51 141t-150 52q-98 0 -148.5 -54t-51.5 -139h401z
" />
    <glyph glyph-name="f" unicode="f" horiz-adv-x="333" 
d="M112 438h-77v42h77v117q0 74 37.5 110.5t103.5 36.5q35 0 65 -8v-45q-28 10 -54 10q-51 0 -75.5 -25.5t-24.5 -79.5v-116h125v-42h-125v-438h-52v438z" />
    <glyph glyph-name="g" unicode="g" horiz-adv-x="652" 
d="M225.5 -221.5q-45.5 8.5 -75.5 22.5v45q73 -34 170 -34q103 0 153.5 48.5t50.5 146.5v89q-31 -55 -88 -83t-130 -28q-70 0 -127.5 31.5t-90.5 89.5t-33 134t33 134t90 89.5t127 31.5q76 0 130.5 -27t89.5 -83v95h52v-465q0 -245 -257 -245q-49 0 -94.5 8.5zM447 66.5
q58 39.5 77 108.5v131q-21 69 -78.5 107.5t-132.5 38.5q-57 0 -104 -26.5t-75 -74.5t-28 -111t28 -111.5t75 -75t104 -26.5q76 0 134 39.5z" />
    <glyph glyph-name="h" unicode="h" horiz-adv-x="582" 
d="M75 739h52v-339q38 51 89.5 73t109.5 22q94 0 140 -49t46 -131v-315h-53v311q0 68 -33 104.5t-107 36.5q-120 0 -192 -109v-343h-52v739z" />
    <glyph glyph-name="i" unicode="i" horiz-adv-x="224" 
d="M85.5 604.5q-10.5 10.5 -10.5 26.5q0 15 10.5 26t26.5 11q15 0 26 -11t11 -26q0 -16 -11 -26.5t-26 -10.5q-16 0 -26.5 10.5zM86 480h52v-480h-52v480z" />
    <glyph glyph-name="j" unicode="j" horiz-adv-x="226" 
d="M87 604.5q-11 10.5 -11 26.5q0 15 11 26t26 11q16 0 27 -11t11 -26q0 -16 -11 -26.5t-27 -10.5q-15 0 -26 10.5zM-60 -224v45q27 -10 54 -10q51 0 72 24t21 79v566h53v-565q0 -74 -36 -110t-100 -36q-39 0 -64 7z" />
    <glyph glyph-name="k" unicode="k" horiz-adv-x="507" 
d="M75 739h52v-495l243 236h69l-247 -239l270 -241h-69l-266 238v-238h-52v739z" />
    <glyph glyph-name="l" unicode="l" horiz-adv-x="202" 
d="M75 739h52v-739h-52v739z" />
    <glyph glyph-name="m" unicode="m" horiz-adv-x="856" 
d="M75 480h51v-81q38 52 81.5 74t94.5 22q63 0 97 -22t47 -67q33 47 80 68t100 21q86 0 123 -43t37 -130v-322h-52v317q0 73 -25.5 104t-92.5 31q-97 0 -159 -88q4 -20 4 -50v-314h-52v314q0 75 -24.5 106.5t-91.5 31.5q-49 0 -88.5 -25t-77.5 -81v-346h-52v480z" />
    <glyph glyph-name="n" unicode="n" horiz-adv-x="582" 
d="M75 480h51v-81q37 50 89.5 73t110.5 23q94 0 140 -49t46 -131v-315h-53v311q0 68 -33 104.5t-107 36.5q-120 0 -192 -109v-343h-52v480z" />
    <glyph glyph-name="o" unicode="o" horiz-adv-x="627" 
d="M179.5 16.5q-58.5 31.5 -91.5 89t-33 133.5t33 134t91.5 90t133.5 32t133.5 -32t92 -90t33.5 -134t-33 -133.5t-92 -89t-134 -31.5t-133.5 31.5zM421 53q47 26 73 74t26 112t-26 112.5t-73 74.5t-108 26t-108 -26t-73 -74.5t-26 -112.5t26 -112t73 -74t108 -26t108 26z
" />
    <glyph glyph-name="p" unicode="p" horiz-adv-x="652" 
d="M75 480h51v-96q71 111 220 111q70 0 127.5 -31.5t90.5 -89.5t33 -134t-33 -134t-90.5 -89.5t-127.5 -31.5t-129.5 28t-89.5 83v-315h-52v699zM443 53.5q47 26.5 74.5 75t27.5 111.5t-27.5 111t-74.5 74.5t-105 26.5q-76 0 -132.5 -38.5t-78.5 -107.5v-131q20 -68 78 -108
t133 -40q58 0 105 26.5z" />
    <glyph glyph-name="q" unicode="q" horiz-adv-x="652" 
d="M524 96q-29 -55 -88.5 -83t-130.5 -28q-70 0 -127 31.5t-90 89.5t-33 134t33 134t90 89.5t127 31.5q74 0 130 -28t90 -83v96h52v-699h-53v315zM447 67q58 40 77 108v131q-22 69 -78.5 107.5t-132.5 38.5q-58 0 -105 -26.5t-74.5 -74.5t-27.5 -111t27.5 -111.5t74.5 -75
t105 -26.5q76 0 134 40z" />
    <glyph glyph-name="r" unicode="r" horiz-adv-x="385" 
d="M75 480h51v-102q60 102 224 102v-43q-177 0 -223 -128v-309h-52v480z" />
    <glyph glyph-name="s" unicode="s" horiz-adv-x="469" 
d="M135.5 -1.5q-51.5 13.5 -79.5 33.5v45q37 -23 83.5 -36.5t91.5 -13.5q132 0 132 84q0 29 -12 47.5t-43 33.5t-91 31q-59 16 -92.5 32.5t-51.5 42.5t-18 68q0 63 49.5 96t132.5 33q92 0 149 -30v-45q-59 32 -147 32q-64 0 -98.5 -21t-34.5 -65q0 -30 12 -47t42.5 -30
t93.5 -30q88 -24 124 -57t36 -91t-45.5 -92t-136.5 -34q-45 0 -96.5 13.5z" />
    <glyph glyph-name="t" unicode="t" horiz-adv-x="354" 
d="M147 21.5q-35 36.5 -35 107.5v309h-77v42h77v144h52v-144h124v-42h-124v-311q0 -53 23 -76.5t77 -23.5q25 0 52 10v-44q-27 -8 -70 -8q-64 0 -99 36.5z" />
    <glyph glyph-name="u" unicode="u" horiz-adv-x="582" 
d="M120 36q-50 51 -50 135v309h52v-310q0 -68 36.5 -105.5t111.5 -37.5q59 0 103.5 26t80.5 83v344h53v-480h-52v80q-67 -95 -189 -95q-96 0 -146 51z" />
    <glyph glyph-name="v" unicode="v" horiz-adv-x="546" 
d="M55 480h55l163 -412l163 412h55l-193 -480h-51z" />
    <glyph glyph-name="w" unicode="w" horiz-adv-x="786" 
d="M55 480h53l129 -418l128 418h55l128 -418l129 418h54l-152 -480h-55l-131 426l-131 -426h-56z" />
    <glyph glyph-name="x" unicode="x" horiz-adv-x="583" 
d="M261 253l-185 227h61l154 -189l154 189h61l-185 -226l207 -254h-60l-177 216l-177 -216h-59z" />
    <glyph glyph-name="y" unicode="y" horiz-adv-x="553" 
d="M74 -191v44q24 -9 59 -9q38 0 60 20t41 67l30 73l-209 476h55l181 -413l172 413h55l-228 -555q-27 -64 -60 -93.5t-86 -29.5q-41 0 -70 7z" />
    <glyph glyph-name="z" unicode="z" horiz-adv-x="482" 
d="M55 38l299 400h-293v42h355v-39l-299 -399h310v-42h-372v38z" />
    <glyph glyph-name="braceleft" unicode="{" horiz-adv-x="315" 
d="M151.5 -76q-17.5 20 -17.5 62v250q0 87 -75 87h-14v45h14q75 0 75 87v249q0 83 70 83h61v-45h-38q-23 0 -31.5 -11.5t-8.5 -39.5v-239q0 -85 -63 -106v-1q63 -19 63 -106v-240q0 -28 8.5 -39t31.5 -11h38v-45h-61q-35 0 -52.5 20z" />
    <glyph glyph-name="bar" unicode="|" horiz-adv-x="163" 
d="M55 812h53v-956h-53v956z" />
    <glyph glyph-name="braceright" unicode="}" horiz-adv-x="315" 
d="M50 -51h37q23 0 31.5 11t8.5 39v240q0 87 64 106v1q-64 20 -64 106v239q0 28 -8.5 39.5t-31.5 11.5h-37v45h61q35 0 52 -20.5t17 -62.5v-249q0 -43 18.5 -65t57.5 -22h14v-45h-14q-39 0 -57.5 -22t-18.5 -65v-250q0 -42 -17 -62t-52 -20h-61v45z" />
    <glyph glyph-name="asciitilde" unicode="~" horiz-adv-x="568" 
d="M55 355q12 26 42.5 40.5t67.5 14.5q33 0 60 -8.5t65 -24.5q37 -15 61 -22.5t51 -7.5q35 0 62 14t49 49v-55q-13 -26 -43.5 -40.5t-67.5 -14.5q-30 0 -56.5 8t-61.5 24q-38 16 -63 24t-56 8q-34 0 -61 -14.5t-49 -49.5v55z" />
    <glyph glyph-name="uni00A0" unicode="&#xa0;" horiz-adv-x="390" 
 />
    <glyph glyph-name="exclamdown" unicode="&#xa1;" horiz-adv-x="184" 
d="M65.5 486.5q-10.5 10.5 -10.5 26.5q0 15 10.5 26t26.5 11q15 0 26 -11t11 -26q0 -16 -11 -26.5t-26 -10.5q-16 0 -26.5 10.5zM66 351h52v-515h-52v515z" />
    <glyph glyph-name="cent" unicode="&#xa2;" horiz-adv-x="546" 
d="M285 -14q-66 6 -118 38t-82 87t-30 128q0 71 29.5 126.5t81.5 88.5t119 40v86h49v-85q94 -3 150 -43v-45q-60 42 -150 45v-425q47 2 84.5 14t72.5 35v-45q-31 -22 -69 -33t-88 -13v-86h-49v87zM285 450q-80 -10 -129.5 -66t-49.5 -145q0 -90 50 -145.5t129 -64.5v421z
" />
    <glyph glyph-name="sterling" unicode="&#xa3;" horiz-adv-x="489" 
d="M55 42h85v322h-77v42h77v144q0 79 48 121.5t121 42.5q34 0 66 -8v-44q-24 8 -53 8q-62 0 -94.5 -30.5t-32.5 -89.5v-144h199v-42h-199v-322h239v-42h-379v42z" />
    <glyph glyph-name="currency" unicode="&#xa4;" horiz-adv-x="576" 
d="M55 97l85 65q-37 46 -37 108q0 63 37 109l-85 64l24 32l87 -68q52 47 121 47q70 0 122 -47l87 68l25 -32l-85 -64q37 -48 37 -109q0 -59 -37 -109l85 -64l-25 -31l-87 66q-53 -46 -121 -46q-34 0 -65.5 12t-56.5 34l-87 -66zM358 147q32 19 51 52t19 71q0 39 -19 72
t-51.5 52t-70.5 19t-70.5 -19t-51 -52t-18.5 -72q0 -38 19 -71t51 -52t70 -19q39 0 71 19z" />
    <glyph glyph-name="yen" unicode="&#xa5;" horiz-adv-x="673" 
d="M310 125h-144v39h144v92h-144v39h126l-237 404h56l225 -387l226 386h55l-237 -403h127v-39h-144v-92h144v-39h-144v-125h-53v125z" />
    <glyph glyph-name="brokenbar" unicode="&#xa6;" horiz-adv-x="164" 
d="M55 812h54v-370h-54v370zM55 226h54v-370h-54v370z" />
    <glyph glyph-name="section" unicode="&#xa7;" horiz-adv-x="549" 
d="M143 -161q-54 9 -88 25v50q87 -37 196 -37q189 0 189 134q0 46 -19 74.5t-57 49t-113 47.5q-100 37 -144 83.5t-44 119.5q0 43 18 74q-18 32 -18 81q0 79 60.5 126.5t159.5 47.5q52 0 95 -8t86 -26v-49q-43 18 -85 26.5t-94 8.5q-80 0 -124 -34.5t-44 -92.5
q0 -39 16.5 -66.5t53.5 -50.5t105 -50q76 -30 115.5 -52t63 -58.5t23.5 -95.5q0 -41 -16 -76q16 -35 16 -79q0 -87 -61 -134t-180 -47q-56 0 -110 9zM450 168q0 45 -19.5 74t-58 50t-109.5 47q-108 39 -147 86q-8 -22 -8 -44q0 -57 38.5 -93t134.5 -72q65 -25 103.5 -45
t60.5 -46q5 20 5 43z" />
    <glyph glyph-name="dieresis" unicode="&#xa8;" horiz-adv-x="397" 
d="M67 613q-12 12 -12 28t12 27.5t28 11.5t27.5 -11.5t11.5 -27.5t-11.5 -28t-27.5 -12t-28 12zM274 613q-12 12 -12 28t12 27.5t28 11.5t28 -11.5t12 -27.5t-12 -28t-28 -12t-28 12z" />
    <glyph glyph-name="copyright" unicode="&#xa9;" horiz-adv-x="835" 
d="M233 31q-83 46 -130.5 128.5t-47.5 189.5t47.5 190t130.5 129t185 46t184.5 -46t130 -129t47.5 -190t-47.5 -190t-130 -128.5t-184.5 -45.5t-185 46zM576.5 69.5q71.5 38.5 113 111t41.5 168.5t-41 168t-112.5 111t-159.5 39q-89 0 -160.5 -39t-112.5 -111t-41 -168
t41.5 -168.5t113 -111t159.5 -38.5q87 0 158.5 38.5zM290 131q-56 30 -88 86t-32 131q0 74 32.5 130.5t89 87t126.5 30.5q52 0 91.5 -10t71.5 -32v-43q-62 44 -160 44q-59 0 -105 -24.5t-72.5 -71.5t-26.5 -111t26 -110.5t71.5 -71t102.5 -24.5q54 0 94 11.5t77 36.5v-43
q-34 -23 -76 -34.5t-98 -11.5q-68 0 -124 30z" />
    <glyph glyph-name="ordfeminine" unicode="&#xaa;" horiz-adv-x="420" 
d="M91.5 378q-36.5 29 -36.5 82q0 55 35.5 84.5t98.5 29.5q77 0 132 -32v41q0 49 -27.5 71.5t-86.5 22.5t-110 -22v38q22 9 53 15t60 6q78 0 116.5 -34.5t38.5 -98.5v-221h-41v42q-45 -53 -137 -53q-59 0 -95.5 29zM272.5 401q32.5 16 48.5 46v59q-58 32 -128 32
q-95 0 -95 -78q0 -37 24.5 -56t72.5 -19q45 0 77.5 16z" />
    <glyph glyph-name="guillemotleft" unicode="&#xab;" horiz-adv-x="542" 
d="M55 310v24l222 180l25 -33l-196 -159l196 -158l-25 -34zM240 310v24l222 180l25 -33l-196 -159l196 -158l-25 -34z" />
    <glyph glyph-name="logicalnot" unicode="&#xac;" horiz-adv-x="428" 
d="M329 272h-274v44h318v-177h-44v133z" />
    <glyph glyph-name="uni00AD" unicode="&#xad;" horiz-adv-x="405" 
d="M55 316h295v-44h-295v44z" />
    <glyph glyph-name="registered" unicode="&#xae;" horiz-adv-x="835" 
d="M233 31q-83 46 -130.5 128.5t-47.5 189.5t47.5 190t130.5 129t185 46t184.5 -46t130 -129t47.5 -190t-47.5 -190t-130 -128.5t-184.5 -45.5t-185 46zM576.5 69.5q71.5 38.5 113 111t41.5 168.5t-41 168t-112.5 111t-159.5 39q-89 0 -160.5 -39t-112.5 -111t-41 -168
t41.5 -168.5t113 -111t159.5 -38.5q87 0 158.5 38.5zM260 605h187q79 0 117.5 -33t38.5 -104q0 -58 -34.5 -95t-103.5 -42l125 -232h-45l-124 232h-118v-232h-43v506zM443 367q118 0 118 100q0 59 -29 79.5t-88 20.5h-141v-200h140z" />
    <glyph glyph-name="macron" unicode="&#xaf;" horiz-adv-x="399" 
d="M55 663h289v-39h-289v39z" />
    <glyph glyph-name="degree" unicode="&#xb0;" horiz-adv-x="398" 
d="M127 458.5q-33 19.5 -52.5 52.5t-19.5 72t19.5 72t52.5 52.5t72 19.5t72 -19.5t52.5 -52.5t19.5 -72t-19.5 -72t-52.5 -52.5t-72 -19.5t-72 19.5zM271.5 509.5q30.5 30.5 30.5 73.5t-30.5 73.5t-73.5 30.5t-73 -30.5t-30 -73.5t30 -73.5t73 -30.5t73.5 30.5z" />
    <glyph glyph-name="plusminus" unicode="&#xb1;" horiz-adv-x="395" 
d="M175 262h-120v44h120v121h44v-121h121v-44h-121v-120h-44v120zM55 44h285v-44h-285v44z" />
    <glyph glyph-name="uni00B2" unicode="&#xb2;" horiz-adv-x="341" 
d="M55 402l89 80l16 14q47 42 63.5 64t16.5 52q0 28 -18 43.5t-54 15.5q-23 0 -49.5 -6.5t-46.5 -20.5v39q18 12 46 19t52 7q53 0 83 -26.5t30 -69.5q0 -28 -11 -49.5t-28.5 -39.5t-54.5 -50l-76 -68h173v-36h-231v32z" />
    <glyph glyph-name="uni00B3" unicode="&#xb3;" horiz-adv-x="341" 
d="M55 376v38q38 -19 100 -19q41 0 64.5 15t23.5 46q0 34 -20.5 48.5t-69.5 14.5h-40v35h39q39 0 60 16t21 46q0 29 -19 43t-58 14q-52 0 -93 -27v37q41 26 100 26q56 0 85 -23.5t29 -66.5q0 -64 -66 -82q37 -4 56 -26t19 -57q0 -44 -33 -69t-93 -25q-64 0 -105 16z" />
    <glyph glyph-name="acute" unicode="&#xb4;" horiz-adv-x="234" 
d="M124 751h55l-79 -169h-45z" />
    <glyph glyph-name="paragraph" unicode="&#xb6;" horiz-adv-x="707" 
d="M373 274h-80q-69 0 -122.5 27t-84.5 81.5t-31 132.5q0 121 67 184t180 63h350v-896h-54v851h-172v-851h-53v408z" />
    <glyph glyph-name="periodcentered" unicode="&#xb7;" horiz-adv-x="180" 
d="M65 269q-10 10 -10 25q0 14 10 24.5t25 10.5q14 0 24.5 -10.5t10.5 -24.5q0 -15 -10.5 -25t-24.5 -10q-15 0 -25 10z" />
    <glyph glyph-name="cedilla" unicode="&#xb8;" horiz-adv-x="287" 
d="M83 -245.5q-18 2.5 -28 6.5v36q8 -4 24.5 -6.5t31.5 -2.5q72 0 72 56q0 32 -23.5 47.5t-80.5 15.5l35 93h50l-27 -67q48 -4 71.5 -27.5t23.5 -62.5q0 -40 -30 -65.5t-83 -25.5q-18 0 -36 2.5z" />
    <glyph glyph-name="uni00B9" unicode="&#xb9;" horiz-adv-x="227" 
d="M149 651l-94 -69v46l96 71h41v-329h-43v281z" />
    <glyph glyph-name="ordmasculine" unicode="&#xba;" horiz-adv-x="480" 
d="M106.5 398q-51.5 50 -51.5 133q0 54 23.5 95.5t65.5 64.5t96 23q53 0 95 -23t66 -64.5t24 -95.5q0 -55 -24 -96.5t-66 -64t-95 -22.5q-82 0 -133.5 50zM341 426.5q39 39.5 39 104.5t-39 104.5t-101 39.5t-101 -39.5t-39 -104.5t39 -104.5t101 -39.5t101 39.5z" />
    <glyph glyph-name="guillemotright" unicode="&#xbb;" horiz-adv-x="542" 
d="M55 164l195 158l-195 159l25 33l222 -180v-24l-222 -180zM240 164l195 158l-195 159l25 33l222 -180v-24l-222 -180z" />
    <glyph glyph-name="onequarter" unicode="&#xbc;" horiz-adv-x="681" 
d="M149 651l-94 -69v46l96 71h41v-329h-43v281zM505 699h53l-387 -699h-53zM533 82h-167v33l161 214h50v-213h49v-34h-49v-82h-44v82zM537 116v167l-128 -167h128z" />
    <glyph glyph-name="onehalf" unicode="&#xbd;" horiz-adv-x="716" 
d="M149 651l-94 -69v46l96 71h41v-329h-43v281zM505 699h53l-387 -699h-53zM426 32l90 80q40 36 57.5 53.5t28 36.5t10.5 42q0 29 -18 45t-54 16q-23 0 -49.5 -7t-46.5 -21v40q18 12 45.5 18.5t52.5 6.5q53 0 82.5 -26.5t29.5 -69.5q0 -28 -11 -50t-28 -40.5t-54 -51.5
l-76 -68h176v-36h-235v32z" />
    <glyph glyph-name="threequarters" unicode="&#xbe;" horiz-adv-x="717" 
d="M55 376v38q38 -19 100 -19q41 0 64.5 15t23.5 46q0 34 -20.5 48.5t-69.5 14.5h-40v35h39q39 0 60 16t21 46q0 29 -19 43t-58 14q-52 0 -93 -27v37q41 26 100 26q56 0 85 -23.5t29 -66.5q0 -64 -66 -82q37 -4 56 -26t19 -57q0 -44 -33 -69t-93 -25q-64 0 -105 16zM541 699
h53l-387 -699h-53zM569 82h-167v33l161 214h50v-213h49v-34h-49v-82h-44v82zM573 116v167l-128 -167h128z" />
    <glyph glyph-name="questiondown" unicode="&#xbf;" horiz-adv-x="502" 
d="M274 487q-11 11 -11 26q0 16 11 26.5t26 10.5q16 0 26.5 -10.5t10.5 -26.5q0 -15 -10.5 -26t-26.5 -11q-15 0 -26 11zM111.5 -134q-56.5 45 -56.5 120q0 55 24.5 94t88.5 81q43 28 65 50.5t31.5 51.5t9.5 75v13h52v-13q0 -69 -26.5 -113.5t-89.5 -87.5q-44 -30 -64.5 -49
t-29.5 -42t-9 -60q0 -57 41 -88t120 -31q99 0 179 35v-47q-83 -34 -179 -34q-100 0 -156.5 45z" />
    <glyph glyph-name="Agrave" unicode="&#xc0;" horiz-adv-x="715" 
d="M255 923h55l69 -169h-45zM334 699h47l279 -699h-54l-80 201h-337l-80 -201h-54zM510 246l-153 387l-152 -387h305z" />
    <glyph glyph-name="Aacute" unicode="&#xc1;" horiz-adv-x="715" 
d="M410 923h54l-78 -169h-46zM334 699h47l279 -699h-54l-80 201h-337l-80 -201h-54zM510 246l-153 387l-152 -387h305z" />
    <glyph glyph-name="Acircumflex" unicode="&#xc2;" horiz-adv-x="715" 
d="M335 914h45l132 -156h-54l-100 121l-100 -121h-55zM334 699h47l279 -699h-54l-80 201h-337l-80 -201h-54zM510 246l-153 387l-152 -387h305z" />
    <glyph glyph-name="Atilde" unicode="&#xc3;" horiz-adv-x="715" 
d="M176 815q29 44 93 44q22 0 41.5 -6t49.5 -19q25 -12 44.5 -18.5t41.5 -6.5q29 0 51.5 11.5t41.5 41.5v-51q-28 -44 -93 -44q-25 0 -46.5 6.5t-48.5 19.5q-27 12 -44 18t-38 6q-28 0 -50 -11.5t-43 -41.5v51zM334 699h47l279 -699h-54l-80 201h-337l-80 -201h-54zM510 246
l-153 387l-152 -387h305z" />
    <glyph glyph-name="Adieresis" unicode="&#xc4;" horiz-adv-x="715" 
d="M226.5 770.5q-11.5 11.5 -11.5 27.5t11.5 27t27.5 11q15 0 26.5 -11t11.5 -27t-11.5 -27.5t-26.5 -11.5q-16 0 -27.5 11.5zM433.5 770.5q-11.5 11.5 -11.5 27.5t11.5 27t27.5 11t27.5 -11t11.5 -27t-11.5 -27.5t-27.5 -11.5t-27.5 11.5zM334 699h47l279 -699h-54l-80 201
h-337l-80 -201h-54zM510 246l-153 387l-152 -387h305z" />
    <glyph glyph-name="Aring" unicode="&#xc5;" horiz-adv-x="715" 
d="M660 0h-54l-80 201h-337l-80 -201h-54l267 670q-29 11 -47 36.5t-18 57.5q0 41 29.5 70t70.5 29t70 -29t29 -70q0 -31 -18 -56.5t-46 -36.5zM312.5 719q18.5 -19 44.5 -19t44.5 19t18.5 45t-18.5 44.5t-44.5 18.5q-27 0 -45 -18.5t-18 -44.5t18.5 -45zM510 246l-153 387
l-152 -387h305z" />
    <glyph glyph-name="AE" unicode="&#xc6;" horiz-adv-x="918" 
d="M423 699h440v-45h-338v-282h244v-45h-244v-282h338v-45h-391v201h-257l-106 -201h-54zM472 246v408h-19l-215 -408h234z" />
    <glyph glyph-name="Ccedilla" unicode="&#xc7;" horiz-adv-x="722" 
d="M449 -14l-21 -53q48 -4 71.5 -27.5t23.5 -62.5q0 -40 -30 -65.5t-83 -25.5q-18 0 -36 2.5t-28 6.5v36q9 -4 25 -6.5t31 -2.5q72 0 72 56q0 32 -23.5 47.5t-80.5 15.5l30 78q-100 4 -178.5 50.5t-122.5 127.5t-44 186q0 108 47 191t130 128.5t187 45.5q144 0 239 -79v-53
q-91 84 -236 84q-90 0 -161.5 -39t-112.5 -111t-41 -167q0 -96 41.5 -167.5t113.5 -110.5t160 -39q76 0 136 20.5t109 68.5v-53q-80 -76 -218 -82z" />
    <glyph glyph-name="Egrave" unicode="&#xc8;" horiz-adv-x="568" 
d="M199 935h55l69 -169h-45zM75 699h438v-45h-385v-282h291v-45h-291v-282h385v-45h-438v699z" />
    <glyph glyph-name="Eacute" unicode="&#xc9;" horiz-adv-x="563" 
d="M314 935h54l-78 -169h-46zM75 699h438v-45h-385v-282h291v-45h-291v-282h385v-45h-438v699z" />
    <glyph glyph-name="Ecircumflex" unicode="&#xca;" horiz-adv-x="568" 
d="M268 914h45l132 -156h-54l-100 121l-100 -121h-55zM75 699h438v-45h-385v-282h291v-45h-291v-282h385v-45h-438v699z" />
    <glyph glyph-name="Edieresis" unicode="&#xcb;" horiz-adv-x="568" 
d="M156.5 781.5q-11.5 11.5 -11.5 27.5t11.5 27t27.5 11q15 0 26.5 -11t11.5 -27t-11.5 -27.5t-26.5 -11.5q-16 0 -27.5 11.5zM363.5 781.5q-11.5 11.5 -11.5 27.5t11.5 27t27.5 11t27.5 -11t11.5 -27t-11.5 -27.5t-27.5 -11.5t-27.5 11.5zM75 699h438v-45h-385v-282h291
v-45h-291v-282h385v-45h-438v699z" />
    <glyph glyph-name="Igrave" unicode="&#xcc;" horiz-adv-x="204" 
d="M2 935h55l69 -169h-45zM75 699h53v-699h-53v699z" />
    <glyph glyph-name="Iacute" unicode="&#xcd;" horiz-adv-x="204" 
d="M149 923h54l-78 -169h-46zM75 699h53v-699h-53v699z" />
    <glyph glyph-name="Icircumflex" unicode="&#xce;" horiz-adv-x="204" 
d="M79 914h45l132 -156h-54l-100 121l-100 -121h-55zM75 699h53v-699h-53v699z" />
    <glyph glyph-name="Idieresis" unicode="&#xcf;" horiz-adv-x="204" 
d="M-29.5 782.5q-11.5 11.5 -11.5 27.5t11.5 27t27.5 11q15 0 26.5 -11t11.5 -27t-11.5 -27.5t-26.5 -11.5q-16 0 -27.5 11.5zM177.5 782.5q-11.5 11.5 -11.5 27.5t11.5 27t27.5 11t27.5 -11t11.5 -27t-11.5 -27.5t-27.5 -11.5t-27.5 11.5zM75 699h53v-699h-53v699z" />
    <glyph glyph-name="Eth" unicode="&#xd0;" horiz-adv-x="722" 
d="M109 328h-74v42h74v329h208q111 0 192.5 -42t124.5 -120t43 -184q0 -175 -99 -264t-281 -89h-188v328zM290 47q168 0 251.5 77t83.5 229q0 141 -82 219.5t-231 78.5h-150v-281h212v-42h-212v-281h128z" />
    <glyph glyph-name="Ntilde" unicode="&#xd1;" horiz-adv-x="670" 
d="M163 827q29 44 93 44q22 0 41.5 -6t49.5 -19q25 -12 44.5 -18.5t41.5 -6.5q29 0 51.5 11.5t41.5 41.5v-51q-28 -44 -93 -44q-25 0 -46.5 6.5t-48.5 19.5q-27 12 -44 18t-38 6q-28 0 -50 -11.5t-43 -41.5v51zM75 699h50l417 -607v607h53v-699h-49l-418 608v-608h-53v699z
" />
    <glyph glyph-name="Ograve" unicode="&#xd2;" horiz-adv-x="837" 
d="M333 935h55l69 -169h-45zM232.5 30.5q-82.5 45.5 -130 128.5t-47.5 190t47.5 190t130 129t185.5 46t186 -46t130.5 -129t47.5 -190t-47.5 -190t-130.5 -128.5t-186 -45.5t-185.5 45.5zM575.5 71q71.5 39 113 111t41.5 167q0 94 -41 166t-111.5 111.5t-157.5 39.5
t-158.5 -39t-113 -111t-41.5 -167t41.5 -167t112.5 -111t157 -39t157.5 39z" />
    <glyph glyph-name="Oacute" unicode="&#xd3;" horiz-adv-x="837" 
d="M456 935h54l-78 -169h-46zM232.5 30.5q-82.5 45.5 -130 128.5t-47.5 190t47.5 190t130 129t185.5 46t186 -46t130.5 -129t47.5 -190t-47.5 -190t-130.5 -128.5t-186 -45.5t-185.5 45.5zM575.5 71q71.5 39 113 111t41.5 167q0 94 -41 166t-111.5 111.5t-157.5 39.5
t-158.5 -39t-113 -111t-41.5 -167t41.5 -167t112.5 -111t157 -39t157.5 39z" />
    <glyph glyph-name="Ocircumflex" unicode="&#xd4;" horiz-adv-x="837" 
d="M393 926h45l132 -156h-54l-100 121l-100 -121h-55zM232.5 30.5q-82.5 45.5 -130 128.5t-47.5 190t47.5 190t130 129t185.5 46t186 -46t130.5 -129t47.5 -190t-47.5 -190t-130.5 -128.5t-186 -45.5t-185.5 45.5zM575.5 71q71.5 39 113 111t41.5 167q0 94 -41 166
t-111.5 111.5t-157.5 39.5t-158.5 -39t-113 -111t-41.5 -167t41.5 -167t112.5 -111t157 -39t157.5 39z" />
    <glyph glyph-name="Otilde" unicode="&#xd5;" horiz-adv-x="837" 
d="M237 827q29 44 93 44q22 0 41.5 -6t49.5 -19q25 -12 44.5 -18.5t41.5 -6.5q29 0 51.5 11.5t41.5 41.5v-51q-28 -44 -93 -44q-25 0 -46.5 6.5t-48.5 19.5q-27 12 -44 18t-38 6q-28 0 -50 -11.5t-43 -41.5v51zM232.5 30.5q-82.5 45.5 -130 128.5t-47.5 190t47.5 190
t130 129t185.5 46t186 -46t130.5 -129t47.5 -190t-47.5 -190t-130.5 -128.5t-186 -45.5t-185.5 45.5zM575.5 71q71.5 39 113 111t41.5 167q0 94 -41 166t-111.5 111.5t-157.5 39.5t-158.5 -39t-113 -111t-41.5 -167t41.5 -167t112.5 -111t157 -39t157.5 39z" />
    <glyph glyph-name="Odieresis" unicode="&#xd6;" horiz-adv-x="837" 
d="M287.5 782.5q-11.5 11.5 -11.5 27.5t11.5 27t27.5 11q15 0 26.5 -11t11.5 -27t-11.5 -27.5t-26.5 -11.5q-16 0 -27.5 11.5zM494.5 782.5q-11.5 11.5 -11.5 27.5t11.5 27t27.5 11t27.5 -11t11.5 -27t-11.5 -27.5t-27.5 -11.5t-27.5 11.5zM232.5 30.5
q-82.5 45.5 -130 128.5t-47.5 190t47.5 190t130 129t185.5 46t186 -46t130.5 -129t47.5 -190t-47.5 -190t-130.5 -128.5t-186 -45.5t-185.5 45.5zM575.5 71q71.5 39 113 111t41.5 167q0 94 -41 166t-111.5 111.5t-157.5 39.5t-158.5 -39t-113 -111t-41.5 -167t41.5 -167
t112.5 -111t157 -39t157.5 39z" />
    <glyph glyph-name="multiply" unicode="&#xd7;" horiz-adv-x="350" 
d="M56 207l88 88l-89 90l30 30l89 -89l90 90l31 -31l-90 -90l89 -88l-31 -31l-89 88l-88 -88z" />
    <glyph glyph-name="Oslash" unicode="&#xd8;" horiz-adv-x="837" 
d="M264 15q-96 41 -152.5 129t-56.5 205q0 107 47.5 190t130 129t185.5 46q64 0 119 -18l36 88h52l-42 -105q92 -43 145.5 -129.5t53.5 -200.5q0 -107 -47.5 -190t-130.5 -128.5t-186 -45.5q-58 0 -109 15l-34 -86h-52zM519 651q-47 15 -101 15q-87 0 -158 -39t-112 -111
t-41 -167q0 -103 47 -178t128 -111zM575.5 71q71.5 39 113 111t41.5 167q0 99 -45 173t-121 111l-237 -589q43 -12 91 -12q86 0 157.5 39z" />
    <glyph glyph-name="Ugrave" unicode="&#xd9;" horiz-adv-x="679" 
d="M247 935h55l69 -169h-45zM138 51.5q-68 66.5 -68 187.5v460h53v-468q0 -101 58 -150t158 -49t158.5 49t58.5 150v468h53v-460q0 -121 -68.5 -187.5t-201.5 -66.5t-201 66.5z" />
    <glyph glyph-name="Uacute" unicode="&#xda;" horiz-adv-x="679" 
d="M379 935h54l-78 -169h-46zM138 51.5q-68 66.5 -68 187.5v460h53v-468q0 -101 58 -150t158 -49t158.5 49t58.5 150v468h53v-460q0 -121 -68.5 -187.5t-201.5 -66.5t-201 66.5z" />
    <glyph glyph-name="Ucircumflex" unicode="&#xdb;" horiz-adv-x="679" 
d="M317 926h45l132 -156h-54l-100 121l-100 -121h-55zM138 51.5q-68 66.5 -68 187.5v460h53v-468q0 -101 58 -150t158 -49t158.5 49t58.5 150v468h53v-460q0 -121 -68.5 -187.5t-201.5 -66.5t-201 66.5z" />
    <glyph glyph-name="Udieresis" unicode="&#xdc;" horiz-adv-x="679" 
d="M208.5 782.5q-11.5 11.5 -11.5 27.5t11.5 27t27.5 11q15 0 26.5 -11t11.5 -27t-11.5 -27.5t-26.5 -11.5q-16 0 -27.5 11.5zM415.5 782.5q-11.5 11.5 -11.5 27.5t11.5 27t27.5 11t27.5 -11t11.5 -27t-11.5 -27.5t-27.5 -11.5t-27.5 11.5zM138 51.5q-68 66.5 -68 187.5v460
h53v-468q0 -101 58 -150t158 -49t158.5 49t58.5 150v468h53v-460q0 -121 -68.5 -187.5t-201.5 -66.5t-201 66.5z" />
    <glyph glyph-name="Yacute" unicode="&#xdd;" horiz-adv-x="672" 
d="M375 935h54l-78 -169h-46zM309 265l-254 434h55l226 -387l226 387h55l-255 -434v-265h-53v265z" />
    <glyph glyph-name="Thorn" unicode="&#xde;" horiz-adv-x="591" 
d="M75 699h53v-157h198q108 0 164 -46.5t56 -145.5t-56 -145.5t-164 -46.5h-198v-158h-53v699zM322 203q82 0 127 31.5t45 115.5t-45 115.5t-127 31.5h-194v-294h194z" />
    <glyph glyph-name="germandbls" unicode="&#xdf;" horiz-adv-x="604" 
d="M199 5v48q28 -12 58.5 -17t72.5 -5q76 0 121.5 49t45.5 128q0 82 -53 120.5t-135 38.5h-40v45h41q53 0 85.5 39t32.5 105q0 63 -42 102t-109 39q-68 0 -111 -41.5t-43 -135.5v-520h-53v516q0 116 56 172t151 56q65 0 111 -26t69 -69t23 -93q0 -59 -25 -101t-69 -61
q72 -11 117.5 -59.5t45.5 -131.5q0 -95 -55 -156.5t-159 -61.5q-89 0 -136 20z" />
    <glyph glyph-name="agrave" unicode="&#xe0;" horiz-adv-x="558" 
d="M207 737h55l69 -169h-45zM105.5 26q-50.5 41 -50.5 115q0 77 49 117t141 40q113 0 190 -46v59q0 72 -39 106.5t-125 34.5q-80 0 -154 -31v45q30 13 73 21t84 8q109 0 161.5 -49t52.5 -138v-308h-49v69q-63 -84 -197 -84q-86 0 -136.5 41zM363.5 52.5q48.5 24.5 71.5 67.5
v89q-44 24 -86 35.5t-96 11.5q-78 0 -112.5 -28.5t-34.5 -86.5q0 -55 37 -84t112 -29q60 0 108.5 24.5z" />
    <glyph glyph-name="aacute" unicode="&#xe1;" horiz-adv-x="558" 
d="M332 737h54l-78 -169h-46zM105.5 26q-50.5 41 -50.5 115q0 77 49 117t141 40q113 0 190 -46v59q0 72 -39 106.5t-125 34.5q-80 0 -154 -31v45q30 13 73 21t84 8q109 0 161.5 -49t52.5 -138v-308h-49v69q-63 -84 -197 -84q-86 0 -136.5 41zM363.5 52.5
q48.5 24.5 71.5 67.5v89q-44 24 -86 35.5t-96 11.5q-78 0 -112.5 -28.5t-34.5 -86.5q0 -55 37 -84t112 -29q60 0 108.5 24.5z" />
    <glyph glyph-name="acircumflex" unicode="&#xe2;" horiz-adv-x="558" 
d="M266 707h45l132 -156h-54l-100 121l-100 -121h-55zM105.5 26q-50.5 41 -50.5 115q0 77 49 117t141 40q113 0 190 -46v59q0 72 -39 106.5t-125 34.5q-80 0 -154 -31v45q30 13 73 21t84 8q109 0 161.5 -49t52.5 -138v-308h-49v69q-63 -84 -197 -84q-86 0 -136.5 41z
M363.5 52.5q48.5 24.5 71.5 67.5v89q-44 24 -86 35.5t-96 11.5q-78 0 -112.5 -28.5t-34.5 -86.5q0 -55 37 -84t112 -29q60 0 108.5 24.5z" />
    <glyph glyph-name="atilde" unicode="&#xe3;" horiz-adv-x="558" 
d="M117 608q29 44 93 44q22 0 41.5 -6t49.5 -19q25 -12 44.5 -18.5t41.5 -6.5q29 0 51.5 11.5t41.5 41.5v-51q-28 -44 -93 -44q-25 0 -46.5 6.5t-48.5 19.5q-27 12 -44 18t-38 6q-28 0 -50 -11.5t-43 -41.5v51zM105.5 26q-50.5 41 -50.5 115q0 77 49 117t141 40
q113 0 190 -46v59q0 72 -39 106.5t-125 34.5q-80 0 -154 -31v45q30 13 73 21t84 8q109 0 161.5 -49t52.5 -138v-308h-49v69q-63 -84 -197 -84q-86 0 -136.5 41zM363.5 52.5q48.5 24.5 71.5 67.5v89q-44 24 -86 35.5t-96 11.5q-78 0 -112.5 -28.5t-34.5 -86.5q0 -55 37 -84
t112 -29q60 0 108.5 24.5z" />
    <glyph glyph-name="adieresis" unicode="&#xe4;" horiz-adv-x="558" 
d="M164.5 564.5q-11.5 11.5 -11.5 27.5t11.5 27t27.5 11q15 0 26.5 -11t11.5 -27t-11.5 -27.5t-26.5 -11.5q-16 0 -27.5 11.5zM371.5 564.5q-11.5 11.5 -11.5 27.5t11.5 27t27.5 11t27.5 -11t11.5 -27t-11.5 -27.5t-27.5 -11.5t-27.5 11.5zM105.5 26q-50.5 41 -50.5 115
q0 77 49 117t141 40q113 0 190 -46v59q0 72 -39 106.5t-125 34.5q-80 0 -154 -31v45q30 13 73 21t84 8q109 0 161.5 -49t52.5 -138v-308h-49v69q-63 -84 -197 -84q-86 0 -136.5 41zM363.5 52.5q48.5 24.5 71.5 67.5v89q-44 24 -86 35.5t-96 11.5q-78 0 -112.5 -28.5
t-34.5 -86.5q0 -55 37 -84t112 -29q60 0 108.5 24.5z" />
    <glyph glyph-name="aring" unicode="&#xe5;" horiz-adv-x="558" 
d="M227.5 567.5q-29.5 29.5 -29.5 70.5t29.5 70t70.5 29t70 -29t29 -70t-29 -70.5t-70 -29.5t-70.5 29.5zM342.5 593q18.5 19 18.5 45t-18.5 44.5t-44.5 18.5q-27 0 -45 -18.5t-18 -44.5t18.5 -45t44.5 -19t44.5 19zM105.5 26q-50.5 41 -50.5 115q0 77 49 117t141 40
q113 0 190 -46v59q0 72 -39 106.5t-125 34.5q-80 0 -154 -31v45q30 13 73 21t84 8q109 0 161.5 -49t52.5 -138v-308h-49v69q-63 -84 -197 -84q-86 0 -136.5 41zM363.5 52.5q48.5 24.5 71.5 67.5v89q-44 24 -86 35.5t-96 11.5q-78 0 -112.5 -28.5t-34.5 -86.5q0 -55 37 -84
t112 -29q60 0 108.5 24.5z" />
    <glyph glyph-name="ae" unicode="&#xe6;" horiz-adv-x="988" 
d="M105.5 26q-50.5 41 -50.5 115q0 77 49 117t141 40q113 0 190 -46v59q0 72 -39 106.5t-125 34.5q-80 0 -154 -31v45q30 13 73 21t84 8q81 0 129.5 -30t66.5 -83q29 54 83.5 83.5t130.5 29.5q80 0 136 -31t84.5 -86t28.5 -125v-33h-448q2 -96 62.5 -144.5t164.5 -48.5
q47 0 92 8.5t79 22.5v-45q-29 -12 -79 -20t-96 -8q-90 0 -149.5 32t-89.5 92q-31 -61 -85 -92.5t-142 -31.5q-86 0 -136.5 41zM884 259q-1 89 -51 141t-150 52q-96 0 -146.5 -53.5t-51.5 -139.5h399zM377 60q48 32 58 91v58q-44 24 -86 35.5t-96 11.5q-78 0 -112.5 -28.5
t-34.5 -86.5q0 -55 37 -84t112 -29q74 0 122 32z" />
    <glyph glyph-name="ccedilla" unicode="&#xe7;" horiz-adv-x="546" 
d="M337 -14l-21 -53q48 -4 71.5 -27.5t23.5 -62.5q0 -40 -30 -65.5t-83 -25.5q-18 0 -36 2.5t-28 6.5v36q9 -4 25 -6.5t31 -2.5q72 0 72 56q0 32 -23.5 47.5t-80.5 15.5l30 79q-67 5 -120 37t-83 87.5t-30 128.5q0 76 34 134.5t93.5 90t133.5 31.5q54 0 94.5 -10t73.5 -33
v-45q-34 24 -74 34.5t-91 10.5q-60 0 -108.5 -25.5t-76.5 -73.5t-28 -114t27.5 -114t75.5 -73t107 -25q54 0 95.5 12t79.5 37v-45q-62 -42 -154 -45z" />
    <glyph glyph-name="egrave" unicode="&#xe8;" horiz-adv-x="607" 
d="M219 717h55l69 -169h-45zM126.5 51.5q-71.5 66.5 -71.5 187.5q0 118 64.5 187t183.5 69q80 0 136 -31t84.5 -86t28.5 -125v-33h-449q2 -95 63 -144t165 -49q47 0 92 8t80 23v-45q-29 -12 -79.5 -20t-96.5 -8q-129 0 -200.5 66.5zM504 259q-1 89 -51 141t-150 52
q-98 0 -148.5 -54t-51.5 -139h401z" />
    <glyph glyph-name="eacute" unicode="&#xe9;" horiz-adv-x="607" 
d="M339 717h54l-78 -169h-46zM126.5 51.5q-71.5 66.5 -71.5 187.5q0 118 64.5 187t183.5 69q80 0 136 -31t84.5 -86t28.5 -125v-33h-449q2 -95 63 -144t165 -49q47 0 92 8t80 23v-45q-29 -12 -79.5 -20t-96.5 -8q-129 0 -200.5 66.5zM504 259q-1 89 -51 141t-150 52
q-98 0 -148.5 -54t-51.5 -139h401z" />
    <glyph glyph-name="ecircumflex" unicode="&#xea;" horiz-adv-x="607" 
d="M285 707h45l132 -156h-54l-100 121l-100 -121h-55zM126.5 51.5q-71.5 66.5 -71.5 187.5q0 118 64.5 187t183.5 69q80 0 136 -31t84.5 -86t28.5 -125v-33h-449q2 -95 63 -144t165 -49q47 0 92 8t80 23v-45q-29 -12 -79.5 -20t-96.5 -8q-129 0 -200.5 66.5zM504 259
q-1 89 -51 141t-150 52q-98 0 -148.5 -54t-51.5 -139h401z" />
    <glyph glyph-name="edieresis" unicode="&#xeb;" horiz-adv-x="607" 
d="M176.5 564.5q-11.5 11.5 -11.5 27.5t11.5 27t27.5 11q15 0 26.5 -11t11.5 -27t-11.5 -27.5t-26.5 -11.5q-16 0 -27.5 11.5zM383.5 564.5q-11.5 11.5 -11.5 27.5t11.5 27t27.5 11t27.5 -11t11.5 -27t-11.5 -27.5t-27.5 -11.5t-27.5 11.5zM126.5 51.5
q-71.5 66.5 -71.5 187.5q0 118 64.5 187t183.5 69q80 0 136 -31t84.5 -86t28.5 -125v-33h-449q2 -95 63 -144t165 -49q47 0 92 8t80 23v-45q-29 -12 -79.5 -20t-96.5 -8q-129 0 -200.5 66.5zM504 259q-1 89 -51 141t-150 52q-98 0 -148.5 -54t-51.5 -139h401z" />
    <glyph glyph-name="igrave" unicode="&#xec;" horiz-adv-x="202" 
d="M2 717h55l69 -169h-45zM75 480h52v-480h-52v480z" />
    <glyph glyph-name="iacute" unicode="&#xed;" horiz-adv-x="202" 
d="M149 717h54l-78 -169h-46zM75 480h52v-480h-52v480z" />
    <glyph glyph-name="icircumflex" unicode="&#xee;" horiz-adv-x="202" 
d="M78 707h45l132 -156h-54l-100 121l-100 -121h-55zM75 480h52v-480h-52v480z" />
    <glyph glyph-name="idieresis" unicode="&#xef;" horiz-adv-x="202" 
d="M-30.5 564.5q-11.5 11.5 -11.5 27.5t11.5 27t27.5 11q15 0 26.5 -11t11.5 -27t-11.5 -27.5t-26.5 -11.5q-16 0 -27.5 11.5zM176.5 564.5q-11.5 11.5 -11.5 27.5t11.5 27t27.5 11t27.5 -11t11.5 -27t-11.5 -27.5t-27.5 -11.5t-27.5 11.5zM75 480h52v-480h-52v480z" />
    <glyph glyph-name="eth" unicode="&#xf0;" horiz-adv-x="608" 
d="M166 13.5q-53 28.5 -82 80t-29 118.5q0 68 29 119.5t82 80t123 28.5q66 0 119.5 -31.5t79.5 -86.5q-4 99 -18 167t-43 110l-171 -78v38l148 67q-50 45 -132 45q-51 0 -84 -10v45q42 8 83 8q115 0 177 -68l105 48v-38l-84 -38q34 -53 50 -137.5t16 -203.5
q0 -94 -32.5 -160t-88 -99t-124.5 -33q-71 0 -124 28.5zM387.5 52q42.5 26 65.5 68.5t23 91.5q0 53 -25 95.5t-67 66.5t-93 24q-84 0 -135.5 -51.5t-51.5 -134.5q0 -84 51.5 -135t135.5 -51q54 0 96.5 26z" />
    <glyph glyph-name="ntilde" unicode="&#xf1;" horiz-adv-x="582" 
d="M111 608q29 44 93 44q22 0 41.5 -6t49.5 -19q25 -12 44.5 -18.5t41.5 -6.5q29 0 51.5 11.5t41.5 41.5v-51q-28 -44 -93 -44q-25 0 -46.5 6.5t-48.5 19.5q-27 12 -44 18t-38 6q-28 0 -50 -11.5t-43 -41.5v51zM75 480h51v-81q37 50 89.5 73t110.5 23q94 0 140 -49t46 -131
v-315h-53v311q0 68 -33 104.5t-107 36.5q-120 0 -192 -109v-343h-52v480z" />
    <glyph glyph-name="ograve" unicode="&#xf2;" horiz-adv-x="627" 
d="M215 717h55l69 -169h-45zM179.5 16.5q-58.5 31.5 -91.5 89t-33 133.5t33 134t91.5 90t133.5 32t133.5 -32t92 -90t33.5 -134t-33 -133.5t-92 -89t-134 -31.5t-133.5 31.5zM421 53q47 26 73 74t26 112t-26 112.5t-73 74.5t-108 26t-108 -26t-73 -74.5t-26 -112.5t26 -112
t73 -74t108 -26t108 26z" />
    <glyph glyph-name="oacute" unicode="&#xf3;" horiz-adv-x="627" 
d="M338 717h54l-78 -169h-46zM179.5 16.5q-58.5 31.5 -91.5 89t-33 133.5t33 134t91.5 90t133.5 32t133.5 -32t92 -90t33.5 -134t-33 -133.5t-92 -89t-134 -31.5t-133.5 31.5zM421 53q47 26 73 74t26 112t-26 112.5t-73 74.5t-108 26t-108 -26t-73 -74.5t-26 -112.5t26 -112
t73 -74t108 -26t108 26z" />
    <glyph glyph-name="ocircumflex" unicode="&#xf4;" horiz-adv-x="627" 
d="M291 707h45l132 -156h-54l-100 121l-100 -121h-55zM179.5 16.5q-58.5 31.5 -91.5 89t-33 133.5t33 134t91.5 90t133.5 32t133.5 -32t92 -90t33.5 -134t-33 -133.5t-92 -89t-134 -31.5t-133.5 31.5zM421 53q47 26 73 74t26 112t-26 112.5t-73 74.5t-108 26t-108 -26
t-73 -74.5t-26 -112.5t26 -112t73 -74t108 -26t108 26z" />
    <glyph glyph-name="otilde" unicode="&#xf5;" horiz-adv-x="627" 
d="M132 608q29 44 93 44q22 0 41.5 -6t49.5 -19q25 -12 44.5 -18.5t41.5 -6.5q29 0 51.5 11.5t41.5 41.5v-51q-28 -44 -93 -44q-25 0 -46.5 6.5t-48.5 19.5q-27 12 -44 18t-38 6q-28 0 -50 -11.5t-43 -41.5v51zM179.5 16.5q-58.5 31.5 -91.5 89t-33 133.5t33 134t91.5 90
t133.5 32t133.5 -32t92 -90t33.5 -134t-33 -133.5t-92 -89t-134 -31.5t-133.5 31.5zM421 53q47 26 73 74t26 112t-26 112.5t-73 74.5t-108 26t-108 -26t-73 -74.5t-26 -112.5t26 -112t73 -74t108 -26t108 26z" />
    <glyph glyph-name="odieresis" unicode="&#xf6;" horiz-adv-x="627" 
d="M182.5 564.5q-11.5 11.5 -11.5 27.5t11.5 27t27.5 11q15 0 26.5 -11t11.5 -27t-11.5 -27.5t-26.5 -11.5q-16 0 -27.5 11.5zM389.5 564.5q-11.5 11.5 -11.5 27.5t11.5 27t27.5 11t27.5 -11t11.5 -27t-11.5 -27.5t-27.5 -11.5t-27.5 11.5zM179.5 16.5q-58.5 31.5 -91.5 89
t-33 133.5t33 134t91.5 90t133.5 32t133.5 -32t92 -90t33.5 -134t-33 -133.5t-92 -89t-134 -31.5t-133.5 31.5zM421 53q47 26 73 74t26 112t-26 112.5t-73 74.5t-108 26t-108 -26t-73 -74.5t-26 -112.5t26 -112t73 -74t108 -26t108 26z" />
    <glyph glyph-name="divide" unicode="&#xf7;" horiz-adv-x="404" 
d="M176.5 397.5q-10.5 10.5 -10.5 24.5q0 15 10.5 25.5t24.5 10.5q15 0 25.5 -10.5t10.5 -25.5q0 -14 -10.5 -24.5t-25.5 -10.5q-14 0 -24.5 10.5zM55 316h294v-43h-294v43zM176.5 141q-10.5 10 -10.5 25q0 14 10.5 24.5t24.5 10.5q15 0 25.5 -10.5t10.5 -24.5
q0 -15 -10.5 -25t-25.5 -10q-14 0 -24.5 10z" />
    <glyph glyph-name="oslash" unicode="&#xf8;" horiz-adv-x="627" 
d="M196 8q-66 29 -103.5 89t-37.5 142q0 76 33 134t92 90t133 32q39 0 75 -9l32 80h52l-39 -96q65 -30 102 -90.5t37 -140.5q0 -76 -33 -133.5t-92 -89t-134 -31.5q-38 0 -71 9l-32 -80h-52zM371 445q-31 7 -58 7q-61 0 -108 -26t-73 -74.5t-26 -112.5q0 -66 28 -115.5
t78 -74.5zM421 53q47 26 73 74t26 112q0 66 -27.5 114.5t-76.5 74.5l-158 -395q26 -6 55 -6q61 0 108 26z" />
    <glyph glyph-name="ugrave" unicode="&#xf9;" horiz-adv-x="582" 
d="M202 717h55l69 -169h-45zM120 36q-50 51 -50 135v309h52v-310q0 -68 36.5 -105.5t111.5 -37.5q59 0 103.5 26t80.5 83v344h53v-480h-52v80q-67 -95 -189 -95q-96 0 -146 51z" />
    <glyph glyph-name="uacute" unicode="&#xfa;" horiz-adv-x="582" 
d="M333 717h54l-78 -169h-46zM120 36q-50 51 -50 135v309h52v-310q0 -68 36.5 -105.5t111.5 -37.5q59 0 103.5 26t80.5 83v344h53v-480h-52v80q-67 -95 -189 -95q-96 0 -146 51z" />
    <glyph glyph-name="ucircumflex" unicode="&#xfb;" horiz-adv-x="582" 
d="M260 707h45l132 -156h-54l-100 121l-100 -121h-55zM120 36q-50 51 -50 135v309h52v-310q0 -68 36.5 -105.5t111.5 -37.5q59 0 103.5 26t80.5 83v344h53v-480h-52v80q-67 -95 -189 -95q-96 0 -146 51z" />
    <glyph glyph-name="udieresis" unicode="&#xfc;" horiz-adv-x="582" 
d="M157.5 564.5q-11.5 11.5 -11.5 27.5t11.5 27t27.5 11q15 0 26.5 -11t11.5 -27t-11.5 -27.5t-26.5 -11.5q-16 0 -27.5 11.5zM364.5 564.5q-11.5 11.5 -11.5 27.5t11.5 27t27.5 11t27.5 -11t11.5 -27t-11.5 -27.5t-27.5 -11.5t-27.5 11.5zM120 36q-50 51 -50 135v309h52
v-310q0 -68 36.5 -105.5t111.5 -37.5q59 0 103.5 26t80.5 83v344h53v-480h-52v80q-67 -95 -189 -95q-96 0 -146 51z" />
    <glyph glyph-name="yacute" unicode="&#xfd;" horiz-adv-x="553" 
d="M324 717h54l-78 -169h-46zM74 -191v44q24 -9 59 -9q38 0 60 20t41 67l30 73l-209 476h55l181 -413l172 413h55l-228 -555q-27 -64 -60 -93.5t-86 -29.5q-41 0 -70 7z" />
    <glyph glyph-name="thorn" unicode="&#xfe;" horiz-adv-x="652" 
d="M75 699h52v-316q35 54 91 83t128 29q70 0 127.5 -31t90.5 -89t33 -134t-33 -134t-90.5 -90t-127.5 -32q-69 0 -129 29t-90 84v-317h-52v918zM442.5 53.5q47.5 26.5 75 75.5t27.5 112t-27.5 111t-75 74t-104.5 26q-76 0 -133 -38.5t-78 -107.5v-131q20 -69 78 -108.5
t133 -39.5q57 0 104.5 26.5z" />
    <glyph glyph-name="ydieresis" unicode="&#xff;" horiz-adv-x="553" 
d="M157.5 564.5q-11.5 11.5 -11.5 27.5t11.5 27t27.5 11q15 0 26.5 -11t11.5 -27t-11.5 -27.5t-26.5 -11.5q-16 0 -27.5 11.5zM364.5 564.5q-11.5 11.5 -11.5 27.5t11.5 27t27.5 11t27.5 -11t11.5 -27t-11.5 -27.5t-27.5 -11.5t-27.5 11.5zM74 -191v44q24 -9 59 -9
q38 0 60 20t41 67l30 73l-209 476h55l181 -413l172 413h55l-228 -555q-27 -64 -60 -93.5t-86 -29.5q-41 0 -70 7z" />
    <glyph glyph-name="Amacron" unicode="&#x100;" horiz-adv-x="715" 
d="M213 832h289v-39h-289v39zM334 699h47l279 -699h-54l-80 201h-337l-80 -201h-54zM510 246l-153 387l-152 -387h305z" />
    <glyph glyph-name="amacron" unicode="&#x101;" horiz-adv-x="558" 
d="M153 613h289v-39h-289v39zM105.5 26q-50.5 41 -50.5 115q0 77 49 117t141 40q113 0 190 -46v59q0 72 -39 106.5t-125 34.5q-80 0 -154 -31v45q30 13 73 21t84 8q109 0 161.5 -49t52.5 -138v-308h-49v69q-63 -84 -197 -84q-86 0 -136.5 41zM363.5 52.5
q48.5 24.5 71.5 67.5v89q-44 24 -86 35.5t-96 11.5q-78 0 -112.5 -28.5t-34.5 -86.5q0 -55 37 -84t112 -29q60 0 108.5 24.5z" />
    <glyph glyph-name="Abreve" unicode="&#x102;" horiz-adv-x="715" 
d="M264.5 789q-35.5 34 -35.5 85h42q0 -36 23.5 -58t63.5 -22t63.5 22t23.5 58h41q0 -51 -35.5 -85t-92.5 -34q-58 0 -93.5 34zM334 699h47l279 -699h-54l-80 201h-337l-80 -201h-54zM510 246l-153 387l-152 -387h305z" />
    <glyph glyph-name="abreve" unicode="&#x103;" horiz-adv-x="558" 
d="M210.5 591q-35.5 34 -35.5 85h42q0 -36 23.5 -58t63.5 -22t63.5 22t23.5 58h41q0 -51 -35.5 -85t-92.5 -34q-58 0 -93.5 34zM105.5 26q-50.5 41 -50.5 115q0 77 49 117t141 40q113 0 190 -46v59q0 72 -39 106.5t-125 34.5q-80 0 -154 -31v45q30 13 73 21t84 8
q109 0 161.5 -49t52.5 -138v-308h-49v69q-63 -84 -197 -84q-86 0 -136.5 41zM363.5 52.5q48.5 24.5 71.5 67.5v89q-44 24 -86 35.5t-96 11.5q-78 0 -112.5 -28.5t-34.5 -86.5q0 -55 37 -84t112 -29q60 0 108.5 24.5z" />
    <glyph glyph-name="Aogonek" unicode="&#x104;" horiz-adv-x="718" 
d="M674 -162v-37q-19 -9 -56 -9q-38 0 -63.5 21.5t-25.5 62.5q0 37 21 69.5t55 54.5h1l-80 201h-337l-80 -201h-54l279 699h47l279 -699h-5q-79 -56 -79 -119q0 -52 52 -52q24 0 46 9zM510 246l-153 387l-152 -387h305z" />
    <glyph glyph-name="aogonek" unicode="&#x105;" horiz-adv-x="569" 
d="M506 -162v-37q-19 -9 -56 -9q-38 0 -63.5 21.5t-25.5 62.5q0 37 21 69.5t55 54.5h2v69q-63 -84 -197 -84q-86 0 -136.5 41t-50.5 115q0 77 49 117t141 40q113 0 190 -46v59q0 72 -39 106.5t-125 34.5q-80 0 -154 -31v45q30 13 73 21t84 8q109 0 161.5 -49t52.5 -138v-308
h-1q-79 -56 -79 -119q0 -52 52 -52q24 0 46 9zM435 209q-44 24 -86 35.5t-96 11.5q-78 0 -112.5 -28.5t-34.5 -86.5q0 -55 37 -84t112 -29q60 0 108.5 24.5t71.5 67.5v89z" />
    <glyph glyph-name="Cacute" unicode="&#x106;" horiz-adv-x="722" 
d="M447 935h54l-78 -169h-46zM232 30.5q-83 45.5 -130 128t-47 190.5t47 191t130 128.5t187 45.5q144 0 239 -79v-53q-91 84 -236 84q-90 0 -161.5 -39t-112.5 -111t-41 -167q0 -96 41.5 -167.5t113.5 -110.5t160 -39q76 0 136 20.5t109 68.5v-53q-89 -83 -248 -83
q-104 0 -187 45.5z" />
    <glyph glyph-name="cacute" unicode="&#x107;" horiz-adv-x="546" 
d="M351 717h54l-78 -169h-46zM181.5 15.5q-58.5 30.5 -92.5 88.5t-34 135q0 76 34 134.5t93.5 90t133.5 31.5q54 0 94.5 -10t73.5 -33v-45q-34 24 -74 34.5t-91 10.5q-60 0 -108.5 -25.5t-76.5 -73.5t-28 -114t27.5 -114t75.5 -73t107 -25q54 0 95.5 12t79.5 37v-45
q-34 -24 -77.5 -35t-101.5 -11q-72 0 -130.5 30.5z" />
    <glyph glyph-name="Ccircumflex" unicode="&#x108;" horiz-adv-x="722" 
d="M388 920h45l132 -156h-54l-100 121l-100 -121h-55zM232 30.5q-83 45.5 -130 128t-47 190.5t47 191t130 128.5t187 45.5q144 0 239 -79v-53q-91 84 -236 84q-90 0 -161.5 -39t-112.5 -111t-41 -167q0 -96 41.5 -167.5t113.5 -110.5t160 -39q76 0 136 20.5t109 68.5v-53
q-89 -83 -248 -83q-104 0 -187 45.5z" />
    <glyph glyph-name="ccircumflex" unicode="&#x109;" horiz-adv-x="546" 
d="M291 707h45l132 -156h-54l-100 121l-100 -121h-55zM181.5 15.5q-58.5 30.5 -92.5 88.5t-34 135q0 76 34 134.5t93.5 90t133.5 31.5q54 0 94.5 -10t73.5 -33v-45q-34 24 -74 34.5t-91 10.5q-60 0 -108.5 -25.5t-76.5 -73.5t-28 -114t27.5 -114t75.5 -73t107 -25
q54 0 95.5 12t79.5 37v-45q-34 -24 -77.5 -35t-101.5 -11q-72 0 -130.5 30.5z" />
    <glyph glyph-name="Cdotaccent" unicode="&#x10a;" horiz-adv-x="722" 
d="M390.5 782.5q-11.5 11.5 -11.5 27.5t11.5 27t27.5 11q15 0 26.5 -11t11.5 -27t-11.5 -27.5t-26.5 -11.5q-16 0 -27.5 11.5zM232 30.5q-83 45.5 -130 128t-47 190.5t47 191t130 128.5t187 45.5q144 0 239 -79v-53q-91 84 -236 84q-90 0 -161.5 -39t-112.5 -111t-41 -167
q0 -96 41.5 -167.5t113.5 -110.5t160 -39q76 0 136 20.5t109 68.5v-53q-89 -83 -248 -83q-104 0 -187 45.5z" />
    <glyph glyph-name="cdotaccent" unicode="&#x10b;" horiz-adv-x="546" 
d="M285.5 564.5q-11.5 11.5 -11.5 27.5t11.5 27t27.5 11q15 0 26.5 -11t11.5 -27t-11.5 -27.5t-26.5 -11.5q-16 0 -27.5 11.5zM181.5 15.5q-58.5 30.5 -92.5 88.5t-34 135q0 76 34 134.5t93.5 90t133.5 31.5q54 0 94.5 -10t73.5 -33v-45q-34 24 -74 34.5t-91 10.5
q-60 0 -108.5 -25.5t-76.5 -73.5t-28 -114t27.5 -114t75.5 -73t107 -25q54 0 95.5 12t79.5 37v-45q-34 -24 -77.5 -35t-101.5 -11q-72 0 -130.5 30.5z" />
    <glyph glyph-name="Ccaron" unicode="&#x10c;" horiz-adv-x="722" 
d="M262 925h55l100 -121l100 121h54l-132 -156h-45zM232 30.5q-83 45.5 -130 128t-47 190.5t47 191t130 128.5t187 45.5q144 0 239 -79v-53q-91 84 -236 84q-90 0 -161.5 -39t-112.5 -111t-41 -167q0 -96 41.5 -167.5t113.5 -110.5t160 -39q76 0 136 20.5t109 68.5v-53
q-89 -83 -248 -83q-104 0 -187 45.5z" />
    <glyph glyph-name="ccaron" unicode="&#x10d;" horiz-adv-x="546" 
d="M158 707h55l100 -121l100 121h54l-132 -156h-45zM181.5 15.5q-58.5 30.5 -92.5 88.5t-34 135q0 76 34 134.5t93.5 90t133.5 31.5q54 0 94.5 -10t73.5 -33v-45q-34 24 -74 34.5t-91 10.5q-60 0 -108.5 -25.5t-76.5 -73.5t-28 -114t27.5 -114t75.5 -73t107 -25
q54 0 95.5 12t79.5 37v-45q-34 -24 -77.5 -35t-101.5 -11q-72 0 -130.5 30.5z" />
    <glyph glyph-name="Dcaron" unicode="&#x10e;" horiz-adv-x="698" 
d="M140 925h55l100 -121l100 121h54l-132 -156h-45zM75 699h207q112 0 193.5 -42t124.5 -120t43 -184q0 -175 -99 -264t-281 -89h-188v699zM255 45q336 0 336 308q0 142 -80.5 221.5t-232.5 79.5h-150v-609h127z" />
    <glyph glyph-name="dcaron" unicode="&#x10f;" horiz-adv-x="776" 
d="M704 769h47l-80 -172h-40zM178 -1q-57 31 -90 88.5t-33 134.5q0 76 33 134t90 90t127 32q71 0 131.5 -31t88.5 -88v363h52v-739h-51v104q-33 -57 -90 -88t-131 -31q-70 0 -127 31zM447 49q57 38 78 106v134q-20 68 -78 107t-134 39q-57 0 -104 -26t-74.5 -74.5
t-27.5 -112.5q0 -63 27.5 -111t74.5 -74t104 -26q77 0 134 38z" />
    <glyph glyph-name="Dcroat" unicode="&#x110;" horiz-adv-x="727" 
d="M104 328h-74v42h74v329h208q111 0 192.5 -42t124.5 -120t43 -184q0 -175 -99 -264t-281 -89h-188v328zM285 47q168 0 251.5 77t83.5 229q0 141 -82 219.5t-231 78.5h-150v-281h212v-42h-212v-281h128z" />
    <glyph glyph-name="dcroat" unicode="&#x111;" horiz-adv-x="670" 
d="M178 16q-57 31 -90 88.5t-33 134.5q0 75 33 133.5t90 90.5t127 32q72 0 130.5 -29t88.5 -84v179h-224v42h224v136h53v-136h63v-42h-63v-561h-52v98q-72 -113 -220 -113q-70 0 -127 31zM445.5 65.5q56.5 38.5 78.5 107.5v131q-19 69 -76.5 108.5t-134.5 39.5
q-57 0 -104.5 -26.5t-75 -75t-27.5 -111.5t27.5 -111t75 -74.5t104.5 -26.5q76 0 132.5 38.5z" />
    <glyph glyph-name="Emacron" unicode="&#x112;" horiz-adv-x="568" 
d="M147 832h289v-39h-289v39zM75 699h438v-45h-385v-282h291v-45h-291v-282h385v-45h-438v699z" />
    <glyph glyph-name="emacron" unicode="&#x113;" horiz-adv-x="607" 
d="M159 613h289v-39h-289v39zM126.5 51.5q-71.5 66.5 -71.5 187.5q0 118 64.5 187t183.5 69q80 0 136 -31t84.5 -86t28.5 -125v-33h-449q2 -95 63 -144t165 -49q47 0 92 8t80 23v-45q-29 -12 -79.5 -20t-96.5 -8q-129 0 -200.5 66.5zM504 259q-1 89 -51 141t-150 52
q-98 0 -148.5 -54t-51.5 -139h401z" />
    <glyph glyph-name="Ebreve" unicode="&#x114;" horiz-adv-x="568" 
d="M195.5 789q-35.5 34 -35.5 85h42q0 -36 23.5 -58t63.5 -22t63.5 22t23.5 58h41q0 -51 -35.5 -85t-92.5 -34q-58 0 -93.5 34zM75 699h438v-45h-385v-282h291v-45h-291v-282h385v-45h-438v699z" />
    <glyph glyph-name="ebreve" unicode="&#x115;" horiz-adv-x="607" 
d="M213.5 576q-35.5 34 -35.5 85h42q0 -36 23.5 -58t63.5 -22t63.5 22t23.5 58h41q0 -51 -35.5 -85t-92.5 -34q-58 0 -93.5 34zM126.5 51.5q-71.5 66.5 -71.5 187.5q0 118 64.5 187t183.5 69q80 0 136 -31t84.5 -86t28.5 -125v-33h-449q2 -95 63 -144t165 -49q47 0 92 8
t80 23v-45q-29 -12 -79.5 -20t-96.5 -8q-129 0 -200.5 66.5zM504 259q-1 89 -51 141t-150 52q-98 0 -148.5 -54t-51.5 -139h401z" />
    <glyph glyph-name="Edotaccent" unicode="&#x116;" horiz-adv-x="568" 
d="M253.5 781.5q-11.5 11.5 -11.5 27.5t11.5 27t27.5 11q15 0 26.5 -11t11.5 -27t-11.5 -27.5t-26.5 -11.5q-16 0 -27.5 11.5zM75 699h438v-45h-385v-282h291v-45h-291v-282h385v-45h-438v699z" />
    <glyph glyph-name="edotaccent" unicode="&#x117;" horiz-adv-x="607" 
d="M286.5 570.5q-11.5 11.5 -11.5 27.5t11.5 27t27.5 11q15 0 26.5 -11t11.5 -27t-11.5 -27.5t-26.5 -11.5q-16 0 -27.5 11.5zM126.5 51.5q-71.5 66.5 -71.5 187.5q0 118 64.5 187t183.5 69q80 0 136 -31t84.5 -86t28.5 -125v-33h-449q2 -95 63 -144t165 -49q47 0 92 8
t80 23v-45q-29 -12 -79.5 -20t-96.5 -8q-129 0 -200.5 66.5zM504 259q-1 89 -51 141t-150 52q-98 0 -148.5 -54t-51.5 -139h401z" />
    <glyph glyph-name="Eogonek" unicode="&#x118;" horiz-adv-x="568" 
d="M128 654v-282h291v-45h-291v-282h385v-45h-36q-79 -56 -79 -119q0 -52 52 -52q24 0 46 9v-37q-20 -9 -56 -9q-38 0 -63.5 21.5t-25.5 62.5q0 37 21 69.5t55 54.5h-352v699h438v-45h-385z" />
    <glyph glyph-name="eogonek" unicode="&#x119;" horiz-adv-x="607" 
d="M552 220h-449q2 -95 63 -144t165 -49q47 0 92 8t80 23v-45q-25 -10 -71 -18q-35 -27 -53.5 -54.5t-18.5 -59.5q0 -52 52 -52q24 0 46 9v-37q-20 -9 -56 -9q-38 0 -63.5 21.5t-25.5 62.5q0 32 16 61t42 50q-30 -2 -44 -2q-129 0 -200.5 66.5t-71.5 187.5q0 118 64.5 187
t183.5 69q80 0 136 -31t84.5 -86t28.5 -125v-33zM504 259q-1 89 -51 141t-150 52q-98 0 -148.5 -54t-51.5 -139h401z" />
    <glyph glyph-name="Ecaron" unicode="&#x11a;" horiz-adv-x="568" 
d="M128 925h55l100 -121l100 121h54l-132 -156h-45zM75 699h438v-45h-385v-282h291v-45h-291v-282h385v-45h-438v699z" />
    <glyph glyph-name="ecaron" unicode="&#x11b;" horiz-adv-x="607" 
d="M156 707h55l100 -121l100 121h54l-132 -156h-45zM126.5 51.5q-71.5 66.5 -71.5 187.5q0 118 64.5 187t183.5 69q80 0 136 -31t84.5 -86t28.5 -125v-33h-449q2 -95 63 -144t165 -49q47 0 92 8t80 23v-45q-29 -12 -79.5 -20t-96.5 -8q-129 0 -200.5 66.5zM504 259
q-1 89 -51 141t-150 52q-98 0 -148.5 -54t-51.5 -139h401z" />
    <glyph glyph-name="Gcircumflex" unicode="&#x11c;" horiz-adv-x="724" 
d="M390 914h45l132 -156h-54l-100 121l-100 -121h-55zM232 30.5q-83 45.5 -130 128t-47 190.5t47 191t130 128.5t187 45.5q145 0 238 -78v-53q-87 83 -235 83q-90 0 -161.5 -39t-112.5 -111t-41 -167q0 -96 41.5 -168t113 -110.5t159.5 -38.5q61 0 107.5 13.5t87.5 44.5v235
h-162v45h215v-302q-89 -83 -250 -83q-104 0 -187 45.5z" />
    <glyph glyph-name="gcircumflex" unicode="&#x11d;" horiz-adv-x="652" 
d="M313 707h45l132 -156h-54l-100 121l-100 -121h-55zM225.5 -221.5q-45.5 8.5 -75.5 22.5v45q73 -34 170 -34q103 0 153.5 48.5t50.5 146.5v89q-31 -55 -88 -83t-130 -28q-70 0 -127.5 31.5t-90.5 89.5t-33 134t33 134t90 89.5t127 31.5q76 0 130.5 -27t89.5 -83v95h52
v-465q0 -245 -257 -245q-49 0 -94.5 8.5zM447 66.5q58 39.5 77 108.5v131q-21 69 -78.5 107.5t-132.5 38.5q-57 0 -104 -26.5t-75 -74.5t-28 -111t28 -111.5t75 -75t104 -26.5q76 0 134 39.5z" />
    <glyph glyph-name="Gbreve" unicode="&#x11e;" horiz-adv-x="724" 
d="M319.5 777q-35.5 34 -35.5 85h42q0 -36 23.5 -58t63.5 -22t63.5 22t23.5 58h41q0 -51 -35.5 -85t-92.5 -34q-58 0 -93.5 34zM232 30.5q-83 45.5 -130 128t-47 190.5t47 191t130 128.5t187 45.5q145 0 238 -78v-53q-87 83 -235 83q-90 0 -161.5 -39t-112.5 -111t-41 -167
q0 -96 41.5 -168t113 -110.5t159.5 -38.5q61 0 107.5 13.5t87.5 44.5v235h-162v45h215v-302q-89 -83 -250 -83q-104 0 -187 45.5z" />
    <glyph glyph-name="gbreve" unicode="&#x11f;" horiz-adv-x="652" 
d="M228.5 576q-35.5 34 -35.5 85h42q0 -36 23.5 -58t63.5 -22t63.5 22t23.5 58h41q0 -51 -35.5 -85t-92.5 -34q-58 0 -93.5 34zM225.5 -221.5q-45.5 8.5 -75.5 22.5v45q73 -34 170 -34q103 0 153.5 48.5t50.5 146.5v89q-31 -55 -88 -83t-130 -28q-70 0 -127.5 31.5
t-90.5 89.5t-33 134t33 134t90 89.5t127 31.5q76 0 130.5 -27t89.5 -83v95h52v-465q0 -245 -257 -245q-49 0 -94.5 8.5zM447 66.5q58 39.5 77 108.5v131q-21 69 -78.5 107.5t-132.5 38.5q-57 0 -104 -26.5t-75 -74.5t-28 -111t28 -111.5t75 -75t104 -26.5q76 0 134 39.5z
" />
    <glyph glyph-name="Gdotaccent" unicode="&#x120;" horiz-adv-x="724" 
d="M387.5 763.5q-11.5 11.5 -11.5 27.5t11.5 27t27.5 11q15 0 26.5 -11t11.5 -27t-11.5 -27.5t-26.5 -11.5q-16 0 -27.5 11.5zM232 30.5q-83 45.5 -130 128t-47 190.5t47 191t130 128.5t187 45.5q145 0 238 -78v-53q-87 83 -235 83q-90 0 -161.5 -39t-112.5 -111t-41 -167
q0 -96 41.5 -168t113 -110.5t159.5 -38.5q61 0 107.5 13.5t87.5 44.5v235h-162v45h215v-302q-89 -83 -250 -83q-104 0 -187 45.5z" />
    <glyph glyph-name="gdotaccent" unicode="&#x121;" horiz-adv-x="652" 
d="M303.5 571.5q-11.5 11.5 -11.5 27.5t11.5 27t27.5 11q15 0 26.5 -11t11.5 -27t-11.5 -27.5t-26.5 -11.5q-16 0 -27.5 11.5zM225.5 -221.5q-45.5 8.5 -75.5 22.5v45q73 -34 170 -34q103 0 153.5 48.5t50.5 146.5v89q-31 -55 -88 -83t-130 -28q-70 0 -127.5 31.5
t-90.5 89.5t-33 134t33 134t90 89.5t127 31.5q76 0 130.5 -27t89.5 -83v95h52v-465q0 -245 -257 -245q-49 0 -94.5 8.5zM447 66.5q58 39.5 77 108.5v131q-21 69 -78.5 107.5t-132.5 38.5q-57 0 -104 -26.5t-75 -74.5t-28 -111t28 -111.5t75 -75t104 -26.5q76 0 134 39.5z
" />
    <glyph glyph-name="Gcommaaccent" unicode="&#x122;" horiz-adv-x="724" 
d="M232 30.5q-83 45.5 -130 128t-47 190.5t47 191t130 128.5t187 45.5q145 0 238 -78v-53q-87 83 -235 83q-90 0 -161.5 -39t-112.5 -111t-41 -167q0 -96 41.5 -168t113 -110.5t159.5 -38.5q61 0 107.5 13.5t87.5 44.5v235h-162v45h215v-302q-89 -83 -250 -83
q-104 0 -187 45.5zM389 -67h56l-88 -193h-47z" />
    <glyph glyph-name="gcommaaccent" unicode="&#x123;" horiz-adv-x="652" 
d="M378 747h47l-79 -193h-56zM225.5 -221.5q-45.5 8.5 -75.5 22.5v45q73 -34 170 -34q103 0 153.5 48.5t50.5 146.5v89q-31 -55 -88 -83t-130 -28q-70 0 -127.5 31.5t-90.5 89.5t-33 134t33 134t90 89.5t127 31.5q76 0 130.5 -27t89.5 -83v95h52v-465q0 -245 -257 -245
q-49 0 -94.5 8.5zM447 66.5q58 39.5 77 108.5v131q-21 69 -78.5 107.5t-132.5 38.5q-57 0 -104 -26.5t-75 -74.5t-28 -111t28 -111.5t75 -75t104 -26.5q76 0 134 39.5z" />
    <glyph glyph-name="Hcircumflex" unicode="&#x124;" horiz-adv-x="681" 
d="M318 926h45l132 -156h-54l-100 121l-100 -121h-55zM75 699h53v-320h425v320h53v-699h-53v334h-425v-334h-53v699z" />
    <glyph glyph-name="hcircumflex" unicode="&#x125;" horiz-adv-x="582" 
d="M212 940h45l132 -156h-54l-100 121l-100 -121h-55zM75 739h52v-339q38 51 89.5 73t109.5 22q94 0 140 -49t46 -131v-315h-53v311q0 68 -33 104.5t-107 36.5q-120 0 -192 -109v-343h-52v739z" />
    <glyph glyph-name="Hbar" unicode="&#x126;" horiz-adv-x="709" 
d="M83 515h-48v43h48v141h53v-141h425v141h53v-141h60v-43h-60v-515h-53v333h-425v-333h-53v515zM561 380v135h-425v-135h425z" />
    <glyph glyph-name="hbar" unicode="&#x127;" horiz-adv-x="590" 
d="M83 585h-48v41h48v113h52v-113h193v-41h-193v-185q38 51 89.5 73t109.5 22q94 0 140 -49t46 -131v-315h-53v311q0 68 -33 104.5t-107 36.5q-120 0 -192 -109v-343h-52v585z" />
    <glyph glyph-name="Itilde" unicode="&#x128;" horiz-adv-x="204" 
d="M-80 815q29 44 93 44q22 0 41.5 -6t49.5 -19q25 -12 44.5 -18.5t41.5 -6.5q29 0 51.5 11.5t41.5 41.5v-51q-28 -44 -93 -44q-25 0 -46.5 6.5t-48.5 19.5q-27 12 -44 18t-38 6q-28 0 -50 -11.5t-43 -41.5v51zM75 699h53v-699h-53v699z" />
    <glyph glyph-name="itilde" unicode="&#x129;" horiz-adv-x="202" 
d="M-81 608q29 44 93 44q22 0 41.5 -6t49.5 -19q25 -12 44.5 -18.5t41.5 -6.5q29 0 51.5 11.5t41.5 41.5v-51q-28 -44 -93 -44q-25 0 -46.5 6.5t-48.5 19.5q-27 12 -44 18t-38 6q-28 0 -50 -11.5t-43 -41.5v51zM75 480h52v-480h-52v480z" />
    <glyph glyph-name="Imacron" unicode="&#x12a;" horiz-adv-x="204" 
d="M-45 804h292v-41h-292v41zM75 699h53v-699h-53v699z" />
    <glyph glyph-name="imacron" unicode="&#x12b;" horiz-adv-x="202" 
d="M-45 615h292v-41h-292v41zM75 480h52v-480h-52v480z" />
    <glyph glyph-name="Ibreve" unicode="&#x12c;" horiz-adv-x="204" 
d="M8.5 793q-35.5 34 -35.5 85h42q0 -36 23.5 -58t63.5 -22t63.5 22t23.5 58h41q0 -51 -35.5 -85t-92.5 -34q-58 0 -93.5 34zM75 699h53v-699h-53v699z" />
    <glyph glyph-name="ibreve" unicode="&#x12d;" horiz-adv-x="202" 
d="M7.5 576q-35.5 34 -35.5 85h42q0 -36 23.5 -58t63.5 -22t63.5 22t23.5 58h41q0 -51 -35.5 -85t-92.5 -34q-58 0 -93.5 34zM75 480h52v-480h-52v480z" />
    <glyph glyph-name="Iogonek" unicode="&#x12e;" horiz-adv-x="204" 
d="M146 -162v-37q-20 -9 -56 -9q-38 0 -63.5 21.5t-25.5 62.5q0 37 21 69.5t55 54.5h-2v699h53v-699h-1q-79 -56 -79 -119q0 -52 52 -52q24 0 46 9z" />
    <glyph glyph-name="iogonek" unicode="&#x12f;" horiz-adv-x="224" 
d="M85.5 604.5q-10.5 10.5 -10.5 26.5q0 15 10.5 26t26.5 11q15 0 26 -11t11 -26q0 -16 -11 -26.5t-26 -10.5q-16 0 -26.5 10.5zM156 -162v-37q-19 -9 -56 -9q-38 0 -63.5 21.5t-25.5 62.5q0 37 21 69.5t55 54.5h-1v480h52v-480h-1q-79 -56 -79 -119q0 -52 52 -52q24 0 46 9
z" />
    <glyph glyph-name="Idotaccent" unicode="&#x130;" horiz-adv-x="204" 
d="M74.5 763.5q-11.5 11.5 -11.5 27.5t11.5 27t27.5 11q15 0 26.5 -11t11.5 -27t-11.5 -27.5t-26.5 -11.5q-16 0 -27.5 11.5zM75 699h53v-699h-53v699z" />
    <glyph glyph-name="dotlessi" unicode="&#x131;" horiz-adv-x="202" 
d="M75 480h52v-480h-52v480z" />
    <glyph glyph-name="IJ" unicode="&#x132;" horiz-adv-x="573" 
d="M75 699h53v-699h-53v699zM293 -11.5q-27 3.5 -42 9.5v46q15 -6 40 -9.5t44 -3.5q115 0 115 113v555h53v-558q0 -76 -44 -116t-114 -40q-25 0 -52 3.5z" />
    <glyph glyph-name="ij" unicode="&#x133;" horiz-adv-x="388" 
d="M85.5 604.5q-10.5 10.5 -10.5 26.5q0 15 10.5 26t26.5 11q15 0 26 -11t11 -26q0 -16 -11 -26.5t-26 -10.5q-16 0 -26.5 10.5zM249 604.5q-11 10.5 -11 26.5q0 15 11 26t26 11q16 0 27 -11t11 -26q0 -16 -11 -26.5t-27 -10.5q-15 0 -26 10.5zM86 480h52v-480h-52v480z
M102 -224v45q27 -10 54 -10q51 0 72 24t21 79v566h53v-565q0 -74 -36 -110t-100 -36q-39 0 -64 7z" />
    <glyph glyph-name="Jcircumflex" unicode="&#x134;" horiz-adv-x="357" 
d="M237 914h45l132 -156h-54l-100 121l-100 -121h-55zM77 -11.5q-27 3.5 -42 9.5v46q15 -6 40 -9.5t44 -3.5q115 0 115 113v555h53v-558q0 -76 -44 -116t-114 -40q-25 0 -52 3.5z" />
    <glyph glyph-name="jcircumflex" unicode="&#x135;" horiz-adv-x="210" 
d="M86 707h45l132 -156h-54l-100 121l-100 -121h-55zM-65 -224v45q27 -10 54 -10q51 0 72 24t21 79v566h53v-565q0 -74 -36 -110t-100 -36q-39 0 -64 7z" />
    <glyph glyph-name="Kcommaaccent" unicode="&#x136;" horiz-adv-x="622" 
d="M75 699h53v-342l342 342h67l-345 -345l367 -354h-68l-363 351v-351h-53v699zM259 -67h56l-88 -193h-47z" />
    <glyph glyph-name="kcommaaccent" unicode="&#x137;" horiz-adv-x="517" 
d="M75 739h52v-495l243 236h69l-247 -239l270 -241h-69l-266 238v-238h-52v739zM228 -67h56l-88 -193h-47z" />
    <glyph glyph-name="kgreenlandic" unicode="&#x138;" horiz-adv-x="501" 
d="M75 480h51v-236l242 236h66l-248 -240l270 -240h-66l-264 236v-236h-51v480z" />
    <glyph glyph-name="Lacute" unicode="&#x139;" horiz-adv-x="546" 
d="M148 933h54l-78 -169h-46zM75 699h53v-654h385v-45h-438v699z" />
    <glyph glyph-name="lacute" unicode="&#x13a;" horiz-adv-x="202" 
d="M150 936h54l-79 -169h-46zM75 719h52v-719h-52v719z" />
    <glyph glyph-name="Lcommaaccent" unicode="&#x13b;" horiz-adv-x="546" 
d="M75 699h53v-654h385v-45h-438v699zM268 -67h56l-88 -193h-47z" />
    <glyph glyph-name="lcommaaccent" unicode="&#x13c;" horiz-adv-x="207" 
d="M78 739h52v-739h-52v739zM76 -67h56l-88 -193h-47z" />
    <glyph glyph-name="Lcaron" unicode="&#x13d;" horiz-adv-x="546" 
d="M75 699h53v-654h385v-45h-438v699zM328 695h56l-88 -193h-47z" />
    <glyph glyph-name="lcaron" unicode="&#x13e;" horiz-adv-x="376" 
d="M75 739h52v-739h-52v739zM265 738h56l-88 -193h-47z" />
    <glyph glyph-name="Ldot" unicode="&#x13f;" horiz-adv-x="546" 
d="M75 699h53v-654h385v-45h-438v699zM305.5 347.5q-11.5 11.5 -11.5 27.5t11.5 27t27.5 11q15 0 26.5 -11t11.5 -27t-11.5 -27.5t-26.5 -11.5q-16 0 -27.5 11.5z" />
    <glyph glyph-name="ldot" unicode="&#x140;" horiz-adv-x="300" 
d="M75 739h52v-739h-52v739zM211.5 352.5q-11.5 11.5 -11.5 27.5t11.5 27t27.5 11q15 0 26.5 -11t11.5 -27t-11.5 -27.5t-26.5 -11.5q-16 0 -27.5 11.5z" />
    <glyph glyph-name="Lslash" unicode="&#x141;" horiz-adv-x="612" 
d="M143 323l-118 -53v48l118 52v329h53v-305l175 78v-47l-175 -79v-301h386v-45h-439v323z" />
    <glyph glyph-name="lslash" unicode="&#x142;" horiz-adv-x="316" 
d="M58 150l-4 1l1 4l-2 7l106 268l63 166l2 -1l7 16l8 -21l21 -6l-168 -445l-18 6l-7 -18z" />
    <glyph glyph-name="Nacute" unicode="&#x143;" horiz-adv-x="670" 
d="M386 929h54l-78 -169h-46zM75 699h50l417 -607v607h53v-699h-49l-418 608v-608h-53v699z" />
    <glyph glyph-name="nacute" unicode="&#x144;" horiz-adv-x="582" 
d="M342 737h54l-78 -169h-46zM75 480h51v-81q37 50 89.5 73t110.5 23q94 0 140 -49t46 -131v-315h-53v311q0 68 -33 104.5t-107 36.5q-120 0 -192 -109v-343h-52v480z" />
    <glyph glyph-name="Ncommaaccent" unicode="&#x145;" horiz-adv-x="670" 
d="M75 699h50l417 -607v607h53v-699h-49l-418 608v-608h-53v699zM331 -67h56l-88 -193h-47z" />
    <glyph glyph-name="ncommaaccent" unicode="&#x146;" horiz-adv-x="582" 
d="M75 480h51v-81q37 50 89.5 73t110.5 23q94 0 140 -49t46 -131v-315h-53v311q0 68 -33 104.5t-107 36.5q-120 0 -192 -109v-343h-52v480zM288 -67h56l-88 -193h-47z" />
    <glyph glyph-name="Ncaron" unicode="&#x147;" horiz-adv-x="670" 
d="M183 919h55l100 -121l100 121h54l-132 -156h-45zM75 699h50l417 -607v607h53v-699h-49l-418 608v-608h-53v699z" />
    <glyph glyph-name="ncaron" unicode="&#x148;" horiz-adv-x="582" 
d="M146 707h55l100 -121l100 121h54l-132 -156h-45zM75 480h51v-81q37 50 89.5 73t110.5 23q94 0 140 -49t46 -131v-315h-53v311q0 68 -33 104.5t-107 36.5q-120 0 -192 -109v-343h-52v480z" />
    <glyph glyph-name="napostrophe" unicode="&#x149;" horiz-adv-x="659" 
d="M119 696h56l-88 -193h-47zM152 480h51v-81q37 50 89.5 73t110.5 23q94 0 140 -49t46 -131v-315h-53v311q0 68 -33 104.5t-107 36.5q-120 0 -192 -109v-343h-52v480z" />
    <glyph glyph-name="Eng" unicode="&#x14a;" horiz-adv-x="670" 
d="M395 -224v45q27 -10 54 -10q52 0 73 24.5t21 78.5v90l-415 604v-608h-53v699h50l417 -607v607h53v-784q0 -74 -35.5 -110t-100.5 -36q-39 0 -64 7z" />
    <glyph glyph-name="eng" unicode="&#x14b;" horiz-adv-x="582" 
d="M312 -224v45q27 -10 54 -10q51 0 72 24t21 79v397q0 68 -33 104.5t-107 36.5q-120 0 -192 -109v-343h-52v480h51v-81q37 50 89.5 73t110.5 23q94 0 140 -49t46 -131v-380q0 -86 -33 -126t-103 -40q-39 0 -64 7z" />
    <glyph glyph-name="Omacron" unicode="&#x14c;" horiz-adv-x="837" 
d="M265 826h289v-39h-289v39zM232.5 30.5q-82.5 45.5 -130 128.5t-47.5 190t47.5 190t130 129t185.5 46t186 -46t130.5 -129t47.5 -190t-47.5 -190t-130.5 -128.5t-186 -45.5t-185.5 45.5zM575.5 71q71.5 39 113 111t41.5 167q0 94 -41 166t-111.5 111.5t-157.5 39.5
t-158.5 -39t-113 -111t-41.5 -167t41.5 -167t112.5 -111t157 -39t157.5 39z" />
    <glyph glyph-name="omacron" unicode="&#x14d;" horiz-adv-x="627" 
d="M169 613h289v-39h-289v39zM179.5 16.5q-58.5 31.5 -91.5 89t-33 133.5t33 134t91.5 90t133.5 32t133.5 -32t92 -90t33.5 -134t-33 -133.5t-92 -89t-134 -31.5t-133.5 31.5zM421 53q47 26 73 74t26 112t-26 112.5t-73 74.5t-108 26t-108 -26t-73 -74.5t-26 -112.5t26 -112
t73 -74t108 -26t108 26z" />
    <glyph glyph-name="Obreve" unicode="&#x14e;" horiz-adv-x="837" 
d="M325.5 783q-35.5 34 -35.5 85h42q0 -36 23.5 -58t63.5 -22t63.5 22t23.5 58h41q0 -51 -35.5 -85t-92.5 -34q-58 0 -93.5 34zM232.5 30.5q-82.5 45.5 -130 128.5t-47.5 190t47.5 190t130 129t185.5 46t186 -46t130.5 -129t47.5 -190t-47.5 -190t-130.5 -128.5t-186 -45.5
t-185.5 45.5zM575.5 71q71.5 39 113 111t41.5 167q0 94 -41 166t-111.5 111.5t-157.5 39.5t-158.5 -39t-113 -111t-41.5 -167t41.5 -167t112.5 -111t157 -39t157.5 39z" />
    <glyph glyph-name="obreve" unicode="&#x14f;" horiz-adv-x="627" 
d="M220.5 571q-35.5 34 -35.5 85h42q0 -36 23.5 -58t63.5 -22t63.5 22t23.5 58h41q0 -51 -35.5 -85t-92.5 -34q-58 0 -93.5 34zM179.5 16.5q-58.5 31.5 -91.5 89t-33 133.5t33 134t91.5 90t133.5 32t133.5 -32t92 -90t33.5 -134t-33 -133.5t-92 -89t-134 -31.5t-133.5 31.5z
M421 53q47 26 73 74t26 112t-26 112.5t-73 74.5t-108 26t-108 -26t-73 -74.5t-26 -112.5t26 -112t73 -74t108 -26t108 26z" />
    <glyph glyph-name="Ohungarumlaut" unicode="&#x150;" horiz-adv-x="837" 
d="M360 929h54l-78 -169h-46zM538 929h55l-79 -169h-45zM232.5 30.5q-82.5 45.5 -130 128.5t-47.5 190t47.5 190t130 129t185.5 46t186 -46t130.5 -129t47.5 -190t-47.5 -190t-130.5 -128.5t-186 -45.5t-185.5 45.5zM575.5 71q71.5 39 113 111t41.5 167q0 94 -41 166
t-111.5 111.5t-157.5 39.5t-158.5 -39t-113 -111t-41.5 -167t41.5 -167t112.5 -111t157 -39t157.5 39z" />
    <glyph glyph-name="ohungarumlaut" unicode="&#x151;" horiz-adv-x="627" 
d="M259 717h54l-78 -169h-46zM437 717h55l-79 -169h-45zM179.5 16.5q-58.5 31.5 -91.5 89t-33 133.5t33 134t91.5 90t133.5 32t133.5 -32t92 -90t33.5 -134t-33 -133.5t-92 -89t-134 -31.5t-133.5 31.5zM421 53q47 26 73 74t26 112t-26 112.5t-73 74.5t-108 26t-108 -26
t-73 -74.5t-26 -112.5t26 -112t73 -74t108 -26t108 26z" />
    <glyph glyph-name="OE" unicode="&#x152;" horiz-adv-x="887" 
d="M233.5 42q-83.5 42 -131 121.5t-47.5 185.5q0 107 47.5 186.5t131 121.5t187.5 42h411v-45h-329v-282h235v-45h-235v-282h329v-45h-411q-104 0 -187.5 42zM450 45v609h-31q-88 0 -159 -36t-112 -105t-41 -164t41.5 -164t112.5 -104.5t158 -35.5h31z" />
    <glyph glyph-name="oe" unicode="&#x153;" horiz-adv-x="1075" 
d="M571 220v-12q6 -89 66 -135t161 -46q47 0 92 8t80 23v-45q-29 -12 -79.5 -20t-96.5 -8q-92 0 -155.5 34.5t-92.5 98.5q-31 -62 -92.5 -97.5t-140.5 -35.5q-75 0 -133.5 31.5t-91.5 89t-33 133.5t33 134t91.5 90t133.5 32q78 0 139 -35t93 -98q27 64 84 98.5t141 34.5
q80 0 136 -31t84.5 -86t28.5 -125v-33h-448zM421 53q47 26 73 74t26 112t-26 112.5t-73 74.5t-108 26t-108 -26t-73 -74.5t-26 -112.5t26 -112t73 -74t108 -26t108 26zM625.5 401.5q-50.5 -50.5 -55.5 -130.5q1 -4 1 -12h400q-1 89 -51 141t-150 52q-94 0 -144.5 -50.5z" />
    <glyph glyph-name="Racute" unicode="&#x154;" horiz-adv-x="601" 
d="M303 929h54l-78 -169h-46zM75 699h259q212 0 212 -192q0 -77 -47 -128t-133 -60l179 -319h-55l-178 318h-184v-318h-53v699zM330 363q77 0 120.5 37t43.5 107q0 80 -42.5 113.5t-120.5 33.5h-203v-291h202z" />
    <glyph glyph-name="racute" unicode="&#x155;" horiz-adv-x="385" 
d="M224 717h54l-78 -169h-46zM75 480h51v-102q60 102 224 102v-43q-177 0 -223 -128v-309h-52v480z" />
    <glyph glyph-name="Rcommaaccent" unicode="&#x156;" horiz-adv-x="601" 
d="M75 699h259q212 0 212 -192q0 -77 -47 -128t-133 -60l179 -319h-55l-178 318h-184v-318h-53v699zM330 363q77 0 120.5 37t43.5 107q0 80 -42.5 113.5t-120.5 33.5h-203v-291h202zM258 -67h56l-88 -193h-47z" />
    <glyph glyph-name="rcommaaccent" unicode="&#x157;" horiz-adv-x="395" 
d="M85 480h51v-102q60 102 224 102v-43q-177 0 -223 -128v-309h-52v480zM88 -67h56l-88 -193h-47z" />
    <glyph glyph-name="Rcaron" unicode="&#x158;" horiz-adv-x="601" 
d="M127 919h55l100 -121l100 121h54l-132 -156h-45zM75 699h259q212 0 212 -192q0 -77 -47 -128t-133 -60l179 -319h-55l-178 318h-184v-318h-53v699zM330 363q77 0 120.5 37t43.5 107q0 80 -42.5 113.5t-120.5 33.5h-203v-291h202z" />
    <glyph glyph-name="rcaron" unicode="&#x159;" horiz-adv-x="389" 
d="M33 707h55l100 -121l100 121h54l-132 -156h-45zM79 480h51v-102q60 102 224 102v-43q-177 0 -223 -128v-309h-52v480z" />
    <glyph glyph-name="Sacute" unicode="&#x15a;" horiz-adv-x="549" 
d="M323 929h54l-78 -169h-46zM143 -6q-54 9 -88 25v50q87 -37 196 -37q98 0 144.5 33.5t46.5 100.5q0 45 -19 73t-56.5 48t-115.5 50q-100 38 -144 84t-44 119q0 52 27.5 91.5t77.5 61t115 21.5q52 0 95 -8t86 -26v-48q-85 35 -176 35q-83 0 -128 -34.5t-45 -92.5
q0 -39 17 -67t54.5 -51t105.5 -49q74 -28 114.5 -51t64 -60t23.5 -96q0 -87 -61 -134t-180 -47q-56 0 -110 9z" />
    <glyph glyph-name="sacute" unicode="&#x15b;" horiz-adv-x="469" 
d="M263 717h54l-78 -169h-46zM135.5 -1.5q-51.5 13.5 -79.5 33.5v45q37 -23 83.5 -36.5t91.5 -13.5q132 0 132 84q0 29 -12 47.5t-43 33.5t-91 31q-59 16 -92.5 32.5t-51.5 42.5t-18 68q0 63 49.5 96t132.5 33q92 0 149 -30v-45q-59 32 -147 32q-64 0 -98.5 -21t-34.5 -65
q0 -30 12 -47t42.5 -30t93.5 -30q88 -24 124 -57t36 -91t-45.5 -92t-136.5 -34q-45 0 -96.5 13.5z" />
    <glyph glyph-name="Scircumflex" unicode="&#x15c;" horiz-adv-x="549" 
d="M260 920h45l132 -156h-54l-100 121l-100 -121h-55zM143 -6q-54 9 -88 25v50q87 -37 196 -37q98 0 144.5 33.5t46.5 100.5q0 45 -19 73t-56.5 48t-115.5 50q-100 38 -144 84t-44 119q0 52 27.5 91.5t77.5 61t115 21.5q52 0 95 -8t86 -26v-48q-85 35 -176 35
q-83 0 -128 -34.5t-45 -92.5q0 -39 17 -67t54.5 -51t105.5 -49q74 -28 114.5 -51t64 -60t23.5 -96q0 -87 -61 -134t-180 -47q-56 0 -110 9z" />
    <glyph glyph-name="scircumflex" unicode="&#x15d;" horiz-adv-x="469" 
d="M214 707h45l132 -156h-54l-100 121l-100 -121h-55zM135.5 -1.5q-51.5 13.5 -79.5 33.5v45q37 -23 83.5 -36.5t91.5 -13.5q132 0 132 84q0 29 -12 47.5t-43 33.5t-91 31q-59 16 -92.5 32.5t-51.5 42.5t-18 68q0 63 49.5 96t132.5 33q92 0 149 -30v-45q-59 32 -147 32
q-64 0 -98.5 -21t-34.5 -65q0 -30 12 -47t42.5 -30t93.5 -30q88 -24 124 -57t36 -91t-45.5 -92t-136.5 -34q-45 0 -96.5 13.5z" />
    <glyph glyph-name="Scedilla" unicode="&#x15e;" horiz-adv-x="549" 
d="M443.5 40.5q-50.5 -46.5 -148.5 -53.5l-22 -54q48 -4 71.5 -27.5t23.5 -62.5q0 -40 -30 -65.5t-83 -25.5q-18 0 -36 2.5t-28 6.5v36q9 -4 25 -6.5t31 -2.5q72 0 72 56q0 32 -23.5 47.5t-80.5 15.5l29 78q-54 1 -105 10t-84 24v50q87 -37 196 -37q98 0 144.5 33.5
t46.5 100.5q0 45 -19 73t-56.5 48t-115.5 50q-100 38 -144 84t-44 119q0 52 27.5 91.5t77.5 61t115 21.5q52 0 95 -8t86 -26v-48q-85 35 -176 35q-83 0 -128 -34.5t-45 -92.5q0 -39 17 -67t54.5 -51t105.5 -49q74 -28 114.5 -51t64 -60t23.5 -96q0 -79 -50.5 -125.5z" />
    <glyph glyph-name="scedilla" unicode="&#x15f;" horiz-adv-x="469" 
d="M375.5 24.5q-38.5 -33.5 -116.5 -38.5l-21 -53q48 -4 71.5 -27.5t23.5 -62.5q0 -40 -30 -65.5t-83 -25.5q-18 0 -36 2.5t-28 6.5v36q8 -4 24.5 -6.5t31.5 -2.5q72 0 72 56q0 32 -23.5 47.5t-80.5 15.5l30 79q-43 3 -86.5 15.5t-67.5 30.5v45q37 -23 83.5 -36.5
t91.5 -13.5q132 0 132 84q0 29 -12 47.5t-43 33.5t-91 31q-59 16 -92.5 32.5t-51.5 42.5t-18 68q0 63 49.5 96t132.5 33q92 0 149 -30v-45q-59 32 -147 32q-64 0 -98.5 -21t-34.5 -65q0 -30 12 -47t42.5 -30t93.5 -30q88 -24 124 -57t36 -91q0 -53 -38.5 -86.5z" />
    <glyph glyph-name="Scaron" unicode="&#x160;" horiz-adv-x="549" 
d="M145 925h55l100 -121l100 121h54l-132 -156h-45zM143 -6q-54 9 -88 25v50q87 -37 196 -37q98 0 144.5 33.5t46.5 100.5q0 45 -19 73t-56.5 48t-115.5 50q-100 38 -144 84t-44 119q0 52 27.5 91.5t77.5 61t115 21.5q52 0 95 -8t86 -26v-48q-85 35 -176 35
q-83 0 -128 -34.5t-45 -92.5q0 -39 17 -67t54.5 -51t105.5 -49q74 -28 114.5 -51t64 -60t23.5 -96q0 -87 -61 -134t-180 -47q-56 0 -110 9z" />
    <glyph glyph-name="scaron" unicode="&#x161;" horiz-adv-x="469" 
d="M81 707h55l100 -121l100 121h54l-132 -156h-45zM135.5 -1.5q-51.5 13.5 -79.5 33.5v45q37 -23 83.5 -36.5t91.5 -13.5q132 0 132 84q0 29 -12 47.5t-43 33.5t-91 31q-59 16 -92.5 32.5t-51.5 42.5t-18 68q0 63 49.5 96t132.5 33q92 0 149 -30v-45q-59 32 -147 32
q-64 0 -98.5 -21t-34.5 -65q0 -30 12 -47t42.5 -30t93.5 -30q88 -24 124 -57t36 -91t-45.5 -92t-136.5 -34q-45 0 -96.5 13.5z" />
    <glyph glyph-name="uni0162" unicode="&#x162;" horiz-adv-x="585" 
d="M317 0l-27 -67q48 -4 71.5 -27.5t23.5 -62.5q0 -40 -30 -65.5t-83 -25.5q-18 0 -36 2.5t-28 6.5v36q9 -4 25 -6.5t31 -2.5q72 0 72 56q0 32 -23.5 47.5t-80.5 15.5l35 93h-1v654h-231v45h515v-45h-231v-654h-2z" />
    <glyph glyph-name="uni0163" unicode="&#x163;" horiz-adv-x="360" 
d="M303.5 -94.5q23.5 -23.5 23.5 -62.5q0 -40 -30 -65.5t-83 -25.5q-18 0 -36 2.5t-28 6.5v36q9 -4 25 -6.5t31 -2.5q72 0 72 56q0 32 -23.5 47.5t-80.5 15.5l31 82q-45 11 -69 46t-24 94v309h-77v42h77v144h52v-144h124v-42h-124v-311q0 -53 23 -76.5t77 -23.5q25 0 52 10
v-44q-29 -8 -63 -8l-21 -52q48 -4 71.5 -27.5z" />
    <glyph glyph-name="Tcaron" unicode="&#x164;" horiz-adv-x="585" 
d="M138 919h55l100 -121l100 121h54l-132 -156h-45zM266 654h-231v45h515v-45h-231v-654h-53v654z" />
    <glyph glyph-name="tcaron" unicode="&#x165;" horiz-adv-x="373" 
d="M304 777h56l-88 -193h-47zM147 21.5q-35 36.5 -35 107.5v309h-77v42h77v144h52v-144h124v-42h-124v-311q0 -53 23 -76.5t77 -23.5q25 0 52 10v-44q-27 -8 -70 -8q-64 0 -99 36.5z" />
    <glyph glyph-name="Tbar" unicode="&#x166;" horiz-adv-x="585" 
d="M266 318h-138v44h138v292h-231v45h515v-45h-231v-292h136v-44h-136v-318h-53v318z" />
    <glyph glyph-name="tbar" unicode="&#x167;" horiz-adv-x="355" 
d="M148 20.5q-35 35.5 -35 107.5v118h-78v36h78v158h-77v40h77v144h52v-144h125v-40h-125v-158h124v-36h-124v-116q0 -53 24 -78t76 -25q28 0 52 9v-43q-32 -8 -70 -8q-64 0 -99 35.5z" />
    <glyph glyph-name="Utilde" unicode="&#x168;" horiz-adv-x="679" 
d="M169 821q29 44 93 44q22 0 41.5 -6t49.5 -19q25 -12 44.5 -18.5t41.5 -6.5q29 0 51.5 11.5t41.5 41.5v-51q-28 -44 -93 -44q-25 0 -46.5 6.5t-48.5 19.5q-27 12 -44 18t-38 6q-28 0 -50 -11.5t-43 -41.5v51zM138 51.5q-68 66.5 -68 187.5v460h53v-468q0 -101 58 -150
t158 -49t158.5 49t58.5 150v468h53v-460q0 -121 -68.5 -187.5t-201.5 -66.5t-201 66.5z" />
    <glyph glyph-name="utilde" unicode="&#x169;" horiz-adv-x="582" 
d="M114 608q29 44 93 44q22 0 41.5 -6t49.5 -19q25 -12 44.5 -18.5t41.5 -6.5q29 0 51.5 11.5t41.5 41.5v-51q-28 -44 -93 -44q-25 0 -46.5 6.5t-48.5 19.5q-27 12 -44 18t-38 6q-28 0 -50 -11.5t-43 -41.5v51zM120 36q-50 51 -50 135v309h52v-310q0 -68 36.5 -105.5
t111.5 -37.5q59 0 103.5 26t80.5 83v344h53v-480h-52v80q-67 -95 -189 -95q-96 0 -146 51z" />
    <glyph glyph-name="Umacron" unicode="&#x16a;" horiz-adv-x="679" 
d="M195 826h289v-39h-289v39zM138 51.5q-68 66.5 -68 187.5v460h53v-468q0 -101 58 -150t158 -49t158.5 49t58.5 150v468h53v-460q0 -121 -68.5 -187.5t-201.5 -66.5t-201 66.5z" />
    <glyph glyph-name="umacron" unicode="&#x16b;" horiz-adv-x="582" 
d="M147 613h289v-39h-289v39zM120 36q-50 51 -50 135v309h52v-310q0 -68 36.5 -105.5t111.5 -37.5q59 0 103.5 26t80.5 83v344h53v-480h-52v80q-67 -95 -189 -95q-96 0 -146 51z" />
    <glyph glyph-name="Ubreve" unicode="&#x16c;" horiz-adv-x="679" 
d="M246.5 783q-35.5 34 -35.5 85h42q0 -36 23.5 -58t63.5 -22t63.5 22t23.5 58h41q0 -51 -35.5 -85t-92.5 -34q-58 0 -93.5 34zM138 51.5q-68 66.5 -68 187.5v460h53v-468q0 -101 58 -150t158 -49t158.5 49t58.5 150v468h53v-460q0 -121 -68.5 -187.5t-201.5 -66.5
t-201 66.5z" />
    <glyph glyph-name="ubreve" unicode="&#x16d;" horiz-adv-x="582" 
d="M193.5 571q-35.5 34 -35.5 85h42q0 -36 23.5 -58t63.5 -22t63.5 22t23.5 58h41q0 -51 -35.5 -85t-92.5 -34q-58 0 -93.5 34zM120 36q-50 51 -50 135v309h52v-310q0 -68 36.5 -105.5t111.5 -37.5q59 0 103.5 26t80.5 83v344h53v-480h-52v80q-67 -95 -189 -95
q-96 0 -146 51z" />
    <glyph glyph-name="Uring" unicode="&#x16e;" horiz-adv-x="679" 
d="M268.5 779.5q-29.5 29.5 -29.5 70.5t29.5 70t70.5 29t70 -29t29 -70t-29 -70.5t-70 -29.5t-70.5 29.5zM383.5 805q18.5 19 18.5 45t-18.5 44.5t-44.5 18.5q-27 0 -45 -18.5t-18 -44.5t18.5 -45t44.5 -19t44.5 19zM138 51.5q-68 66.5 -68 187.5v460h53v-468
q0 -101 58 -150t158 -49t158.5 49t58.5 150v468h53v-460q0 -121 -68.5 -187.5t-201.5 -66.5t-201 66.5z" />
    <glyph glyph-name="uring" unicode="&#x16f;" horiz-adv-x="582" 
d="M220.5 567.5q-29.5 29.5 -29.5 70.5t29.5 70t70.5 29t70 -29t29 -70t-29 -70.5t-70 -29.5t-70.5 29.5zM335.5 593q18.5 19 18.5 45t-18.5 44.5t-44.5 18.5q-27 0 -45 -18.5t-18 -44.5t18.5 -45t44.5 -19t44.5 19zM120 36q-50 51 -50 135v309h52v-310q0 -68 36.5 -105.5
t111.5 -37.5q59 0 103.5 26t80.5 83v344h53v-480h-52v80q-67 -95 -189 -95q-96 0 -146 51z" />
    <glyph glyph-name="Uhungarumlaut" unicode="&#x170;" horiz-adv-x="679" 
d="M282 929h54l-78 -169h-46zM460 929h55l-79 -169h-45zM138 51.5q-68 66.5 -68 187.5v460h53v-468q0 -101 58 -150t158 -49t158.5 49t58.5 150v468h53v-460q0 -121 -68.5 -187.5t-201.5 -66.5t-201 66.5z" />
    <glyph glyph-name="uhungarumlaut" unicode="&#x171;" horiz-adv-x="582" 
d="M236 717h54l-78 -169h-46zM414 717h55l-79 -169h-45zM120 36q-50 51 -50 135v309h52v-310q0 -68 36.5 -105.5t111.5 -37.5q59 0 103.5 26t80.5 83v344h53v-480h-52v80q-67 -95 -189 -95q-96 0 -146 51z" />
    <glyph glyph-name="Uogonek" unicode="&#x172;" horiz-adv-x="679" 
d="M609 699v-460q0 -111 -58.5 -176.5t-172.5 -75.5q-61 -51 -61 -106q0 -52 52 -52q24 0 46 9v-37q-19 -9 -56 -9q-38 0 -63.5 21.5t-25.5 62.5q0 31 15.5 59.5t40.5 49.5q-126 4 -191 70t-65 184v460h53v-468q0 -101 58 -150t158 -49t158.5 49t58.5 150v468h53z" />
    <glyph glyph-name="uogonek" unicode="&#x173;" horiz-adv-x="578" 
d="M525 -162v-37q-19 -9 -56 -9q-38 0 -63.5 21.5t-25.5 62.5q0 37 21 69.5t55 54.5h-1v80q-67 -95 -189 -95q-96 0 -146 51t-50 135v309h52v-310q0 -68 36.5 -105.5t111.5 -37.5q59 0 103.5 26t80.5 83v344h53v-480h-1q-79 -56 -79 -119q0 -52 52 -52q24 0 46 9z" />
    <glyph glyph-name="Wcircumflex" unicode="&#x174;" horiz-adv-x="1011" 
d="M482 920h45l132 -156h-54l-100 121l-100 -121h-55zM55 699h54l187 -610l187 610h46l185 -610l187 610h55l-214 -699h-49l-188 618l-187 -618h-49z" />
    <glyph glyph-name="wcircumflex" unicode="&#x175;" horiz-adv-x="786" 
d="M370 707h45l132 -156h-54l-100 121l-100 -121h-55zM55 480h53l129 -418l128 418h55l128 -418l129 418h54l-152 -480h-55l-131 426l-131 -426h-56z" />
    <glyph glyph-name="Ycircumflex" unicode="&#x176;" horiz-adv-x="672" 
d="M313 920h45l132 -156h-54l-100 121l-100 -121h-55zM309 265l-254 434h55l226 -387l226 387h55l-255 -434v-265h-53v265z" />
    <glyph glyph-name="ycircumflex" unicode="&#x177;" horiz-adv-x="553" 
d="M268 707h45l132 -156h-54l-100 121l-100 -121h-55zM74 -191v44q24 -9 59 -9q38 0 60 20t41 67l30 73l-209 476h55l181 -413l172 413h55l-228 -555q-27 -64 -60 -93.5t-86 -29.5q-41 0 -70 7z" />
    <glyph glyph-name="Ydieresis" unicode="&#x178;" horiz-adv-x="672" 
d="M204.5 782.5q-11.5 11.5 -11.5 27.5t11.5 27t27.5 11q15 0 26.5 -11t11.5 -27t-11.5 -27.5t-26.5 -11.5q-16 0 -27.5 11.5zM411.5 782.5q-11.5 11.5 -11.5 27.5t11.5 27t27.5 11t27.5 -11t11.5 -27t-11.5 -27.5t-27.5 -11.5t-27.5 11.5zM309 265l-254 434h55l226 -387
l226 387h55l-255 -434v-265h-53v265z" />
    <glyph glyph-name="Zacute" unicode="&#x179;" horiz-adv-x="616" 
d="M329 929h54l-78 -169h-46zM55 40l430 614h-419v45h482v-41l-430 -614h443v-44h-506v40z" />
    <glyph glyph-name="zacute" unicode="&#x17a;" horiz-adv-x="482" 
d="M276 717h54l-78 -169h-46zM55 38l299 400h-293v42h355v-39l-299 -399h310v-42h-372v38z" />
    <glyph glyph-name="Zdotaccent" unicode="&#x17b;" horiz-adv-x="616" 
d="M271.5 776.5q-11.5 11.5 -11.5 27.5t11.5 27t27.5 11q15 0 26.5 -11t11.5 -27t-11.5 -27.5t-26.5 -11.5q-16 0 -27.5 11.5zM55 40l430 614h-419v45h482v-41l-430 -614h443v-44h-506v40z" />
    <glyph glyph-name="zdotaccent" unicode="&#x17c;" horiz-adv-x="482" 
d="M214.5 564.5q-11.5 11.5 -11.5 27.5t11.5 27t27.5 11q15 0 26.5 -11t11.5 -27t-11.5 -27.5t-26.5 -11.5q-16 0 -27.5 11.5zM55 38l299 400h-293v42h355v-39l-299 -399h310v-42h-372v38z" />
    <glyph glyph-name="Zcaron" unicode="&#x17d;" horiz-adv-x="616" 
d="M157 925h55l100 -121l100 121h54l-132 -156h-45zM55 40l430 614h-419v45h482v-41l-430 -614h443v-44h-506v40z" />
    <glyph glyph-name="zcaron" unicode="&#x17e;" horiz-adv-x="482" 
d="M94 707h55l100 -121l100 121h54l-132 -156h-45zM55 38l299 400h-293v42h355v-39l-299 -399h310v-42h-372v38z" />
    <glyph glyph-name="uni018F" unicode="&#x18f;" horiz-adv-x="818" 
d="M215 29.5q-80 44.5 -120 122.5t-40 177v36h653q-2 147 -89.5 224.5t-248.5 77.5q-66 0 -131 -12t-113 -31v47q42 17 113 30t135 13q186 0 287.5 -95.5t101.5 -269.5q0 -111 -40.5 -193t-120 -126.5t-193.5 -44.5t-194 44.5zM575 69q67 38 100 103.5t34 150.5h-603
q2 -131 77 -211.5t225 -80.5q100 0 167 38z" />
    <glyph glyph-name="florin" unicode="&#x192;" horiz-adv-x="527" 
d="M-80 -222l4 45q23 -10 56 -10q52 0 81.5 25.5t40.5 78.5l110 521h-88l4 42h94l24 117q17 78 60 112.5t110 34.5q41 0 66 -9l-5 -43q-23 9 -58 9q-54 0 -81 -25t-39 -80l-25 -116h143l-4 -42h-148l-111 -522q-16 -76 -59 -111t-111 -35q-40 0 -64 8z" />
    <glyph glyph-name="Ohorn" unicode="&#x1a0;" horiz-adv-x="836" 
d="M232.5 30.5q-82.5 45.5 -130 128.5t-47.5 190t47.5 190t130 129t185.5 46q74 0 138.5 -24t112.5 -69q43 1 68.5 26t25.5 63v37h48v-39q0 -44 -30 -79.5t-76 -45.5q37 -47 57 -106.5t20 -127.5q0 -107 -47.5 -190t-130.5 -128.5t-186 -45.5t-185.5 45.5zM575.5 71
q71.5 39 113 111t41.5 167q0 94 -41 166t-111.5 111.5t-157.5 39.5t-158.5 -39t-113 -111t-41.5 -167t41.5 -167t112.5 -111t157 -39t157.5 39z" />
    <glyph glyph-name="ohorn" unicode="&#x1a1;" horiz-adv-x="645" 
d="M180 16.5q-59 31.5 -92 89t-33 133.5t33 134t92 90t133 32q106 0 177 -62q39 4 63 28.5t24 59.5v37h43v-39q0 -42 -27.5 -75t-71.5 -45q51 -67 51 -160q0 -76 -33 -133.5t-92 -89t-134 -31.5q-74 0 -133 31.5zM421 53q47 26 73 74t26 112t-26 112.5t-73 74.5t-108 26
t-108 -26t-73 -74.5t-26 -112.5t26 -112t73 -74t108 -26t108 26z" />
    <glyph glyph-name="Uhorn" unicode="&#x1af;" horiz-adv-x="781" 
d="M138 51.5q-68 66.5 -68 187.5v460h53v-468q0 -101 58 -150t158 -49t158.5 49t58.5 150v468h53v-73q48 0 71 22t23 62v37h53v-39q0 -34 -19 -64t-52.5 -47.5t-75.5 -17.5v-340q0 -121 -68.5 -187.5t-201.5 -66.5t-201 66.5z" />
    <glyph glyph-name="uhorn" unicode="&#x1b0;" horiz-adv-x="672" 
d="M118 35q-48 50 -48 133v312h52v-307q0 -68 35.5 -107t112.5 -39q58 0 103.5 26t80.5 83v344h53v-48q42 1 69.5 26.5t27.5 61.5v38h43v-39q0 -33 -18 -61.5t-50 -46t-72 -17.5v-394h-52v83q-68 -98 -192 -98q-97 0 -145 50z" />
    <glyph glyph-name="uni01CD" unicode="&#x1cd;" horiz-adv-x="715" 
d="M203 919h55l100 -121l100 121h54l-132 -156h-45zM334 699h47l279 -699h-54l-80 201h-337l-80 -201h-54zM510 246l-153 387l-152 -387h305z" />
    <glyph glyph-name="uni01CE" unicode="&#x1ce;" horiz-adv-x="558" 
d="M140 707h55l100 -121l100 121h54l-132 -156h-45zM105.5 26q-50.5 41 -50.5 115q0 77 49 117t141 40q113 0 190 -46v59q0 72 -39 106.5t-125 34.5q-80 0 -154 -31v45q30 13 73 21t84 8q109 0 161.5 -49t52.5 -138v-308h-49v69q-63 -84 -197 -84q-86 0 -136.5 41z
M363.5 52.5q48.5 24.5 71.5 67.5v89q-44 24 -86 35.5t-96 11.5q-78 0 -112.5 -28.5t-34.5 -86.5q0 -55 37 -84t112 -29q60 0 108.5 24.5z" />
    <glyph glyph-name="uni01CF" unicode="&#x1cf;" horiz-adv-x="204" 
d="M-53 919h55l100 -121l100 121h54l-132 -156h-45zM75 699h53v-699h-53v699z" />
    <glyph glyph-name="uni01D0" unicode="&#x1d0;" horiz-adv-x="202" 
d="M-54 707h55l100 -121l100 121h54l-132 -156h-45zM75 480h52v-480h-52v480z" />
    <glyph glyph-name="uni01D1" unicode="&#x1d1;" horiz-adv-x="837" 
d="M264 919h55l100 -121l100 121h54l-132 -156h-45zM232.5 30.5q-82.5 45.5 -130 128.5t-47.5 190t47.5 190t130 129t185.5 46t186 -46t130.5 -129t47.5 -190t-47.5 -190t-130.5 -128.5t-186 -45.5t-185.5 45.5zM575.5 71q71.5 39 113 111t41.5 167q0 94 -41 166
t-111.5 111.5t-157.5 39.5t-158.5 -39t-113 -111t-41.5 -167t41.5 -167t112.5 -111t157 -39t157.5 39z" />
    <glyph glyph-name="uni01D2" unicode="&#x1d2;" horiz-adv-x="627" 
d="M159 707h55l100 -121l100 121h54l-132 -156h-45zM179.5 16.5q-58.5 31.5 -91.5 89t-33 133.5t33 134t91.5 90t133.5 32t133.5 -32t92 -90t33.5 -134t-33 -133.5t-92 -89t-134 -31.5t-133.5 31.5zM421 53q47 26 73 74t26 112t-26 112.5t-73 74.5t-108 26t-108 -26
t-73 -74.5t-26 -112.5t26 -112t73 -74t108 -26t108 26z" />
    <glyph glyph-name="uni01D3" unicode="&#x1d3;" horiz-adv-x="679" 
d="M185 919h55l100 -121l100 121h54l-132 -156h-45zM138 51.5q-68 66.5 -68 187.5v460h53v-468q0 -101 58 -150t158 -49t158.5 49t58.5 150v468h53v-460q0 -121 -68.5 -187.5t-201.5 -66.5t-201 66.5z" />
    <glyph glyph-name="uni01D4" unicode="&#x1d4;" horiz-adv-x="582" 
d="M135 707h55l100 -121l100 121h54l-132 -156h-45zM120 36q-50 51 -50 135v309h52v-310q0 -68 36.5 -105.5t111.5 -37.5q59 0 103.5 26t80.5 83v344h53v-480h-52v80q-67 -95 -189 -95q-96 0 -146 51z" />
    <glyph glyph-name="uni01D5" unicode="&#x1d5;" horiz-adv-x="679" 
d="M194 949h289v-39h-289v39zM207.5 760.5q-11.5 11.5 -11.5 27.5t11.5 27t27.5 11q15 0 26.5 -11t11.5 -27t-11.5 -27.5t-26.5 -11.5q-16 0 -27.5 11.5zM414.5 760.5q-11.5 11.5 -11.5 27.5t11.5 27t27.5 11t27.5 -11t11.5 -27t-11.5 -27.5t-27.5 -11.5t-27.5 11.5z
M138 51.5q-68 66.5 -68 187.5v460h53v-468q0 -101 58 -150t158 -49t158.5 49t58.5 150v468h53v-460q0 -121 -68.5 -187.5t-201.5 -66.5t-201 66.5z" />
    <glyph glyph-name="uni01D6" unicode="&#x1d6;" horiz-adv-x="582" 
d="M143 741h289v-39h-289v39zM157.5 570.5q-11.5 11.5 -11.5 27.5t11.5 27t27.5 11q15 0 26.5 -11t11.5 -27t-11.5 -27.5t-26.5 -11.5q-16 0 -27.5 11.5zM364.5 570.5q-11.5 11.5 -11.5 27.5t11.5 27t27.5 11t27.5 -11t11.5 -27t-11.5 -27.5t-27.5 -11.5t-27.5 11.5zM120 36
q-50 51 -50 135v309h52v-310q0 -68 36.5 -105.5t111.5 -37.5q59 0 103.5 26t80.5 83v344h53v-480h-52v80q-67 -95 -189 -95q-96 0 -146 51z" />
    <glyph glyph-name="uni01D7" unicode="&#x1d7;" horiz-adv-x="679" 
d="M373 958h46l-65 -128h-38zM211.5 777.5q-11.5 11.5 -11.5 27.5t11.5 27t27.5 11q15 0 26.5 -11t11.5 -27t-11.5 -27.5t-26.5 -11.5q-16 0 -27.5 11.5zM418.5 777.5q-11.5 11.5 -11.5 27.5t11.5 27t27.5 11t27.5 -11t11.5 -27t-11.5 -27.5t-27.5 -11.5t-27.5 11.5z
M138 51.5q-68 66.5 -68 187.5v460h53v-468q0 -101 58 -150t158 -49t158.5 49t58.5 150v468h53v-460q0 -121 -68.5 -187.5t-201.5 -66.5t-201 66.5z" />
    <glyph glyph-name="uni01D8" unicode="&#x1d8;" horiz-adv-x="582" 
d="M318 745h46l-65 -128h-38zM156.5 564.5q-11.5 11.5 -11.5 27.5t11.5 27t27.5 11q15 0 26.5 -11t11.5 -27t-11.5 -27.5t-26.5 -11.5q-16 0 -27.5 11.5zM363.5 564.5q-11.5 11.5 -11.5 27.5t11.5 27t27.5 11t27.5 -11t11.5 -27t-11.5 -27.5t-27.5 -11.5t-27.5 11.5zM120 36
q-50 51 -50 135v309h52v-310q0 -68 36.5 -105.5t111.5 -37.5q59 0 103.5 26t80.5 83v344h53v-480h-52v80q-67 -95 -189 -95q-96 0 -146 51z" />
    <glyph glyph-name="uni01D9" unicode="&#x1d9;" horiz-adv-x="679" 
d="M191 955h54l95 -91l95 91h53l-130 -124h-37zM208.5 777.5q-11.5 11.5 -11.5 27.5t11.5 27t27.5 11t27.5 -11t11.5 -27t-11.5 -27.5t-27.5 -11.5t-27.5 11.5zM416.5 777.5q-11.5 11.5 -11.5 27.5t11.5 27t26.5 11q16 0 27.5 -11t11.5 -27t-11.5 -27.5t-27.5 -11.5
q-15 0 -26.5 11.5zM138 51.5q-68 66.5 -68 187.5v460h53v-468q0 -101 58 -150t158 -49t158.5 49t58.5 150v468h53v-460q0 -121 -68.5 -187.5t-201.5 -66.5t-201 66.5z" />
    <glyph glyph-name="uni01DA" unicode="&#x1da;" horiz-adv-x="582" 
d="M138 741h54l95 -91l95 91h53l-130 -124h-37zM155.5 563.5q-11.5 11.5 -11.5 27.5t11.5 27t27.5 11t27.5 -11t11.5 -27t-11.5 -27.5t-27.5 -11.5t-27.5 11.5zM363.5 563.5q-11.5 11.5 -11.5 27.5t11.5 27t26.5 11q16 0 27.5 -11t11.5 -27t-11.5 -27.5t-27.5 -11.5
q-15 0 -26.5 11.5zM120 36q-50 51 -50 135v309h52v-310q0 -68 36.5 -105.5t111.5 -37.5q59 0 103.5 26t80.5 83v344h53v-480h-52v80q-67 -95 -189 -95q-96 0 -146 51z" />
    <glyph glyph-name="uni01DB" unicode="&#x1db;" horiz-adv-x="679" 
d="M263 957h46l57 -128h-38zM208.5 776.5q-11.5 11.5 -11.5 27.5t11.5 27t27.5 11t27.5 -11t11.5 -27t-11.5 -27.5t-27.5 -11.5t-27.5 11.5zM416.5 776.5q-11.5 11.5 -11.5 27.5t11.5 27t26.5 11q16 0 27.5 -11t11.5 -27t-11.5 -27.5t-27.5 -11.5q-15 0 -26.5 11.5z
M138 51.5q-68 66.5 -68 187.5v460h53v-468q0 -101 58 -150t158 -49t158.5 49t58.5 150v468h53v-460q0 -121 -68.5 -187.5t-201.5 -66.5t-201 66.5z" />
    <glyph glyph-name="uni01DC" unicode="&#x1dc;" horiz-adv-x="582" 
d="M206 745h46l57 -128h-38zM151.5 564.5q-11.5 11.5 -11.5 27.5t11.5 27t27.5 11t27.5 -11t11.5 -27t-11.5 -27.5t-27.5 -11.5t-27.5 11.5zM359.5 564.5q-11.5 11.5 -11.5 27.5t11.5 27t26.5 11q16 0 27.5 -11t11.5 -27t-11.5 -27.5t-27.5 -11.5q-15 0 -26.5 11.5zM120 36
q-50 51 -50 135v309h52v-310q0 -68 36.5 -105.5t111.5 -37.5q59 0 103.5 26t80.5 83v344h53v-480h-52v80q-67 -95 -189 -95q-96 0 -146 51z" />
    <glyph glyph-name="Gcaron" unicode="&#x1e6;" horiz-adv-x="724" 
d="M251 919h55l100 -121l100 121h54l-132 -156h-45zM232 30.5q-83 45.5 -130 128t-47 190.5t47 191t130 128.5t187 45.5q145 0 238 -78v-53q-87 83 -235 83q-90 0 -161.5 -39t-112.5 -111t-41 -167q0 -96 41.5 -168t113 -110.5t159.5 -38.5q61 0 107.5 13.5t87.5 44.5v235
h-162v45h215v-302q-89 -83 -250 -83q-104 0 -187 45.5z" />
    <glyph glyph-name="gcaron" unicode="&#x1e7;" horiz-adv-x="652" 
d="M169 707h55l100 -121l100 121h54l-132 -156h-45zM225.5 -221.5q-45.5 8.5 -75.5 22.5v45q73 -34 170 -34q103 0 153.5 48.5t50.5 146.5v89q-31 -55 -88 -83t-130 -28q-70 0 -127.5 31.5t-90.5 89.5t-33 134t33 134t90 89.5t127 31.5q76 0 130.5 -27t89.5 -83v95h52v-465
q0 -245 -257 -245q-49 0 -94.5 8.5zM447 66.5q58 39.5 77 108.5v131q-21 69 -78.5 107.5t-132.5 38.5q-57 0 -104 -26.5t-75 -74.5t-28 -111t28 -111.5t75 -75t104 -26.5q76 0 134 39.5z" />
    <glyph glyph-name="Aringacute" unicode="&#x1fa;" horiz-adv-x="715" 
d="M378 900h-46l70 135h54zM660 0h-54l-80 201h-337l-80 -201h-54l270 677q-29 10 -48 36t-19 58q0 41 29.5 70t70.5 29t70 -29t29 -70q0 -33 -18.5 -58.5t-48.5 -36.5zM313.5 726q18.5 -19 44.5 -19t44.5 19t18.5 45t-18.5 44.5t-44.5 18.5q-27 0 -45 -18.5t-18 -44.5
t18.5 -45zM510 246l-153 387l-152 -387h305z" />
    <glyph glyph-name="aringacute" unicode="&#x1fb;" horiz-adv-x="558" 
d="M333 922h54l-78 -135h-46zM217.5 567.5q-29.5 29.5 -29.5 70.5t29.5 70t70.5 29t70 -29t29 -70t-29 -70.5t-70 -29.5t-70.5 29.5zM332.5 593q18.5 19 18.5 45t-18.5 44.5t-44.5 18.5q-27 0 -45 -18.5t-18 -44.5t18.5 -45t44.5 -19t44.5 19zM105.5 26q-50.5 41 -50.5 115
q0 77 49 117t141 40q113 0 190 -46v59q0 72 -39 106.5t-125 34.5q-80 0 -154 -31v45q30 13 73 21t84 8q109 0 161.5 -49t52.5 -138v-308h-49v69q-63 -84 -197 -84q-86 0 -136.5 41zM363.5 52.5q48.5 24.5 71.5 67.5v89q-44 24 -86 35.5t-96 11.5q-78 0 -112.5 -28.5
t-34.5 -86.5q0 -55 37 -84t112 -29q60 0 108.5 24.5z" />
    <glyph glyph-name="AEacute" unicode="&#x1fc;" horiz-adv-x="918" 
d="M581 923h54l-78 -169h-46zM423 699h440v-45h-338v-282h244v-45h-244v-282h338v-45h-391v201h-257l-106 -201h-54zM472 246v408h-19l-215 -408h234z" />
    <glyph glyph-name="aeacute" unicode="&#x1fd;" horiz-adv-x="988" 
d="M518 717h54l-78 -169h-46zM105.5 26q-50.5 41 -50.5 115q0 77 49 117t141 40q113 0 190 -46v59q0 72 -39 106.5t-125 34.5q-80 0 -154 -31v45q30 13 73 21t84 8q81 0 129.5 -30t66.5 -83q29 54 83.5 83.5t130.5 29.5q80 0 136 -31t84.5 -86t28.5 -125v-33h-448
q2 -96 62.5 -144.5t164.5 -48.5q47 0 92 8.5t79 22.5v-45q-29 -12 -79 -20t-96 -8q-90 0 -149.5 32t-89.5 92q-31 -61 -85 -92.5t-142 -31.5q-86 0 -136.5 41zM884 259q-1 89 -51 141t-150 52q-96 0 -146.5 -53.5t-51.5 -139.5h399zM377 60q48 32 58 91v58q-44 24 -86 35.5
t-96 11.5q-78 0 -112.5 -28.5t-34.5 -86.5q0 -55 37 -84t112 -29q74 0 122 32z" />
    <glyph glyph-name="Oslashacute" unicode="&#x1fe;" horiz-adv-x="837" 
d="M470 930h55l-79 -169h-45zM264 15q-96 41 -152.5 129t-56.5 205q0 107 47.5 190t130 129t185.5 46q64 0 119 -18l36 88h52l-42 -105q92 -43 145.5 -129.5t53.5 -200.5q0 -107 -47.5 -190t-130.5 -128.5t-186 -45.5q-58 0 -109 15l-34 -86h-52zM519 651q-47 15 -101 15
q-87 0 -158 -39t-112 -111t-41 -167q0 -103 47 -178t128 -111zM575.5 71q71.5 39 113 111t41.5 167q0 99 -45 173t-121 111l-237 -589q43 -12 91 -12q86 0 157.5 39z" />
    <glyph glyph-name="oslashacute" unicode="&#x1ff;" horiz-adv-x="627" 
d="M335 717h54l-78 -169h-46zM196 8q-66 29 -103.5 89t-37.5 142q0 76 33 134t92 90t133 32q39 0 75 -9l32 80h52l-39 -96q65 -30 102 -90.5t37 -140.5q0 -76 -33 -133.5t-92 -89t-134 -31.5q-38 0 -71 9l-32 -80h-52zM371 445q-31 7 -58 7q-61 0 -108 -26t-73 -74.5
t-26 -112.5q0 -66 28 -115.5t78 -74.5zM421 53q47 26 73 74t26 112q0 66 -27.5 114.5t-76.5 74.5l-158 -395q26 -6 55 -6q61 0 108 26z" />
    <glyph glyph-name="Scommaaccent" unicode="&#x218;" horiz-adv-x="549" 
d="M143 -6q-54 9 -88 25v50q87 -37 196 -37q98 0 144.5 33.5t46.5 100.5q0 45 -19 73t-56.5 48t-115.5 50q-100 38 -144 84t-44 119q0 52 27.5 91.5t77.5 61t115 21.5q52 0 95 -8t86 -26v-48q-85 35 -176 35q-83 0 -128 -34.5t-45 -92.5q0 -39 17 -67t54.5 -51t105.5 -49
q74 -28 114.5 -51t64 -60t23.5 -96q0 -87 -61 -134t-180 -47q-56 0 -110 9zM258 -67h56l-89 -192h-47z" />
    <glyph glyph-name="scommaaccent" unicode="&#x219;" horiz-adv-x="469" 
d="M135.5 -1.5q-51.5 13.5 -79.5 33.5v45q37 -23 83.5 -36.5t91.5 -13.5q132 0 132 84q0 29 -12 47.5t-43 33.5t-91 31q-59 16 -92.5 32.5t-51.5 42.5t-18 68q0 63 49.5 96t132.5 33q92 0 149 -30v-45q-59 32 -147 32q-64 0 -98.5 -21t-34.5 -65q0 -30 12 -47t42.5 -30
t93.5 -30q88 -24 124 -57t36 -91t-45.5 -92t-136.5 -34q-45 0 -96.5 13.5zM217 -67h56l-89 -192h-47z" />
    <glyph glyph-name="uni021A" unicode="&#x21a;" horiz-adv-x="585" 
d="M266 654h-231v45h515v-45h-231v-654h-53v654zM264 -67h56l-88 -193h-47z" />
    <glyph glyph-name="uni021B" unicode="&#x21b;" horiz-adv-x="354" 
d="M147 21.5q-35 36.5 -35 107.5v309h-77v42h77v144h52v-144h124v-42h-124v-311q0 -53 23 -76.5t77 -23.5q25 0 52 10v-44q-27 -8 -70 -8q-64 0 -99 36.5zM202 -67h56l-88 -193h-47z" />
    <glyph glyph-name="uni0237" unicode="&#x237;" horiz-adv-x="215" 
d="M-60 -224v45q27 -10 54 -10q51 0 72 24t21 79v566h53v-565q0 -74 -36 -110t-100 -36q-39 0 -64 7z" />
    <glyph glyph-name="uni0251" unicode="&#x251;" horiz-adv-x="652" 
d="M178 16q-57 31 -90 88.5t-33 134.5q0 75 33 133.5t90 90.5t127 32q72 0 130.5 -29t88.5 -84v98h53v-480h-52v98q-72 -113 -220 -113q-70 0 -127 31zM445.5 65.5q56.5 38.5 78.5 107.5v131q-19 69 -76.5 108.5t-134.5 39.5q-57 0 -104.5 -26.5t-75 -75t-27.5 -111.5
t27.5 -111t75 -74.5t104.5 -26.5q76 0 132.5 38.5z" />
    <glyph glyph-name="uni0259" unicode="&#x259;" horiz-adv-x="607" 
d="M168 16q-56 31 -84.5 85.5t-28.5 124.5v34h449q-2 95 -63 144t-165 49q-46 0 -91 -8.5t-81 -22.5v44q29 12 79 20.5t97 8.5q129 0 200.5 -67t71.5 -188q0 -118 -64.5 -186.5t-183.5 -68.5q-80 0 -136 31zM452.5 81.5q50.5 54.5 51.5 139.5h-401q1 -89 51 -141.5
t150 -52.5q98 0 148.5 54.5z" />
    <glyph glyph-name="uni02BB" unicode="&#x2bb;" horiz-adv-x="232" 
d="M131 714h46l-69 -191h-53z" />
    <glyph glyph-name="uni02BC" unicode="&#x2bc;" horiz-adv-x="232" 
d="M123 714h54l-77 -191h-45z" />
    <glyph glyph-name="uni02BE" unicode="&#x2be;" 
d="M-60 595q36 0 57.5 19t21.5 55q0 37 -21 55.5t-58 18.5v40q53 0 86 -30t33 -84t-33 -84t-86 -30v40z" />
    <glyph glyph-name="uni02BF" unicode="&#x2bf;" 
d="M-27 585q-33 30 -33 84t33 84t86 30v-40q-37 0 -58 -18.5t-21 -55.5q0 -36 21.5 -55t57.5 -19v-40q-53 0 -86 30z" />
    <glyph glyph-name="circumflex" unicode="&#x2c6;" horiz-adv-x="419" 
d="M187 764h45l132 -156h-54l-100 121l-100 -121h-55z" />
    <glyph glyph-name="caron" unicode="&#x2c7;" horiz-adv-x="419" 
d="M55 767h55l100 -122l100 122h54l-132 -156h-45z" />
    <glyph glyph-name="uni02C8" unicode="&#x2c8;" 
d="M-25 746h48v-156h-48v156z" />
    <glyph glyph-name="uni02C9" unicode="&#x2c9;" horiz-adv-x="589" 
d="M150 665h292v-41h-292v41z" />
    <glyph glyph-name="uni02CA" unicode="&#x2ca;" 
d="M10 766h55l-79 -169h-45z" />
    <glyph glyph-name="uni02CB" unicode="&#x2cb;" 
d="M19 766h46l-70 -169h-54z" />
    <glyph glyph-name="uni02CC" unicode="&#x2cc;" 
d="M-25 -69h48v-156h-48v156z" />
    <glyph glyph-name="breve" unicode="&#x2d8;" horiz-adv-x="367" 
d="M90.5 611q-35.5 34 -35.5 85h41q0 -36 23.5 -58t63.5 -22q41 0 64 22t23 58h42q0 -51 -35.5 -85t-93.5 -34q-57 0 -92.5 34z" />
    <glyph glyph-name="dotaccent" unicode="&#x2d9;" horiz-adv-x="187" 
d="M66.5 613.5q-11.5 11.5 -11.5 27.5t11.5 27t27.5 11q15 0 26.5 -11t11.5 -27t-11.5 -27.5t-26.5 -11.5q-16 0 -27.5 11.5z" />
    <glyph glyph-name="ring" unicode="&#x2da;" horiz-adv-x="309" 
d="M84 598.5q-29 29.5 -29 70.5t29 70t70 29t70.5 -29t29.5 -70t-29.5 -70.5t-70.5 -29.5t-70 29.5zM198.5 624q18.5 19 18.5 45t-18.5 44.5t-44.5 18.5t-44.5 -18.5t-18.5 -44.5t18.5 -45t44.5 -19t44.5 19z" />
    <glyph glyph-name="ogonek" unicode="&#x2db;" horiz-adv-x="255" 
d="M80.5 -186.5q-25.5 21.5 -25.5 62.5q0 37 21 69.5t55 54.5h50q-79 -56 -79 -119q0 -52 52 -52q24 0 46 9v-37q-19 -9 -56 -9q-38 0 -63.5 21.5z" />
    <glyph glyph-name="tilde" unicode="&#x2dc;" horiz-adv-x="472" 
d="M55 664q28 44 92 44q22 0 41.5 -6t49.5 -19q27 -12 46 -18.5t41 -6.5q28 0 51 12t41 41v-51q-27 -44 -92 -44q-25 0 -46.5 6.5t-48.5 19.5q-26 12 -44 18t-39 6q-28 0 -50 -11.5t-42 -41.5v51z" />
    <glyph glyph-name="hungarumlaut" unicode="&#x2dd;" horiz-adv-x="412" 
d="M124 751h55l-79 -169h-45zM303 751h54l-78 -169h-46z" />
    <glyph glyph-name="gravecomb" unicode="&#x300;" 
d="M-430 766h55l69 -169h-45z" />
    <glyph glyph-name="acutecomb" unicode="&#x301;" 
d="M-236 766h54l-78 -169h-46z" />
    <glyph glyph-name="uni0302" unicode="&#x302;" 
d="M-23 759h45l132 -156h-54l-100 121l-100 -121h-55z" />
    <glyph glyph-name="tildecomb" unicode="&#x303;" 
d="M-490 664q29 44 93 44q22 0 41.5 -6t49.5 -19q25 -12 44.5 -18.5t41.5 -6.5q29 0 51.5 11.5t41.5 41.5v-51q-28 -44 -93 -44q-25 0 -46.5 6.5t-48.5 19.5q-27 12 -44 18t-38 6q-28 0 -50 -11.5t-43 -41.5v51z" />
    <glyph glyph-name="uni0304" unicode="&#x304;" 
d="M-139 663h289v-39h-289v39z" />
    <glyph glyph-name="uni0306" unicode="&#x306;" 
d="M-93.5 611q-35.5 34 -35.5 85h42q0 -36 23.5 -58t63.5 -22t63.5 22t23.5 58h41q0 -51 -35.5 -85t-92.5 -34q-58 0 -93.5 34z" />
    <glyph glyph-name="uni0307" unicode="&#x307;" 
d="M-27.5 613.5q-11.5 11.5 -11.5 27.5t11.5 27t27.5 11q15 0 26.5 -11t11.5 -27t-11.5 -27.5t-26.5 -11.5q-16 0 -27.5 11.5z" />
    <glyph glyph-name="uni0308" unicode="&#x308;" 
d="M-131.5 613.5q-11.5 11.5 -11.5 27.5t11.5 27t27.5 11q15 0 26.5 -11t11.5 -27t-11.5 -27.5t-26.5 -11.5q-16 0 -27.5 11.5zM75.5 613.5q-11.5 11.5 -11.5 27.5t11.5 27t27.5 11t27.5 -11t11.5 -27t-11.5 -27.5t-27.5 -11.5t-27.5 11.5z" />
    <glyph glyph-name="hookabovecomb" unicode="&#x309;" 
d="M-369 631q50 0 71.5 15t21.5 48q0 56 -73 56q-15 0 -32.5 -2.5t-25.5 -6.5v35q11 4 29.5 6.5t36.5 2.5q55 0 83.5 -24.5t28.5 -64.5q0 -38 -24.5 -62.5t-70.5 -28.5v-39h-45v65z" />
    <glyph glyph-name="uni030A" unicode="&#x30a;" 
d="M-70.5 598.5q-29.5 29.5 -29.5 70.5t29.5 70t70.5 29t70 -29t29 -70t-29 -70.5t-70 -29.5t-70.5 29.5zM44.5 624q18.5 19 18.5 45t-18.5 44.5t-44.5 18.5q-27 0 -45 -18.5t-18 -44.5t18.5 -45t44.5 -19t44.5 19z" />
    <glyph glyph-name="uni030B" unicode="&#x30b;" 
d="M-88 766h54l-78 -169h-46zM90 766h55l-79 -169h-45z" />
    <glyph glyph-name="uni030C" unicode="&#x30c;" 
d="M-155 758h55l100 -121l100 121h54l-132 -156h-45z" />
    <glyph glyph-name="uni031B" unicode="&#x31b;" 
d="M-72 622q47 0 74 24t27 64v37h43v-39q0 -34 -18.5 -62.5t-51.5 -45.5t-74 -17v39z" />
    <glyph glyph-name="dotbelowcomb" unicode="&#x323;" 
d="M-27.5 -125.5q-11.5 11.5 -11.5 27.5t11.5 27t27.5 11q15 0 26.5 -11t11.5 -27t-11.5 -27.5t-26.5 -11.5q-16 0 -27.5 11.5z" />
    <glyph glyph-name="uni0324" unicode="&#x324;" 
d="M-131.5 -125.5q-11.5 11.5 -11.5 27.5t11.5 27t27.5 11q15 0 26.5 -11t11.5 -27t-11.5 -27.5t-26.5 -11.5q-16 0 -27.5 11.5zM75.5 -125.5q-11.5 11.5 -11.5 27.5t11.5 27t27.5 11t27.5 -11t11.5 -27t-11.5 -27.5t-27.5 -11.5t-27.5 11.5z" />
    <glyph glyph-name="uni0326" unicode="&#x326;" 
d="M-111 -67h56l-88 -193h-47z" />
    <glyph glyph-name="uni0327" unicode="&#x327;" 
d="M-55 -245.5q-18 2.5 -28 6.5v36q8 -4 24.5 -6.5t31.5 -2.5q72 0 72 56q0 32 -23.5 47.5t-80.5 15.5l35 93h50l-27 -67q48 -4 71.5 -27.5t23.5 -62.5q0 -40 -30 -65.5t-83 -25.5q-18 0 -36 2.5z" />
    <glyph glyph-name="uni0328" unicode="&#x328;" 
d="M-43.5 -186.5q-25.5 21.5 -25.5 62.5q0 37 21 69.5t55 54.5h50q-79 -56 -79 -119q0 -52 52 -52q24 0 46 9v-37q-19 -9 -56 -9q-38 0 -63.5 21.5z" />
    <glyph glyph-name="uni032E" unicode="&#x32e;" 
d="M-93.5 -150.5q-35.5 33.5 -35.5 85.5h42q0 -36 23.5 -58.5t63.5 -22.5t63.5 22.5t23.5 58.5h41q0 -52 -35.5 -85.5t-92.5 -33.5q-58 0 -93.5 33.5z" />
    <glyph glyph-name="uni0331" unicode="&#x331;" 
d="M-140 -80h291v-41h-291v41z" />
    <glyph glyph-name="uni0394" unicode="&#x394;" horiz-adv-x="682" 
d="M55 42l257 672h58l257 -672v-42h-572v42zM576 45l-235 615l-236 -615h471z" />
    <glyph glyph-name="uni03A9" unicode="&#x3a9;" horiz-adv-x="825" 
d="M55 45h176q-83 50 -129 129.5t-46 187.5q0 99 44.5 179.5t125.5 126.5t186 46q106 0 187 -46t125.5 -126.5t44.5 -179.5q0 -108 -46.5 -187.5t-128.5 -129.5h176v-45h-258v43q108 58 156.5 134.5t48.5 184.5q0 87 -39 156.5t-108.5 108.5t-157.5 39q-87 0 -156.5 -39
t-108.5 -108.5t-39 -156.5q0 -108 48.5 -184.5t156.5 -134.5v-43h-258v45z" />
    <glyph glyph-name="uni03BC" unicode="&#x3bc;" horiz-adv-x="587" 
d="M75 480h52v-312q0 -68 36.5 -104.5t111.5 -36.5q59 0 103.5 26t80.5 83v344h53v-480h-52v80q-67 -95 -189 -95q-96 0 -144 53v-257h-52v699z" />
    <glyph glyph-name="pi" unicode="&#x3c0;" horiz-adv-x="700" 
d="M487 25.5q-28 40.5 -28 131.5v278h-253v-435h-53v435h-108v45h575v-45h-108v-282q0 -47 7 -73.5t26 -39.5t57 -13q29 0 53 9v-44q-27 -7 -65 -7q-75 0 -103 40.5z" />
    <glyph glyph-name="uni0E01" unicode="&#xe01;" horiz-adv-x="622" 
d="M105 347l-50 77q48 62 111 94t152 32q111 0 170 -52t59 -145v-353h-53v347q0 82 -44 121t-132 39q-68 0 -117 -20.5t-89 -67.5l45 -70v-349h-52v347z" />
    <glyph glyph-name="uni0E02" unicode="&#xe02;" horiz-adv-x="554" 
d="M115 37.5q-56 52.5 -56 143.5v56q0 31 14.5 57.5t42.5 64.5q23 31 33 48.5t10 36.5q0 27 -12.5 37.5t-41.5 10.5h-50v43h69q41 0 64 -22.5t23 -63.5q0 -25 -12.5 -49t-37.5 -56q-24 -34 -36.5 -56.5t-12.5 -47.5v-63q0 -72 40 -110.5t117 -38.5t117 38.5t40 110.5v358h53
v-348q0 -96 -55.5 -149t-154.5 -53q-98 0 -154 52.5z" />
    <glyph glyph-name="uni0E03" unicode="&#xe03;" horiz-adv-x="553" 
d="M115 36.5q-56 51.5 -56 142.5v59q0 31 16 58t47 64q24 28 36 46.5t12 35.5v3q-22 -13 -51 -13q-30 0 -47 16.5t-17 47.5v39h43v-33q0 -18 8 -26t29 -8q24 0 41 14v53h44v-85q0 -27 -14.5 -51.5t-41.5 -57.5q-26 -32 -39.5 -55t-13.5 -47v-63q0 -71 40.5 -109.5
t117.5 -38.5t117 38.5t40 110.5v358h52v-348q0 -96 -55 -149t-154 -53q-98 0 -154 51.5z" />
    <glyph glyph-name="uni0E04" unicode="&#xe04;" horiz-adv-x="621" 
d="M75 345q0 98 62 151.5t173 53.5q112 0 174 -53.5t62 -151.5v-345h-53v345q0 81 -49 121.5t-134 40.5t-134 -40.5t-49 -121.5v-133q16 30 49 49t78 19h77v-43h-83q-33 0 -60.5 -17t-44 -43.5t-16.5 -53.5v-123h-52v345z" />
    <glyph glyph-name="uni0E05" unicode="&#xe05;" horiz-adv-x="621" 
d="M75 359q0 61 9 101.5t37 65t82 24.5q39 0 66.5 -18t39.5 -51q14 33 41.5 51t67.5 18q54 0 82 -24.5t37 -65t9 -101.5v-359h-53v397q0 56 -18 83t-63 27q-34 0 -54 -17t-29 -55h-38q-10 38 -29 55t-53 17q-46 0 -64 -27t-18 -82v-186q16 30 49 49t78 19h77v-43h-83
q-33 0 -60.5 -16.5t-44 -43t-16.5 -54.5v-123h-52v359z" />
    <glyph glyph-name="uni0E06" unicode="&#xe06;" horiz-adv-x="598" 
d="M205.5 9.5q-55.5 24.5 -95.5 75.5v-85h-51v225q0 31 17 61.5t47 68.5q25 33 36 51.5t11 35.5v3q-22 -13 -51 -13q-30 0 -47 16.5t-17 47.5v39h43v-33q0 -18 8 -26t29 -8q24 0 41 14v53h44v-87q0 -25 -14 -50.5t-40 -60.5q-28 -36 -41.5 -61t-13.5 -51v-86
q74 -111 198 -111q81 0 121.5 37t40.5 107v363h52v-365q0 -86 -53.5 -135.5t-151.5 -49.5q-57 0 -112.5 24.5z" />
    <glyph glyph-name="uni0E07" unicode="&#xe07;" horiz-adv-x="599" 
d="M55 468h53l147 -426q114 0 176 62t62 171q0 111 -43.5 171.5t-136.5 60.5q-36 0 -68 -9v43q30 9 76 9q109 0 166 -73.5t57 -201.5q0 -86 -35.5 -148t-97 -94.5t-138.5 -32.5h-57z" />
    <glyph glyph-name="uni0E08" unicode="&#xe08;" horiz-adv-x="578" 
d="M93 294h52l62 -252q78 0 138 29.5t93.5 83.5t33.5 126q0 113 -54.5 169.5t-172.5 56.5q-52 0 -102 -9t-88 -26v43q36 16 87.5 25.5t106.5 9.5q134 0 204 -68.5t70 -200.5q0 -81 -39.5 -145t-107.5 -100t-151 -36h-60z" />
    <glyph glyph-name="uni0E09" unicode="&#xe09;" horiz-adv-x="594" 
d="M124.5 33q-49.5 48 -49.5 135v140h52v-137q0 -143 152 -143q59 0 104.5 27t82.5 84v160q0 107 -49.5 157.5t-161.5 50.5q-54 0 -108 -9.5t-92 -25.5v43q36 16 91 25.5t112 9.5q134 0 197.5 -61.5t63.5 -187.5v-301h-52v85q-39 -51 -90 -75.5t-108 -24.5q-95 0 -144.5 48z
" />
    <glyph glyph-name="uni0E0A" unicode="&#xe0a;" horiz-adv-x="569" 
d="M119 38q-60 53 -60 144v58q0 32 14.5 59t42.5 63q22 28 32.5 46t10.5 36q0 27 -12.5 37.5t-41.5 10.5h-50v43h69q41 0 64 -22.5t23 -63.5q0 -25 -12 -47.5t-37 -54.5t-37.5 -56t-12.5 -49v-65q0 -70 44.5 -109.5t121.5 -39.5q81 0 130.5 43.5t49.5 130.5q0 81 -36.5 125
t-104.5 44v32l116 147h59l-118 -150q69 -15 102 -67.5t33 -130.5q0 -107 -64 -162t-167 -55q-99 0 -159 53z" />
    <glyph glyph-name="uni0E0B" unicode="&#xe0b;" horiz-adv-x="569" 
d="M119 37q-60 52 -60 143v58q0 31 16 58t47 64q24 28 36 46.5t12 35.5v3q-22 -13 -51 -13q-30 0 -47 16.5t-17 47.5v39h43v-33q0 -18 8 -26t29 -8q24 0 41 14v53h44v-85q0 -27 -14 -51t-42 -59q-26 -32 -39.5 -55t-13.5 -47v-61q0 -71 44.5 -110t121.5 -39q81 0 130.5 43.5
t49.5 130.5q0 81 -36.5 125t-103.5 44v32l115 147h60l-118 -150q69 -15 102 -67.5t33 -130.5q0 -107 -64.5 -162t-167.5 -55q-98 0 -158 52z" />
    <glyph glyph-name="uni0E0C" unicode="&#xe0c;" horiz-adv-x="993" 
d="M617 9q-53 24 -92 75v-84h-51v347q0 82 -41.5 121t-124.5 39q-64 0 -109.5 -20t-86.5 -68l45 -70v-250q0 -30 13.5 -42.5t43.5 -12.5h55v-44h-75q-43 0 -66 24t-23 67v256l-50 77q48 63 108 94.5t145 31.5q107 0 162.5 -51.5t55.5 -145.5v-214q74 -111 188 -111
q76 0 114 36.5t38 107.5v363h52v-365q0 -86 -50.5 -135.5t-144.5 -49.5q-53 0 -106 24z" />
    <glyph glyph-name="uni0E0D" unicode="&#xe0d;" horiz-adv-x="998" 
d="M603.5 -85.5q-51.5 12.5 -77.5 31.5v45q36 -23 83 -34.5t94 -11.5q82 0 129 25t47 75q0 41 -29 66q-57 -44 -152 -44q-109 0 -166.5 56.5t-57.5 153.5v70q0 82 -41.5 121t-124.5 39q-64 0 -109.5 -20t-86.5 -68l45 -70v-250q0 -30 13.5 -42.5t43.5 -12.5h55v-44h-75
q-43 0 -66 24t-23 67v256l-50 77q48 63 108 94.5t145 31.5q107 0 162.5 -51.5t55.5 -145.5v-79q0 -77 42.5 -121t129.5 -44t129 45t42 122v259h52v-258q0 -80 -39 -133q46 -37 46 -99q0 -70 -60.5 -106.5t-164.5 -36.5q-48 0 -99.5 12.5z" />
    <glyph glyph-name="uni0E0E" unicode="&#xe0e;" horiz-adv-x="651" 
d="M201 -177q21 24 65.5 41t88.5 17q96 0 168 -53v519q0 82 -44.5 121t-131.5 39q-68 0 -116 -20.5t-89 -66.5l64 -70v-259q0 -43 -23 -67t-66 -24h-62v44h43q31 0 43.5 12t12.5 43v248l-70 77q48 62 111 94t152 32q111 0 170 -52t59 -145v-574h-49q-47 33 -85.5 46
t-86.5 13q-43 0 -84.5 -16.5t-69.5 -46.5v48z" />
    <glyph glyph-name="uni0E0F" unicode="&#xe0f;" horiz-adv-x="651" 
d="M181 -216.5q-27 7.5 -44 18.5v43q19 -12 45 -19t51 -7q50 0 77.5 21t38.5 68h39l135 -81v520q0 160 -176 160q-68 0 -116 -20t-89 -66l64 -71v-259q0 -43 -23 -67t-66 -24h-62v44h43q31 0 43.5 12t12.5 43v248l-70 77q48 62 111 94t152 32q111 0 170 -52t59 -145v-574
h-51l-148 89q-17 -49 -52.5 -70.5t-89.5 -21.5q-27 0 -54 7.5z" />
    <glyph glyph-name="uni0E10" unicode="&#xe10;" horiz-adv-x="582" 
d="M93 294h52l62 -252q78 0 138 29.5t93.5 83.5t33.5 126q0 113 -54.5 169.5t-172.5 56.5q-52 0 -102 -9t-88 -26v43q36 16 87.5 25.5t106.5 9.5q101 0 168 -41l59 66h58l-83 -92q72 -70 72 -202q0 -81 -39.5 -145t-107.5 -100t-151 -36h-60zM109.5 -216.5
q-27.5 7.5 -43.5 18.5v44q19 -13 44.5 -20t51.5 -7q50 0 77 21t39 68h36l138 -83v110h52v-156h-51l-147 90q-17 -51 -51.5 -72t-89.5 -21q-28 0 -55.5 7.5z" />
    <glyph glyph-name="uni0E11" unicode="&#xe11;" horiz-adv-x="607" 
d="M70 238q0 31 14.5 57.5t42.5 64.5q21 28 31.5 46.5t10.5 35.5v3q-20 -13 -50 -13q-31 0 -47.5 16.5t-16.5 47.5v39h43v-33q0 -18 8 -26t29 -8q24 0 41 14v53h44v-55q30 35 71.5 52.5t88.5 17.5q152 0 152 -172v-378h-52v381q0 62 -25.5 94t-82.5 32q-49 0 -87.5 -19.5
t-69.5 -62.5q-5 -20 -15 -38t-31 -47q-24 -31 -35.5 -53.5t-11.5 -47.5v-239h-52v238z" />
    <glyph glyph-name="uni0E12" unicode="&#xe12;" horiz-adv-x="1029" 
d="M122 56q-67 71 -67 202q0 137 45 214.5t124 77.5q41 0 66 -17.5t39 -51.5q14 33 43.5 51t69.5 18q120 0 120 -150v-261q74 -111 188 -111q151 0 151 144v363h53v-365q0 -86 -50.5 -135.5t-144.5 -49.5q-54 0 -106 24t-92 75v-84h-51v397q0 56 -17 83t-59 27
q-68 0 -86 -72h-39q-8 35 -26 53.5t-52 18.5q-63 0 -94 -72t-31 -177q0 -113 53.5 -171.5t147.5 -58.5q40 0 72 8v-42q-14 -4 -36 -6.5t-41 -2.5q-113 0 -180 71z" />
    <glyph glyph-name="uni0E13" unicode="&#xe13;" horiz-adv-x="993" 
d="M524.5 34.5q-50.5 49.5 -50.5 135.5v177q0 82 -41.5 121t-124.5 39q-64 0 -109.5 -20t-86.5 -68l45 -70v-250q0 -30 13.5 -42.5t43.5 -12.5h55v-44h-75q-43 0 -66 24t-23 67v256l-50 77q48 63 108 94.5t145 31.5q107 0 162.5 -51.5t55.5 -145.5v-181q0 -71 38 -107.5
t114 -36.5q114 0 188 111v396h52v-535h-51v84q-38 -51 -90 -75t-108 -24q-94 0 -144.5 49.5z" />
    <glyph glyph-name="uni0E14" unicode="&#xe14;" horiz-adv-x="655" 
d="M122 56q-67 71 -67 202q0 137 73 214.5t203 77.5q132 0 190.5 -62.5t58.5 -155.5v-332h-53v333q0 82 -47 128t-149 46q-106 0 -165.5 -64.5t-59.5 -184.5q0 -112 53.5 -171t147.5 -59q42 0 72 8v-42q-14 -4 -36 -6.5t-41 -2.5q-113 0 -180 71z" />
    <glyph glyph-name="uni0E15" unicode="&#xe15;" horiz-adv-x="655" 
d="M122 56q-67 71 -67 202q0 90 22 156t62.5 101t92.5 35q41 0 66.5 -17.5t38.5 -51.5q15 33 46.5 51t72.5 18q64 0 94 -40.5t30 -109.5v-400h-53v397q0 55 -18.5 82.5t-61.5 27.5q-72 0 -90 -72h-39q-9 38 -27.5 55t-52.5 17q-37 0 -67 -29t-47.5 -85.5t-17.5 -134.5
q0 -112 53.5 -171t147.5 -59q42 0 72 8v-42q-14 -4 -36 -6.5t-41 -2.5q-113 0 -180 71z" />
    <glyph glyph-name="uni0E16" unicode="&#xe16;" horiz-adv-x="622" 
d="M128 24q-23 24 -23 67v256l-50 77q48 62 111 94t152 32q111 0 170 -52t59 -145v-353h-53v347q0 82 -44 121t-132 39q-68 0 -116 -20.5t-90 -67.5l45 -70v-250q0 -30 13.5 -42.5t43.5 -12.5h55v-44h-75q-43 0 -66 24z" />
    <glyph glyph-name="uni0E17" unicode="&#xe17;" horiz-adv-x="614" 
d="M75 535h51v-84q40 51 97.5 75t116.5 24q95 0 147 -50t52 -132v-368h-52v366q0 66 -39 103.5t-117 37.5q-63 0 -115 -26.5t-89 -82.5v-398h-52v535z" />
    <glyph glyph-name="uni0E18" unicode="&#xe18;" horiz-adv-x="546" 
d="M120 26.5q-63 41.5 -63 116.5v69h52v-71q0 -55 48 -84t122 -29q76 0 118.5 26.5t42.5 80.5q0 40 -17 63t-52.5 37.5t-108.5 33.5q-74 19 -114 34t-66.5 42t-26.5 73q0 132 214 132q50 0 106 -12t84 -30v-45q-34 20 -85.5 32t-101.5 12q-81 0 -123.5 -19t-42.5 -70
q0 -32 21 -51.5t54.5 -30.5t113.5 -33q73 -19 112.5 -36.5t61.5 -48.5t22 -83q0 -70 -55 -110t-157 -40q-96 0 -159 41.5z" />
    <glyph glyph-name="uni0E19" unicode="&#xe19;" horiz-adv-x="614" 
d="M128.5 34.5q-53.5 49.5 -53.5 135.5v365h52v-363q0 -70 41 -107t121 -37q124 0 198 111v396h52v-535h-51v85q-39 -51 -92.5 -75.5t-115.5 -24.5q-98 0 -151.5 49.5z" />
    <glyph glyph-name="uni0E1A" unicode="&#xe1a;" horiz-adv-x="629" 
d="M187 11.5q-54 26.5 -83 74.5t-29 111v338h52v-342q0 -75 49 -120t138 -45t138 45t49 120v342h53v-338q0 -63 -29 -111t-83.5 -74.5t-127.5 -26.5t-127 26.5z" />
    <glyph glyph-name="uni0E1B" unicode="&#xe1b;" horiz-adv-x="629" 
d="M187 11.5q-54 26.5 -83 74.5t-29 111v338h52v-342q0 -75 49 -120t138 -45t138 45t49 120v521h53v-517q0 -63 -29 -111t-83.5 -74.5t-127.5 -26.5t-127 26.5z" />
    <glyph glyph-name="uni0E1C" unicode="&#xe1c;" horiz-adv-x="630" 
d="M75 442q0 45 22.5 69t65.5 24h57v-45h-36q-30 0 -43.5 -12.5t-13.5 -42.5v-352l175 299h26l174 -299v452h53v-535h-50l-190 325l-190 -325h-50v442z" />
    <glyph glyph-name="uni0E1D" unicode="&#xe1d;" horiz-adv-x="630" 
d="M75 442q0 45 22.5 69t65.5 24h57v-45h-36q-30 0 -43.5 -12.5t-13.5 -42.5v-352l175 299h26l174 -299v631h53v-714h-50l-190 325l-190 -325h-50v442z" />
    <glyph glyph-name="uni0E1E" unicode="&#xe1e;" horiz-adv-x="759" 
d="M45 535h52l120 -456l139 456h47l139 -456l120 456h52l-148 -535h-43l-144 471l-143 -471h-43z" />
    <glyph glyph-name="uni0E1F" unicode="&#xe1f;" horiz-adv-x="749" 
d="M45 535h52l120 -456l139 456h47l139 -456l162 635h50l-188 -714h-43l-144 471l-143 -471h-43z" />
    <glyph glyph-name="uni0E20" unicode="&#xe20;" horiz-adv-x="651" 
d="M55 44h43q31 0 43.5 12t12.5 43v248l-70 77q48 62 111 94t152 32q111 0 170 -52t59 -145v-353h-53v347q0 160 -176 160q-68 0 -116 -20t-89 -66l64 -71v-259q0 -43 -23 -67t-66 -24h-62v44z" />
    <glyph glyph-name="uni0E21" unicode="&#xe21;" horiz-adv-x="614" 
d="M220.5 9.5q-54.5 24.5 -94.5 75.5v-85h-51v535h52v-396q74 -111 198 -111q80 0 121 37t41 107v363h52v-365q0 -86 -53.5 -135.5t-151.5 -49.5q-59 0 -113.5 24.5z" />
    <glyph glyph-name="uni0E22" unicode="&#xe22;" horiz-adv-x="612" 
d="M119 25.5q-64 40.5 -64 123.5q0 50 26 85.5t72 48.5q-45 15 -70.5 48t-25.5 79q0 62 40 101t115 39q19 0 41.5 -3t35.5 -6v-42q-13 4 -34 6t-37 2q-52 0 -81 -26.5t-29 -72.5t33 -74t92 -28h56v-44h-55q-60 0 -94 -28.5t-34 -84.5q0 -60 49.5 -90.5t136.5 -30.5
q192 0 192 169v338h53v-337q0 -89 -56.5 -151t-188.5 -62q-109 0 -173 40.5z" />
    <glyph glyph-name="uni0E23" unicode="&#xe23;" horiz-adv-x="497" 
d="M141.5 -1q-53.5 14 -85.5 38v45q41 -27 89.5 -40.5t97.5 -13.5q77 0 112 23t35 72q0 33 -12.5 54t-45.5 37.5t-97 33.5q-62 18 -99.5 36t-59 47t-21.5 75q0 70 51.5 107t143.5 37q46 0 89 -11.5t72 -30.5v-44q-72 43 -158 43q-147 0 -147 -101q0 -34 16 -55t49.5 -35.5
t98.5 -31.5q65 -18 101.5 -38t53.5 -49t17 -74q0 -63 -47.5 -100.5t-149.5 -37.5q-50 0 -103.5 14z" />
    <glyph glyph-name="uni0E24" unicode="&#xe24;" horiz-adv-x="622" 
d="M494 347q0 82 -44 121t-132 39q-68 0 -116 -20.5t-90 -67.5l45 -70v-250q0 -30 13.5 -42.5t43.5 -12.5h55v-44h-75q-43 0 -66 24t-23 67v256l-50 77q48 62 111 94t152 32q111 0 170 -52t59 -145v-549h-53v543z" />
    <glyph glyph-name="uni0E25" unicode="&#xe25;" horiz-adv-x="585" 
d="M104 27q-49 42 -49 123q0 80 55.5 125.5t147.5 45.5q110 0 200 -44v76q0 81 -43 117.5t-133 36.5q-46 0 -91 -8t-77 -22v43q28 13 77 21.5t96 8.5q114 0 168.5 -52t54.5 -146v-352h-52v234q-87 44 -197 44q-76 0 -115.5 -33.5t-39.5 -95.5q0 -121 144 -121q16 0 36 2
t33 6v-42q-34 -9 -78 -9q-88 0 -137 42z" />
    <glyph glyph-name="uni0E26" unicode="&#xe26;" horiz-adv-x="651" 
d="M523 347q0 160 -176 160q-68 0 -116 -20t-89 -66l64 -71v-259q0 -43 -23 -67t-66 -24h-62v44h43q31 0 43.5 12t12.5 43v248l-70 77q48 62 111 94t152 32q111 0 170 -52t59 -145v-549h-53v543z" />
    <glyph glyph-name="uni0E27" unicode="&#xe27;" horiz-adv-x="580" 
d="M55 34v47q68 -53 181 -53q112 0 175 60.5t63 178.5t-63.5 179t-174.5 61q-113 0 -181 -54v48q73 49 187 49q86 0 150 -33.5t98.5 -97t34.5 -152.5q0 -133 -76 -207.5t-207 -74.5q-116 0 -187 49z" />
    <glyph glyph-name="uni0E28" unicode="&#xe28;" horiz-adv-x="630" 
d="M75 345q0 98 62 151.5t173 53.5q84 0 144 -33l53 58h58l-76 -84q57 -52 57 -146v-345h-53v345q0 81 -49 121.5t-134 40.5t-134 -40.5t-49 -121.5v-133q16 30 49 49t78 19h77v-43h-83q-33 0 -60.5 -17t-44 -43.5t-16.5 -53.5v-123h-52v345z" />
    <glyph glyph-name="uni0E29" unicode="&#xe29;" horiz-adv-x="648" 
d="M187 11.5q-54 26.5 -83 74.5t-29 111v338h52v-342q0 -75 49 -120t138 -45t138 45t49 120v92h-147v43h147v207h53v-207h64v-43h-64v-88q0 -63 -29 -111t-83.5 -74.5t-127.5 -26.5t-127 26.5z" />
    <glyph glyph-name="uni0E2A" unicode="&#xe2a;" horiz-adv-x="592" 
d="M104 27q-49 42 -49 123q0 80 55.5 125.5t147.5 45.5q110 0 200 -44v76q0 81 -43 117.5t-133 36.5q-46 0 -91 -8t-77 -22v43q28 13 77 21.5t96 8.5q96 0 151 -39l58 64h58l-84 -93q40 -50 40 -130v-352h-52v234q-87 44 -197 44q-76 0 -115.5 -33.5t-39.5 -95.5
q0 -121 144 -121q16 0 36 2t33 6v-42q-34 -9 -78 -9q-88 0 -137 42z" />
    <glyph glyph-name="uni0E2B" unicode="&#xe2b;" horiz-adv-x="588" 
d="M75 535h52v-279l316 279h64l-144 -129q83 -19 116.5 -63.5t33.5 -118.5v-224h-53v222q0 67 -29.5 101t-102.5 50l-201 -175v-198h-52v535z" />
    <glyph glyph-name="uni0E2C" unicode="&#xe2c;" horiz-adv-x="637" 
d="M75 535h52v-449l176 304h26l176 -304v318q0 66 -26.5 96.5t-94.5 30.5v33l117 150h61l-119 -152q66 -13 90 -51.5t24 -103.5v-407h-50l-191 332l-191 -332h-50v535z" />
    <glyph glyph-name="uni0E2D" unicode="&#xe2d;" horiz-adv-x="593" 
d="M144 -0.5q-52 14.5 -89 44.5v239h186v-43h-134v-174q31 -21 66.5 -29.5t78.5 -8.5q110 0 172.5 63t62.5 181q0 119 -59.5 177t-182.5 58q-119 0 -187 -52v46q72 49 192 49q138 0 213 -72t75 -206q0 -88 -34.5 -153t-99 -99.5t-152.5 -34.5q-56 0 -108 14.5z" />
    <glyph glyph-name="uni0E2E" unicode="&#xe2e;" horiz-adv-x="601" 
d="M144 -0.5q-52 14.5 -89 44.5v239h186v-43h-134v-174q31 -21 66.5 -29.5t78.5 -8.5q110 0 172.5 63t62.5 181q0 119 -60 177t-182 58q-119 0 -187 -52v46q72 49 192 49q109 0 177 -45l63 70h59l-88 -97q77 -75 77 -206q0 -88 -34.5 -153t-99 -99.5t-152.5 -34.5
q-56 0 -108 14.5z" />
    <glyph glyph-name="uni0E2F" unicode="&#xe2f;" horiz-adv-x="484" 
d="M356 290q-29 -21 -68.5 -32.5t-83.5 -11.5q-75 0 -122 38.5t-47 112.5q0 73 43 113t110 40q50 0 78 -11v-41q-31 9 -69 9q-51 0 -81 -27t-30 -83q0 -55 34 -81.5t92 -26.5q83 0 144 45v201h53v-535h-53v290z" />
    <glyph glyph-name="uni0E30" unicode="&#xe30;" horiz-adv-x="311" 
d="M55 400v43h49v-33q0 -18 8 -25.5t29 -7.5h115v-40h-135q-66 0 -66 63zM55 123v44h49v-33q0 -19 8 -26t29 -7h115v-41h-135q-66 0 -66 63z" />
    <glyph glyph-name="uni0E31" unicode="&#xe31;" 
d="M-301 692v42h49v-33q0 -19 7.5 -26t29.5 -7h233v-41h-253q-66 0 -66 65z" />
    <glyph glyph-name="uni0E32" unicode="&#xe32;" horiz-adv-x="423" 
d="M296 354q0 77 -32.5 115t-107.5 38t-131 -28v43q24 12 60.5 20t74.5 8q188 0 188 -199v-351h-52v354z" />
    <glyph glyph-name="uni0E33" unicode="&#xe33;" horiz-adv-x="424" 
d="M-192.5 641q-29.5 29 -29.5 71q0 41 30 71t71 30t70.5 -30t29.5 -71q0 -42 -29.5 -71t-70.5 -29q-42 0 -71.5 29zM-79 668.5q18 18.5 18 43.5q0 24 -18 42.5t-42 18.5q-25 0 -42.5 -18.5t-17.5 -42.5q0 -25 17.5 -43.5t42.5 -18.5q24 0 42 18.5zM296 354q0 77 -32 115
t-107 38q-76 0 -132 -28v43q25 12 61.5 20t74.5 8q96 0 142 -52t46 -147v-351h-53v354z" />
    <glyph glyph-name="uni0E34" unicode="&#xe34;" 
d="M-476 668h401v-41h-401v41z" />
    <glyph glyph-name="uni0E35" unicode="&#xe35;" 
d="M-477 668h354v109h48v-150h-402v41z" />
    <glyph glyph-name="uni0E36" unicode="&#xe36;" 
d="M-475 668h264q-17 17 -17 44q0 38 24 60.5t63 22.5q42 0 64.5 -23.5t22.5 -59.5q0 -37 -25.5 -61t-67.5 -24h-328v41zM-103.5 674q13.5 14 13.5 38q0 23 -13.5 37.5t-37.5 14.5t-38 -14.5t-14 -37.5q0 -24 14 -38t38 -14t37.5 14z" />
    <glyph glyph-name="uni0E37" unicode="&#xe37;" 
d="M-476 668h217v109h43v-109h98v109h43v-150h-401v41z" />
    <glyph glyph-name="uni0E38" unicode="&#xe38;" 
d="M-124 -141q0 17 -6.5 23t-25.5 6h-35v45h60q32 0 44 -14.5t12 -48.5v-122h-49v111z" />
    <glyph glyph-name="uni0E39" unicode="&#xe39;" 
d="M-258.5 -237.5q-28.5 23.5 -28.5 62.5v45q0 14 -4 18.5t-17 4.5h-35v40h61q23 0 32 -11t9 -35v-58q0 -26 15.5 -40t44.5 -14q60 0 60 54v104h46v-107q0 -39 -28 -63t-77 -24q-50 0 -78.5 23.5z" />
    <glyph glyph-name="uni0E3A" unicode="&#xe3a;" 
d="M-127 -122q-11 11 -11 25q0 15 11 26t25 11q15 0 26 -11t11 -26q0 -14 -11 -25t-26 -11q-14 0 -25 11z" />
    <glyph glyph-name="uni0E3F" unicode="&#xe3f;" horiz-adv-x="633" 
d="M274 0h-199v699h199v103h48v-103h52q179 0 179 -183q0 -57 -27 -98t-70 -59q57 -13 89.5 -56t32.5 -114q0 -58 -24.5 -101t-67.5 -65.5t-95 -22.5h-69v-103h-48v103zM274 380v274h-146v-274h146zM378 380q55 0 89 35.5t34 99.5q0 76 -33 107.5t-99 31.5h-47v-274h56z
M274 45v290h-146v-290h146zM383 45q66 0 104.5 34.5t38.5 110.5t-40 110.5t-116 34.5h-48v-290h61z" />
    <glyph glyph-name="uni0E40" unicode="&#xe40;" horiz-adv-x="275" 
d="M97 24q-22 24 -22 67v444h52v-437q0 -30 13 -42t43 -12h37v-44h-59q-42 0 -64 24z" />
    <glyph glyph-name="uni0E41" unicode="&#xe41;" horiz-adv-x="509" 
d="M97 24q-22 24 -22 67v444h52v-437q0 -30 13 -42t43 -12h37v-44h-59q-42 0 -64 24zM331 24q-22 24 -22 67v444h53v-437q0 -30 13 -42t43 -12h36v-44h-59q-42 0 -64 24z" />
    <glyph glyph-name="uni0E42" unicode="&#xe42;" horiz-adv-x="309" 
d="M150 24q-22 24 -22 67v424q0 76 -28 118.5t-90 70.5v48h274v-45h-203q50 -27 75 -74.5t25 -120.5v-414q0 -30 13 -42t43 -12h36v-44h-59q-42 0 -64 24z" />
    <glyph glyph-name="uni0E43" unicode="&#xe43;" horiz-adv-x="284" 
d="M111 24q-22 24 -22 67v306q0 56 19 90.5t54 72.5q23 24 34.5 41.5t11.5 39.5q0 39 -20.5 58.5t-69.5 19.5q-57 0 -113 -33v44q54 32 124 32q67 0 98.5 -33t31.5 -87q0 -29 -12.5 -49t-39.5 -49q-33 -36 -49.5 -65.5t-16.5 -77.5v-303q0 -30 13 -42t43 -12h37v-44h-59
q-42 0 -64 24z" />
    <glyph glyph-name="uni0E44" unicode="&#xe44;" horiz-adv-x="309" 
d="M135 25q-22 24 -22 67v419q0 76 25 122.5t78 73.5h-206v45h274v-47q-62 -29 -90.5 -72t-28.5 -118v-415q0 -30 13 -42t43 -12h37v-45h-59q-42 0 -64 24z" />
    <glyph glyph-name="uni0E45" unicode="&#xe45;" horiz-adv-x="423" 
d="M296 354q0 77 -32.5 115t-107.5 38t-131 -28v43q24 12 60.5 20t74.5 8q188 0 188 -199v-547h-52v550z" />
    <glyph glyph-name="uni0E46" unicode="&#xe46;" horiz-adv-x="569" 
d="M442 402q0 55 -16.5 80t-59.5 25q-34 0 -53.5 -17.5t-28.5 -54.5h-39q-9 39 -24 55.5t-49 16.5q-36 0 -61 -31t-25 -102q0 -122 129 -122q36 0 72 8v-42q-41 -9 -77 -9q-79 0 -127 40t-48 125q0 87 36.5 131.5t94.5 44.5q40 0 63 -17.5t36 -51.5q13 33 40 51t67 18
q68 0 95 -39t27 -113v-398h-52v402z" />
    <glyph glyph-name="uni0E47" unicode="&#xe47;" 
d="M-415.5 631.5q-27.5 27.5 -27.5 72.5q0 54 31.5 81.5t86.5 27.5h220v-35h-218q-40 0 -59.5 -17.5t-19.5 -54.5q0 -32 17 -49.5t47 -17.5q32 0 49.5 17t17.5 45h37q0 -27 16 -42.5t46 -15.5h50v-35h-49q-33 0 -55 14.5t-27 34.5q-8 -21 -31.5 -37t-56.5 -16
q-47 0 -74.5 27.5z" />
    <glyph glyph-name="uni0E48" unicode="&#xe48;" 
d="M-126 783h50v-156h-50v156z" />
    <glyph glyph-name="uni0E49" unicode="&#xe49;" 
d="M-262 689q0 13 -5 18.5t-18 5.5h-43v40h55q28 0 40.5 -13.5t12.5 -34.5v-40h204v-38h-246v62z" />
    <glyph glyph-name="uni0E4A" unicode="&#xe4a;" 
d="M-410 665.5q-7 21.5 -7 43.5q0 51 23.5 77t60.5 26q28 0 43.5 -10.5t24.5 -32.5q16 42 67 42q74 0 74 -82v-68h19q19 0 27.5 8.5t8.5 27.5v113h35v-97q0 -47 -17.5 -66.5t-68.5 -19.5h-38v77q0 40 -8 55t-35 15t-37.5 -15.5t-10.5 -41.5v-15h-32v15q0 25 -11 41t-36 16
t-37 -16.5t-12 -51.5q0 -41 27 -79h-40q-13 17 -20 38.5z" />
    <glyph glyph-name="uni0E4B" unicode="&#xe4b;" 
d="M-184 692h-72v42h72v65h49v-65h72v-42h-72v-65h-49v65z" />
    <glyph glyph-name="uni0E4C" unicode="&#xe4c;" 
d="M-284 671q0 62 67 62h221v-39h-201q-22 0 -30 -7.5t-8 -26.5v-33h-49v44z" />
    <glyph glyph-name="uni0E4D" unicode="&#xe4d;" 
d="M-192.5 641q-29.5 29 -29.5 71q0 41 30 71t71 30t70.5 -30t29.5 -71q0 -42 -29.5 -71t-70.5 -29q-42 0 -71.5 29zM-79 668.5q18 18.5 18 43.5q0 24 -18 42.5t-42 18.5q-25 0 -42.5 -18.5t-17.5 -42.5q0 -25 17.5 -43.5t42.5 -18.5q24 0 42 18.5z" />
    <glyph glyph-name="uni0E4E" unicode="&#xe4e;" 
d="M-263 646.5q-25 20.5 -25 56.5q0 37 23.5 58t61.5 24q-20 17 -20 41q0 27 21.5 44t53.5 17q34 0 53 -12v-34q-20 13 -50 13q-18 0 -28 -8t-10 -23t9.5 -24t31.5 -13v-32q-14 4 -39 4q-32 0 -49 -12t-17 -40q0 -22 15 -34.5t43 -12.5q38 0 59 17v-34q-24 -16 -65 -16
q-43 0 -68 20.5z" />
    <glyph glyph-name="uni0E4F" unicode="&#xe4f;" horiz-adv-x="616" 
d="M178.5 17q-57.5 32 -90.5 90t-33 133q0 74 33 132t91 90.5t129 32.5t129 -32.5t91 -90.5t33 -132q0 -75 -33 -133t-90.5 -90t-129.5 -32t-129.5 32zM416 52.5q48 26.5 75 75t27 112.5q0 63 -27.5 111.5t-75 75t-107.5 26.5t-107.5 -26.5t-75 -75t-27.5 -111.5
q0 -64 27 -112.5t75 -75t108 -26.5t108 26.5zM226 97.5q-37 20.5 -58.5 57.5t-21.5 85q0 47 21.5 84t58.5 57.5t82 20.5t82 -20.5t58.5 -57.5t21.5 -84q0 -48 -21.5 -85t-58.5 -57.5t-82 -20.5t-82 20.5zM395 150q34 34 34 90t-34 89.5t-87 33.5t-87 -33.5t-34 -89.5t34 -90
t87 -34t87 34z" />
    <glyph glyph-name="uni0E50" unicode="&#xe50;" horiz-adv-x="631" 
d="M181 17q-59 32 -92.5 90t-33.5 133t33.5 133t92.5 90t134 32t134 -32t93 -90t34 -133t-34 -133t-93 -90t-134 -32t-134 32zM422.5 53q47.5 26 74.5 74.5t27 112.5q0 63 -27 111.5t-74.5 74.5t-107.5 26q-59 0 -107 -26.5t-75 -74.5t-27 -111q0 -64 27 -112.5t74.5 -74.5
t107.5 -26t107.5 26z" />
    <glyph glyph-name="uni0E51" unicode="&#xe51;" horiz-adv-x="638" 
d="M284 -38q122 27 184.5 91.5t62.5 175.5q0 223 -217 223q-99 0 -153.5 -51t-54.5 -140q0 -78 44.5 -120t120.5 -42q29 0 55 6.5t43 18.5v-42q-42 -26 -106 -26q-95 0 -151.5 55.5t-56.5 149.5q0 109 69 171.5t190 62.5q134 0 201.5 -70t67.5 -195q0 -121 -74.5 -201
t-224.5 -114v47z" />
    <glyph glyph-name="uni0E52" unicode="&#xe52;" horiz-adv-x="705" 
d="M150.5 44q-75.5 59 -75.5 181v325h49v-336q0 -92 63 -139t168 -47q103 0 164.5 47.5t61.5 149.5v145q0 43 -17 62t-53 19q-28 0 -48.5 -18t-30.5 -54h-40q-9 38 -25.5 55.5t-45.5 17.5q-78 0 -78 -133q0 -62 30.5 -91.5t82.5 -29.5q43 0 68 8v-43q-31 -7 -70 -7
q-73 0 -115.5 42.5t-42.5 120.5q0 83 32.5 129.5t89.5 46.5q39 0 61.5 -18t32.5 -52q12 32 39 51t64 19q55 0 85 -30t30 -89v-146q0 -121 -71.5 -183t-203.5 -62q-129 0 -204.5 59z" />
    <glyph glyph-name="uni0E53" unicode="&#xe53;" horiz-adv-x="655" 
d="M101.5 49.5q-46.5 64.5 -46.5 179.5q0 129 46.5 197.5t127.5 68.5q74 0 104 -58q18 27 49.5 42.5t66.5 15.5q56 0 93.5 -33.5t37.5 -92.5v-369h-53v366q0 43 -22.5 64.5t-63.5 21.5q-34 0 -59 -20.5t-25 -53.5v-209h-49v209q0 34 -20.5 54t-55.5 20q-61 0 -93 -58.5
t-32 -164.5q0 -99 33 -150t89 -51q46 0 73 10v-45q-35 -8 -76 -8q-78 0 -124.5 64.5z" />
    <glyph glyph-name="uni0E54" unicode="&#xe54;" horiz-adv-x="623" 
d="M119.5 58.5q-64.5 58.5 -64.5 172.5q0 125 77 195.5t222 70.5h32q44 0 71.5 4t47.5 18.5t29 44.5h50q-13 -45 -38 -69t-67 -33t-112 -9q-132 0 -196.5 -55.5t-64.5 -166.5q0 -96 50 -141.5t141 -45.5h89q-29 14 -46.5 45.5t-17.5 70.5q0 63 39.5 102t106.5 39
q57 0 89 -17v-44q-13 8 -34.5 13t-44.5 5q-52 0 -78.5 -28.5t-26.5 -76.5q0 -54 34 -81.5t99 -27.5h76v-44h-283q-115 0 -179.5 58.5z" />
    <glyph glyph-name="uni0E55" unicode="&#xe55;" horiz-adv-x="623" 
d="M119.5 58.5q-64.5 58.5 -64.5 172.5q0 115 64 182.5t183 78.5q-10 9 -16 23.5t-6 29.5q0 37 24.5 61t61.5 24t61 -23.5t24 -59.5q0 -31 -19 -49q42 2 68 16t34 50h50q-13 -45 -38.5 -68.5t-67.5 -32.5t-111 -9q-132 0 -196.5 -55.5t-64.5 -167.5q0 -96 50 -141.5
t141 -45.5h89q-29 14 -46.5 45.5t-17.5 70.5q0 63 39.5 102t106.5 39q57 0 89 -17v-44q-13 8 -34.5 13t-44.5 5q-52 0 -78.5 -28.5t-26.5 -76.5q0 -54 34 -81.5t99 -27.5h76v-44h-283q-115 0 -179.5 58.5zM402.5 507q14.5 15 14.5 38q0 22 -14.5 37t-36.5 15t-36.5 -15
t-14.5 -37q0 -23 14.5 -38t36.5 -15t36.5 15z" />
    <glyph glyph-name="uni0E56" unicode="&#xe56;" horiz-adv-x="658" 
d="M217 1.5q-58 16.5 -93 46.5v46q88 -66 212 -66q62 0 110.5 25t76.5 72.5t28 111.5q0 98 -50 156.5t-150 58.5q-76 0 -132 -37t-82 -117h-42l-60 253h45l44 -194q26 65 86.5 101.5t144.5 36.5q81 0 137 -33.5t83.5 -92t27.5 -132.5q0 -73 -33.5 -130.5t-94 -89.5
t-138.5 -32q-62 0 -120 16.5z" />
    <glyph glyph-name="uni0E57" unicode="&#xe57;" horiz-adv-x="824" 
d="M101.5 49.5q-46.5 64.5 -46.5 179.5q0 130 44.5 198t125.5 68q72 0 102 -58q18 27 48 42.5t66 15.5q55 0 90 -33t35 -93v-325q65 0 98.5 24.5t33.5 90.5v391h51v-380q0 -96 -50 -133t-140 -37h-44v366q0 86 -83 86q-34 0 -58 -20t-24 -53v-210h-47v210q0 34 -20 53.5
t-55 19.5q-61 0 -91 -58t-30 -165q0 -99 33 -150t89 -51q46 0 73 10v-45q-35 -8 -76 -8q-78 0 -124.5 64.5z" />
    <glyph glyph-name="uni0E58" unicode="&#xe58;" horiz-adv-x="653" 
d="M98.5 41.5q-43.5 56.5 -43.5 181.5q0 133 76 203.5t216 70.5q62 0 94 2.5t58.5 17t35.5 47.5h50q-12 -44 -39 -68t-71 -33t-115 -9q-253 0 -253 -231q0 -104 28.5 -149.5t90.5 -45.5q35 0 59 17t24 50v85h50v-85q0 -32 28.5 -49.5t60.5 -17.5q48 0 74.5 31.5t26.5 96.5
q0 54 -23 80t-58 26q-45 0 -71 -16v43q30 16 79 16q51 0 86.5 -38.5t35.5 -110.5q0 -82 -40 -126.5t-106 -44.5q-36 0 -69 13.5t-49 38.5q-16 -25 -45.5 -38.5t-66.5 -13.5q-80 0 -123.5 56.5z" />
    <glyph glyph-name="uni0E59" unicode="&#xe59;" horiz-adv-x="708" 
d="M104 48.5q-49 63.5 -49 178.5q0 130 44.5 199t126.5 69q39 0 63 -14.5t40 -41.5q17 27 44.5 41.5t62.5 14.5q53 0 85.5 -25.5t39.5 -78.5l66 159h46l-109 -262h-44l16 38q-1 66 -25 95.5t-73 29.5q-40 0 -59 -17t-19 -48q0 -18 6 -39l101 -347h-48l-109 380
q-10 37 -27.5 53t-54.5 16q-70 0 -95.5 -66.5t-25.5 -155.5q0 -100 35 -149.5t97 -49.5q41 0 66 8v-44q-31 -7 -72 -7q-80 0 -129 63.5z" />
    <glyph glyph-name="uni0E5A" unicode="&#xe5a;" horiz-adv-x="807" 
d="M376 290q-29 -21 -68.5 -32.5t-83.5 -11.5q-75 0 -122 38.5t-47 112.5q0 73 43 113t110 40q50 0 78 -11v-41q-31 9 -69 9q-51 0 -81 -27t-30 -83q0 -55 34 -81.5t92 -26.5q83 0 144 45v201h53v-202q40 -44 110 -44q41 0 74.5 11t65.5 34v201h53v-535h-53v290
q-59 -44 -148 -44q-29 0 -57 9t-45 26v-281h-53v290z" />
    <glyph glyph-name="uni0E5B" unicode="&#xe5b;" horiz-adv-x="1131" 
d="M125.5 49.5q-70.5 64.5 -70.5 188.5q0 74 27 132.5t78.5 91.5t121.5 33q102 0 155 -53.5t53 -142.5q0 -97 -45 -141.5t-113 -44.5q-29 0 -50 6t-43 19v46q37 -27 90 -27q52 0 83.5 30.5t31.5 111.5q-1 71 -40.5 111.5t-121.5 40.5q-86 0 -133.5 -58t-47.5 -155
q0 -209 223 -209q243 0 243 267v100h55l62 -214h2l38 200h44l59 -184h2l33 164h37l55 -148h2l22 67h98v-37h-77l-27 -83h-33l-52 139h-2l-37 -164h-38l-61 181h-2l-41 -202h-39l-61 216h-2q3 -27 3 -51q0 -137 -73.5 -216t-209.5 -79q-128 0 -198.5 64.5z" />
    <glyph glyph-name="uni1E0C" unicode="&#x1e0c;" horiz-adv-x="698" 
d="M75 699h207q112 0 193.5 -42t124.5 -120t43 -184q0 -175 -99 -264t-281 -89h-188v699zM255 45q336 0 336 308q0 142 -80.5 221.5t-232.5 79.5h-150v-609h127zM246.5 -125.5q-11.5 11.5 -11.5 27.5t11.5 27t27.5 11q15 0 26.5 -11t11.5 -27t-11.5 -27.5t-26.5 -11.5
q-16 0 -27.5 11.5z" />
    <glyph glyph-name="uni1E0D" unicode="&#x1e0d;" horiz-adv-x="652" 
d="M178 16q-57 31 -90 88.5t-33 134.5q0 75 33 133.5t90 90.5t127 32q72 0 130.5 -28t88.5 -83v355h53v-739h-52v96q-70 -111 -220 -111q-70 0 -127 31zM445.5 65.5q56.5 38.5 78.5 107.5v131q-19 69 -76.5 108.5t-134.5 39.5q-57 0 -104.5 -26.5t-75 -75t-27.5 -111.5
t27.5 -111t75 -74.5t104.5 -26.5q76 0 132.5 38.5zM296.5 -125.5q-11.5 11.5 -11.5 27.5t11.5 27t27.5 11q15 0 26.5 -11t11.5 -27t-11.5 -27.5t-26.5 -11.5q-16 0 -27.5 11.5z" />
    <glyph glyph-name="uni1E0E" unicode="&#x1e0e;" horiz-adv-x="698" 
d="M75 699h207q112 0 193.5 -42t124.5 -120t43 -184q0 -175 -99 -264t-281 -89h-188v699zM255 45q336 0 336 308q0 142 -80.5 221.5t-232.5 79.5h-150v-609h127zM118 -80h291v-41h-291v41z" />
    <glyph glyph-name="uni1E0F" unicode="&#x1e0f;" horiz-adv-x="652" 
d="M178 16q-57 31 -90 88.5t-33 134.5q0 75 33 133.5t90 90.5t127 32q72 0 130.5 -28t88.5 -83v355h53v-739h-52v96q-70 -111 -220 -111q-70 0 -127 31zM445.5 65.5q56.5 38.5 78.5 107.5v131q-19 69 -76.5 108.5t-134.5 39.5q-57 0 -104.5 -26.5t-75 -75t-27.5 -111.5
t27.5 -111t75 -74.5t104.5 -26.5q76 0 132.5 38.5zM183 -80h291v-41h-291v41z" />
    <glyph glyph-name="uni1E20" unicode="&#x1e20;" horiz-adv-x="724" 
d="M262 826h289v-39h-289v39zM232 30.5q-83 45.5 -130 128t-47 190.5t47 191t130 128.5t187 45.5q145 0 238 -78v-53q-87 83 -235 83q-90 0 -161.5 -39t-112.5 -111t-41 -167q0 -96 41.5 -168t113 -110.5t159.5 -38.5q61 0 107.5 13.5t87.5 44.5v235h-162v45h215v-302
q-89 -83 -250 -83q-104 0 -187 45.5z" />
    <glyph glyph-name="uni1E21" unicode="&#x1e21;" horiz-adv-x="652" 
d="M168 633h289v-39h-289v39zM225.5 -221.5q-45.5 8.5 -75.5 22.5v45q73 -34 170 -34q103 0 153.5 48.5t50.5 146.5v89q-31 -55 -88 -83t-130 -28q-70 0 -127.5 31.5t-90.5 89.5t-33 134t33 134t90 89.5t127 31.5q76 0 130.5 -27t89.5 -83v95h52v-465q0 -245 -257 -245
q-49 0 -94.5 8.5zM447 66.5q58 39.5 77 108.5v131q-21 69 -78.5 107.5t-132.5 38.5q-57 0 -104 -26.5t-75 -74.5t-28 -111t28 -111.5t75 -75t104 -26.5q76 0 134 39.5z" />
    <glyph glyph-name="uni1E24" unicode="&#x1e24;" horiz-adv-x="681" 
d="M75 699h53v-320h425v320h53v-699h-53v334h-425v-334h-53v699zM313.5 -125.5q-11.5 11.5 -11.5 27.5t11.5 27t27.5 11q15 0 26.5 -11t11.5 -27t-11.5 -27.5t-26.5 -11.5q-16 0 -27.5 11.5z" />
    <glyph glyph-name="uni1E25" unicode="&#x1e25;" horiz-adv-x="582" 
d="M75 739h52v-339q38 51 89.5 73t109.5 22q94 0 140 -49t46 -131v-315h-53v311q0 68 -33 104.5t-107 36.5q-120 0 -192 -109v-343h-52v739zM276.5 -125.5q-11.5 11.5 -11.5 27.5t11.5 27t27.5 11q15 0 26.5 -11t11.5 -27t-11.5 -27.5t-26.5 -11.5q-16 0 -27.5 11.5z" />
    <glyph glyph-name="uni1E2A" unicode="&#x1e2a;" horiz-adv-x="681" 
d="M75 699h53v-320h425v320h53v-699h-53v334h-425v-334h-53v699zM247.5 -150.5q-35.5 33.5 -35.5 85.5h42q0 -36 23.5 -58.5t63.5 -22.5t63.5 22.5t23.5 58.5h41q0 -52 -35.5 -85.5t-92.5 -33.5q-58 0 -93.5 33.5z" />
    <glyph glyph-name="uni1E2B" unicode="&#x1e2b;" horiz-adv-x="582" 
d="M75 739h52v-339q38 51 89.5 73t109.5 22q94 0 140 -49t46 -131v-315h-53v311q0 68 -33 104.5t-107 36.5q-120 0 -192 -109v-343h-52v739zM213.5 -150.5q-35.5 33.5 -35.5 85.5h42q0 -36 23.5 -58.5t63.5 -22.5t63.5 22.5t23.5 58.5h41q0 -52 -35.5 -85.5t-92.5 -33.5
q-58 0 -93.5 33.5z" />
    <glyph glyph-name="uni1E36" unicode="&#x1e36;" horiz-adv-x="546" 
d="M75 699h53v-654h385v-45h-438v699zM259.5 -125.5q-11.5 11.5 -11.5 27.5t11.5 27t27.5 11q15 0 26.5 -11t11.5 -27t-11.5 -27.5t-26.5 -11.5q-16 0 -27.5 11.5z" />
    <glyph glyph-name="uni1E37" unicode="&#x1e37;" horiz-adv-x="202" 
d="M75 739h52v-739h-52v739zM73.5 -125.5q-11.5 11.5 -11.5 27.5t11.5 27t27.5 11q15 0 26.5 -11t11.5 -27t-11.5 -27.5t-26.5 -11.5q-16 0 -27.5 11.5z" />
    <glyph glyph-name="uni1E38" unicode="&#x1e38;" horiz-adv-x="546" 
d="M112 837h289v-39h-289v39zM75 699h53v-654h385v-45h-438v699zM262.5 -125.5q-11.5 11.5 -11.5 27.5t11.5 27t27.5 11q15 0 26.5 -11t11.5 -27t-11.5 -27.5t-26.5 -11.5q-16 0 -27.5 11.5z" />
    <glyph glyph-name="uni1E39" unicode="&#x1e39;" horiz-adv-x="204" 
d="M-42 837h289v-39h-289v39zM76 739h52v-739h-52v739zM75.5 -125.5q-11.5 11.5 -11.5 27.5t11.5 27t27.5 11q15 0 26.5 -11t11.5 -27t-11.5 -27.5t-26.5 -11.5q-16 0 -27.5 11.5z" />
    <glyph glyph-name="uni1E3A" unicode="&#x1e3a;" horiz-adv-x="546" 
d="M75 699h53v-654h385v-45h-438v699zM152 -80h291v-41h-291v41z" />
    <glyph glyph-name="uni1E3B" unicode="&#x1e3b;" horiz-adv-x="202" 
d="M75 739h52v-739h-52v739zM-45 -80h291v-41h-291v41z" />
    <glyph glyph-name="uni1E42" unicode="&#x1e42;" horiz-adv-x="823" 
d="M75 699h56l281 -615l280 615h56v-699h-52v591l-270 -591h-29l-270 591v-591h-52v699zM385.5 -125.5q-11.5 11.5 -11.5 27.5t11.5 27t27.5 11q15 0 26.5 -11t11.5 -27t-11.5 -27.5t-26.5 -11.5q-16 0 -27.5 11.5z" />
    <glyph glyph-name="uni1E43" unicode="&#x1e43;" horiz-adv-x="856" 
d="M75 480h51v-81q38 52 81.5 74t94.5 22q63 0 97 -22t47 -67q33 47 80 68t100 21q86 0 123 -43t37 -130v-322h-52v317q0 73 -25.5 104t-92.5 31q-97 0 -159 -88q4 -20 4 -50v-314h-52v314q0 75 -24.5 106.5t-91.5 31.5q-49 0 -88.5 -25t-77.5 -81v-346h-52v480z
M409.5 -125.5q-11.5 11.5 -11.5 27.5t11.5 27t27.5 11q15 0 26.5 -11t11.5 -27t-11.5 -27.5t-26.5 -11.5q-16 0 -27.5 11.5z" />
    <glyph glyph-name="uni1E44" unicode="&#x1e44;" horiz-adv-x="670" 
d="M322.5 776.5q-11.5 11.5 -11.5 27.5t11.5 27t27.5 11q15 0 26.5 -11t11.5 -27t-11.5 -27.5t-26.5 -11.5q-16 0 -27.5 11.5zM75 699h50l417 -607v607h53v-699h-49l-418 608v-608h-53v699z" />
    <glyph glyph-name="uni1E45" unicode="&#x1e45;" horiz-adv-x="582" 
d="M274.5 564.5q-11.5 11.5 -11.5 27.5t11.5 27t27.5 11q15 0 26.5 -11t11.5 -27t-11.5 -27.5t-26.5 -11.5q-16 0 -27.5 11.5zM75 480h51v-81q37 50 89.5 73t110.5 23q94 0 140 -49t46 -131v-315h-53v311q0 68 -33 104.5t-107 36.5q-120 0 -192 -109v-343h-52v480z" />
    <glyph glyph-name="uni1E46" unicode="&#x1e46;" horiz-adv-x="670" 
d="M75 699h50l417 -607v607h53v-699h-49l-418 608v-608h-53v699zM315.5 -125.5q-11.5 11.5 -11.5 27.5t11.5 27t27.5 11q15 0 26.5 -11t11.5 -27t-11.5 -27.5t-26.5 -11.5q-16 0 -27.5 11.5z" />
    <glyph glyph-name="uni1E47" unicode="&#x1e47;" horiz-adv-x="582" 
d="M75 480h51v-81q37 50 89.5 73t110.5 23q94 0 140 -49t46 -131v-315h-53v311q0 68 -33 104.5t-107 36.5q-120 0 -192 -109v-343h-52v480zM269.5 -125.5q-11.5 11.5 -11.5 27.5t11.5 27t27.5 11q15 0 26.5 -11t11.5 -27t-11.5 -27.5t-26.5 -11.5q-16 0 -27.5 11.5z" />
    <glyph glyph-name="uni1E48" unicode="&#x1e48;" horiz-adv-x="670" 
d="M75 699h50l417 -607v607h53v-699h-49l-418 608v-608h-53v699zM205 -80h291v-41h-291v41z" />
    <glyph glyph-name="uni1E49" unicode="&#x1e49;" horiz-adv-x="582" 
d="M75 480h51v-81q37 50 89.5 73t110.5 23q94 0 140 -49t46 -131v-315h-53v311q0 68 -33 104.5t-107 36.5q-120 0 -192 -109v-343h-52v480zM153 -80h291v-41h-291v41z" />
    <glyph glyph-name="uni1E5A" unicode="&#x1e5a;" horiz-adv-x="601" 
d="M75 699h259q212 0 212 -192q0 -77 -47 -128t-133 -60l179 -319h-55l-178 318h-184v-318h-53v699zM330 363q77 0 120.5 37t43.5 107q0 80 -42.5 113.5t-120.5 33.5h-203v-291h202zM264.5 -125.5q-11.5 11.5 -11.5 27.5t11.5 27t27.5 11q15 0 26.5 -11t11.5 -27
t-11.5 -27.5t-26.5 -11.5q-16 0 -27.5 11.5z" />
    <glyph glyph-name="uni1E5B" unicode="&#x1e5b;" horiz-adv-x="387" 
d="M77 480h51v-102q60 102 224 102v-43q-177 0 -223 -128v-309h-52v480zM79.5 -125.5q-11.5 11.5 -11.5 27.5t11.5 27t27.5 11q15 0 26.5 -11t11.5 -27t-11.5 -27.5t-26.5 -11.5q-16 0 -27.5 11.5z" />
    <glyph glyph-name="uni1E5C" unicode="&#x1e5c;" horiz-adv-x="601" 
d="M126 838h289v-39h-289v39zM75 699h259q212 0 212 -192q0 -77 -47 -128t-133 -60l179 -319h-55l-178 318h-184v-318h-53v699zM330 363q77 0 120.5 37t43.5 107q0 80 -42.5 113.5t-120.5 33.5h-203v-291h202zM241.5 -125.5q-11.5 11.5 -11.5 27.5t11.5 27t27.5 11
q15 0 26.5 -11t11.5 -27t-11.5 -27.5t-26.5 -11.5q-16 0 -27.5 11.5z" />
    <glyph glyph-name="uni1E5D" unicode="&#x1e5d;" horiz-adv-x="395" 
d="M72 653h289v-39h-289v39zM79 480h51v-102q60 102 224 102v-43q-177 0 -223 -128v-309h-52v480zM82.5 -125.5q-11.5 11.5 -11.5 27.5t11.5 27t27.5 11q15 0 26.5 -11t11.5 -27t-11.5 -27.5t-26.5 -11.5q-16 0 -27.5 11.5z" />
    <glyph glyph-name="uni1E5E" unicode="&#x1e5e;" horiz-adv-x="601" 
d="M75 699h259q212 0 212 -192q0 -77 -47 -128t-133 -60l179 -319h-55l-178 318h-184v-318h-53v699zM330 363q77 0 120.5 37t43.5 107q0 80 -42.5 113.5t-120.5 33.5h-203v-291h202zM134 -80h291v-41h-291v41z" />
    <glyph glyph-name="uni1E5F" unicode="&#x1e5f;" horiz-adv-x="395" 
d="M84 480h51v-102q60 102 224 102v-43q-177 0 -223 -128v-309h-52v480zM63 -80h291v-41h-291v41z" />
    <glyph glyph-name="uni1E60" unicode="&#x1e60;" horiz-adv-x="549" 
d="M265.5 776.5q-11.5 11.5 -11.5 27.5t11.5 27t27.5 11q15 0 26.5 -11t11.5 -27t-11.5 -27.5t-26.5 -11.5q-16 0 -27.5 11.5zM143 -6q-54 9 -88 25v50q87 -37 196 -37q98 0 144.5 33.5t46.5 100.5q0 45 -19 73t-56.5 48t-115.5 50q-100 38 -144 84t-44 119q0 52 27.5 91.5
t77.5 61t115 21.5q52 0 95 -8t86 -26v-48q-85 35 -176 35q-83 0 -128 -34.5t-45 -92.5q0 -39 17 -67t54.5 -51t105.5 -49q74 -28 114.5 -51t64 -60t23.5 -96q0 -87 -61 -134t-180 -47q-56 0 -110 9z" />
    <glyph glyph-name="uni1E61" unicode="&#x1e61;" horiz-adv-x="469" 
d="M209.5 564.5q-11.5 11.5 -11.5 27.5t11.5 27t27.5 11q15 0 26.5 -11t11.5 -27t-11.5 -27.5t-26.5 -11.5q-16 0 -27.5 11.5zM135.5 -1.5q-51.5 13.5 -79.5 33.5v45q37 -23 83.5 -36.5t91.5 -13.5q132 0 132 84q0 29 -12 47.5t-43 33.5t-91 31q-59 16 -92.5 32.5
t-51.5 42.5t-18 68q0 63 49.5 96t132.5 33q92 0 149 -30v-45q-59 32 -147 32q-64 0 -98.5 -21t-34.5 -65q0 -30 12 -47t42.5 -30t93.5 -30q88 -24 124 -57t36 -91t-45.5 -92t-136.5 -34q-45 0 -96.5 13.5z" />
    <glyph glyph-name="uni1E62" unicode="&#x1e62;" horiz-adv-x="549" 
d="M143 -6q-54 9 -88 25v50q87 -37 196 -37q98 0 144.5 33.5t46.5 100.5q0 45 -19 73t-56.5 48t-115.5 50q-100 38 -144 84t-44 119q0 52 27.5 91.5t77.5 61t115 21.5q52 0 95 -8t86 -26v-48q-85 35 -176 35q-83 0 -128 -34.5t-45 -92.5q0 -39 17 -67t54.5 -51t105.5 -49
q74 -28 114.5 -51t64 -60t23.5 -96q0 -87 -61 -134t-180 -47q-56 0 -110 9zM243.5 -125.5q-11.5 11.5 -11.5 27.5t11.5 27t27.5 11q15 0 26.5 -11t11.5 -27t-11.5 -27.5t-26.5 -11.5q-16 0 -27.5 11.5z" />
    <glyph glyph-name="uni1E63" unicode="&#x1e63;" horiz-adv-x="469" 
d="M135.5 -1.5q-51.5 13.5 -79.5 33.5v45q37 -23 83.5 -36.5t91.5 -13.5q132 0 132 84q0 29 -12 47.5t-43 33.5t-91 31q-59 16 -92.5 32.5t-51.5 42.5t-18 68q0 63 49.5 96t132.5 33q92 0 149 -30v-45q-59 32 -147 32q-64 0 -98.5 -21t-34.5 -65q0 -30 12 -47t42.5 -30
t93.5 -30q88 -24 124 -57t36 -91t-45.5 -92t-136.5 -34q-45 0 -96.5 13.5zM205.5 -125.5q-11.5 11.5 -11.5 27.5t11.5 27t27.5 11q15 0 26.5 -11t11.5 -27t-11.5 -27.5t-26.5 -11.5q-16 0 -27.5 11.5z" />
    <glyph glyph-name="uni1E6C" unicode="&#x1e6c;" horiz-adv-x="585" 
d="M266 654h-231v45h515v-45h-231v-654h-53v654zM265.5 -125.5q-11.5 11.5 -11.5 27.5t11.5 27t27.5 11q15 0 26.5 -11t11.5 -27t-11.5 -27.5t-26.5 -11.5q-16 0 -27.5 11.5z" />
    <glyph glyph-name="uni1E6D" unicode="&#x1e6d;" horiz-adv-x="354" 
d="M147 21.5q-35 36.5 -35 107.5v309h-77v42h77v144h52v-144h124v-42h-124v-311q0 -53 23 -76.5t77 -23.5q25 0 52 10v-44q-27 -8 -70 -8q-64 0 -99 36.5zM205.5 -125.5q-11.5 11.5 -11.5 27.5t11.5 27t27.5 11q15 0 26.5 -11t11.5 -27t-11.5 -27.5t-26.5 -11.5
q-16 0 -27.5 11.5z" />
    <glyph glyph-name="uni1E6E" unicode="&#x1e6e;" horiz-adv-x="585" 
d="M266 654h-231v45h515v-45h-231v-654h-53v654zM147 -80h291v-41h-291v41z" />
    <glyph glyph-name="uni1E6F" unicode="&#x1e6f;" horiz-adv-x="365" 
d="M150 21.5q-35 36.5 -35 107.5v309h-77v42h77v144h52v-144h124v-42h-124v-311q0 -53 23 -76.5t77 -23.5q25 0 52 10v-44q-27 -8 -70 -8q-64 0 -99 36.5zM36 -80h291v-41h-291v41z" />
    <glyph glyph-name="Wgrave" unicode="&#x1e80;" horiz-adv-x="1011" 
d="M399 929h55l69 -169h-45zM55 699h54l187 -610l187 610h46l185 -610l187 610h55l-214 -699h-49l-188 618l-187 -618h-49z" />
    <glyph glyph-name="wgrave" unicode="&#x1e81;" horiz-adv-x="786" 
d="M286 717h55l69 -169h-45zM55 480h53l129 -418l128 418h55l128 -418l129 418h54l-152 -480h-55l-131 426l-131 -426h-56z" />
    <glyph glyph-name="Wacute" unicode="&#x1e82;" horiz-adv-x="1011" 
d="M553 929h54l-78 -169h-46zM55 699h54l187 -610l187 610h46l185 -610l187 610h55l-214 -699h-49l-188 618l-187 -618h-49z" />
    <glyph glyph-name="wacute" unicode="&#x1e83;" horiz-adv-x="786" 
d="M444 717h54l-78 -169h-46zM55 480h53l129 -418l128 418h55l128 -418l129 418h54l-152 -480h-55l-131 426l-131 -426h-56z" />
    <glyph glyph-name="Wdieresis" unicode="&#x1e84;" horiz-adv-x="1011" 
d="M373.5 776.5q-11.5 11.5 -11.5 27.5t11.5 27t27.5 11q15 0 26.5 -11t11.5 -27t-11.5 -27.5t-26.5 -11.5q-16 0 -27.5 11.5zM580.5 776.5q-11.5 11.5 -11.5 27.5t11.5 27t27.5 11t27.5 -11t11.5 -27t-11.5 -27.5t-27.5 -11.5t-27.5 11.5zM55 699h54l187 -610l187 610h46
l185 -610l187 610h55l-214 -699h-49l-188 618l-187 -618h-49z" />
    <glyph glyph-name="wdieresis" unicode="&#x1e85;" horiz-adv-x="786" 
d="M261.5 564.5q-11.5 11.5 -11.5 27.5t11.5 27t27.5 11q15 0 26.5 -11t11.5 -27t-11.5 -27.5t-26.5 -11.5q-16 0 -27.5 11.5zM468.5 564.5q-11.5 11.5 -11.5 27.5t11.5 27t27.5 11t27.5 -11t11.5 -27t-11.5 -27.5t-27.5 -11.5t-27.5 11.5zM55 480h53l129 -418l128 418h55
l128 -418l129 418h54l-152 -480h-55l-131 426l-131 -426h-56z" />
    <glyph glyph-name="uni1E8E" unicode="&#x1e8e;" horiz-adv-x="672" 
d="M308.5 776.5q-11.5 11.5 -11.5 27.5t11.5 27t27.5 11q15 0 26.5 -11t11.5 -27t-11.5 -27.5t-26.5 -11.5q-16 0 -27.5 11.5zM309 265l-254 434h55l226 -387l226 387h55l-255 -434v-265h-53v265z" />
    <glyph glyph-name="uni1E8F" unicode="&#x1e8f;" horiz-adv-x="553" 
d="M264.5 564.5q-11.5 11.5 -11.5 27.5t11.5 27t27.5 11q15 0 26.5 -11t11.5 -27t-11.5 -27.5t-26.5 -11.5q-16 0 -27.5 11.5zM74 -191v44q24 -9 59 -9q38 0 60 20t41 67l30 73l-209 476h55l181 -413l172 413h55l-228 -555q-27 -64 -60 -93.5t-86 -29.5q-41 0 -70 7z" />
    <glyph glyph-name="uni1E92" unicode="&#x1e92;" horiz-adv-x="616" 
d="M55 40l430 614h-419v45h482v-41l-430 -614h443v-44h-506v40zM289.5 -125.5q-11.5 11.5 -11.5 27.5t11.5 27t27.5 11q15 0 26.5 -11t11.5 -27t-11.5 -27.5t-26.5 -11.5q-16 0 -27.5 11.5z" />
    <glyph glyph-name="uni1E93" unicode="&#x1e93;" horiz-adv-x="474" 
d="M55 38l299 400h-293v42h355v-39l-299 -399h310v-42h-372v38zM215.5 -125.5q-11.5 11.5 -11.5 27.5t11.5 27t27.5 11q15 0 26.5 -11t11.5 -27t-11.5 -27.5t-26.5 -11.5q-16 0 -27.5 11.5z" />
    <glyph glyph-name="uni1E97" unicode="&#x1e97;" horiz-adv-x="397" 
d="M44.5 690.5q-11.5 11.5 -11.5 27.5t11.5 27t27.5 11q15 0 26.5 -11t11.5 -27t-11.5 -27.5t-26.5 -11.5q-16 0 -27.5 11.5zM251.5 690.5q-11.5 11.5 -11.5 27.5t11.5 27t27.5 11t27.5 -11t11.5 -27t-11.5 -27.5t-27.5 -11.5t-27.5 11.5zM190 21.5q-35 36.5 -35 107.5v309
h-77v42h77v144h52v-144h124v-42h-124v-311q0 -53 23 -76.5t77 -23.5q25 0 52 10v-44q-27 -8 -70 -8q-64 0 -99 36.5z" />
    <glyph glyph-name="uni1E9E" unicode="&#x1e9e;" horiz-adv-x="602" 
d="M196 5v48q29 -12 58.5 -17t71.5 -5q82 0 125.5 41.5t43.5 121.5q0 84 -53 119.5t-139 35.5h-37v38l157 152q-2 58 -42.5 93t-103.5 35q-68 0 -111 -40.5t-43 -132.5v-494h-53v491q0 115 56 169t151 54q64 0 109 -24.5t68 -66.5t24 -93l-149 -142q107 -4 162.5 -53
t55.5 -141q0 -94 -54.5 -151.5t-159.5 -57.5q-90 0 -137 20z" />
    <glyph glyph-name="uni1EA0" unicode="&#x1ea0;" horiz-adv-x="715" 
d="M334 699h47l279 -699h-54l-80 201h-337l-80 -201h-54zM510 246l-153 387l-152 -387h305zM330.5 -125.5q-11.5 11.5 -11.5 27.5t11.5 27t27.5 11q15 0 26.5 -11t11.5 -27t-11.5 -27.5t-26.5 -11.5q-16 0 -27.5 11.5z" />
    <glyph glyph-name="uni1EA1" unicode="&#x1ea1;" horiz-adv-x="558" 
d="M105.5 26q-50.5 41 -50.5 115q0 77 49 117t141 40q113 0 190 -46v59q0 72 -39 106.5t-125 34.5q-80 0 -154 -31v45q30 13 73 21t84 8q109 0 161.5 -49t52.5 -138v-308h-49v69q-63 -84 -197 -84q-86 0 -136.5 41zM363.5 52.5q48.5 24.5 71.5 67.5v89q-44 24 -86 35.5
t-96 11.5q-78 0 -112.5 -28.5t-34.5 -86.5q0 -55 37 -84t112 -29q60 0 108.5 24.5zM247.5 -125.5q-11.5 11.5 -11.5 27.5t11.5 27t27.5 11q15 0 26.5 -11t11.5 -27t-11.5 -27.5t-26.5 -11.5q-16 0 -27.5 11.5z" />
    <glyph glyph-name="uni1EA2" unicode="&#x1ea2;" horiz-adv-x="715" 
d="M335 808q50 0 71.5 15t21.5 48q0 56 -73 56q-15 0 -32.5 -2.5t-25.5 -6.5v35q11 4 29.5 6.5t36.5 2.5q55 0 83.5 -24.5t28.5 -64.5q0 -38 -24.5 -62.5t-70.5 -28.5v-39h-45v65zM334 699h47l279 -699h-54l-80 201h-337l-80 -201h-54zM510 246l-153 387l-152 -387h305z" />
    <glyph glyph-name="uni1EA3" unicode="&#x1ea3;" horiz-adv-x="558" 
d="M268 610q50 0 71.5 15t21.5 48q0 56 -73 56q-15 0 -32.5 -2.5t-25.5 -6.5v35q11 4 29.5 6.5t36.5 2.5q55 0 83.5 -24.5t28.5 -64.5q0 -38 -24.5 -62.5t-70.5 -28.5v-39h-45v65zM105.5 26q-50.5 41 -50.5 115q0 77 49 117t141 40q113 0 190 -46v59q0 72 -39 106.5
t-125 34.5q-80 0 -154 -31v45q30 13 73 21t84 8q109 0 161.5 -49t52.5 -138v-308h-49v69q-63 -84 -197 -84q-86 0 -136.5 41zM363.5 52.5q48.5 24.5 71.5 67.5v89q-44 24 -86 35.5t-96 11.5q-78 0 -112.5 -28.5t-34.5 -86.5q0 -55 37 -84t112 -29q60 0 108.5 24.5z" />
    <glyph glyph-name="uni1EA4" unicode="&#x1ea4;" horiz-adv-x="715" 
d="M505 951h46l-76 -114h-38zM334 868h37l130 -124h-53l-95 91l-95 -91h-54zM334 699h47l279 -699h-54l-80 201h-337l-80 -201h-54zM510 246l-153 387l-152 -387h305z" />
    <glyph glyph-name="uni1EA5" unicode="&#x1ea5;" horiz-adv-x="558" 
d="M441 753h46l-76 -114h-38zM270 670h37l130 -124h-53l-95 91l-95 -91h-54zM105.5 26q-50.5 41 -50.5 115q0 77 49 117t141 40q113 0 190 -46v59q0 72 -39 106.5t-125 34.5q-80 0 -154 -31v45q30 13 73 21t84 8q109 0 161.5 -49t52.5 -138v-308h-49v69q-63 -84 -197 -84
q-86 0 -136.5 41zM363.5 52.5q48.5 24.5 71.5 67.5v89q-44 24 -86 35.5t-96 11.5q-78 0 -112.5 -28.5t-34.5 -86.5q0 -55 37 -84t112 -29q60 0 108.5 24.5z" />
    <glyph glyph-name="uni1EA6" unicode="&#x1ea6;" horiz-adv-x="715" 
d="M161 951h46l68 -114h-38zM341 868h37l130 -124h-54l-95 91l-95 -91h-53zM334 699h47l279 -699h-54l-80 201h-337l-80 -201h-54zM510 246l-153 387l-152 -387h305z" />
    <glyph glyph-name="uni1EA7" unicode="&#x1ea7;" horiz-adv-x="558" 
d="M101 753h46l68 -114h-38zM281 670h37l130 -124h-54l-95 91l-95 -91h-53zM105.5 26q-50.5 41 -50.5 115q0 77 49 117t141 40q113 0 190 -46v59q0 72 -39 106.5t-125 34.5q-80 0 -154 -31v45q30 13 73 21t84 8q109 0 161.5 -49t52.5 -138v-308h-49v69q-63 -84 -197 -84
q-86 0 -136.5 41zM363.5 52.5q48.5 24.5 71.5 67.5v89q-44 24 -86 35.5t-96 11.5q-78 0 -112.5 -28.5t-34.5 -86.5q0 -55 37 -84t112 -29q60 0 108.5 24.5z" />
    <glyph glyph-name="uni1EA8" unicode="&#x1ea8;" horiz-adv-x="715" 
d="M447 878q33 0 48 9t15 30q0 18 -10.5 25.5t-33.5 7.5q-29 0 -47 -8v30q23 9 55 9q38 0 57.5 -17.5t19.5 -46.5q0 -26 -18 -43t-50 -20v-26h-36v50zM340 868h37l130 -124h-53l-95 91l-95 -91h-54zM334 699h47l279 -699h-54l-80 201h-337l-80 -201h-54zM510 246l-153 387
l-152 -387h305z" />
    <glyph glyph-name="uni1EA9" unicode="&#x1ea9;" horiz-adv-x="558" 
d="M376 680q33 0 48 9t15 30q0 18 -10.5 25.5t-33.5 7.5q-29 0 -47 -8v30q23 9 55 9q38 0 57.5 -17.5t19.5 -46.5q0 -26 -18 -43t-50 -20v-26h-36v50zM269 670h37l130 -124h-53l-95 91l-95 -91h-54zM105.5 26q-50.5 41 -50.5 115q0 77 49 117t141 40q113 0 190 -46v59
q0 72 -39 106.5t-125 34.5q-80 0 -154 -31v45q30 13 73 21t84 8q109 0 161.5 -49t52.5 -138v-308h-49v69q-63 -84 -197 -84q-86 0 -136.5 41zM363.5 52.5q48.5 24.5 71.5 67.5v89q-44 24 -86 35.5t-96 11.5q-78 0 -112.5 -28.5t-34.5 -86.5q0 -55 37 -84t112 -29
q60 0 108.5 24.5z" />
    <glyph glyph-name="uni1EAA" unicode="&#x1eaa;" horiz-adv-x="715" 
d="M206 927q12 20 31 28.5t45 8.5q16 0 31.5 -5t29 -10.5t17.5 -7.5q24 -11 40 -16.5t33 -5.5q24 0 42 10t34 35v-45q-22 -37 -76 -37q-20 0 -38.5 6t-42.5 18q-23 11 -38.5 16t-31.5 5q-24 0 -41.5 -10t-34.5 -36v46zM336 868h37l130 -124h-53l-95 91l-95 -91h-54zM334 699
h47l279 -699h-54l-80 201h-337l-80 -201h-54zM510 246l-153 387l-152 -387h305z" />
    <glyph glyph-name="uni1EAB" unicode="&#x1eab;" horiz-adv-x="558" 
d="M140 729q12 20 31 28.5t45 8.5q16 0 31.5 -5t29 -10.5t17.5 -7.5q24 -11 40 -16.5t33 -5.5q24 0 42 10t34 35v-45q-22 -37 -76 -37q-20 0 -38.5 6t-42.5 18q-23 11 -38.5 16t-31.5 5q-24 0 -41.5 -10t-34.5 -36v46zM270 670h37l130 -124h-53l-95 91l-95 -91h-54z
M105.5 26q-50.5 41 -50.5 115q0 77 49 117t141 40q113 0 190 -46v59q0 72 -39 106.5t-125 34.5q-80 0 -154 -31v45q30 13 73 21t84 8q109 0 161.5 -49t52.5 -138v-308h-49v69q-63 -84 -197 -84q-86 0 -136.5 41zM363.5 52.5q48.5 24.5 71.5 67.5v89q-44 24 -86 35.5
t-96 11.5q-78 0 -112.5 -28.5t-34.5 -86.5q0 -55 37 -84t112 -29q60 0 108.5 24.5z" />
    <glyph glyph-name="uni1EAC" unicode="&#x1eac;" horiz-adv-x="715" 
d="M335 920h45l132 -156h-54l-100 121l-100 -121h-55zM334 699h47l279 -699h-54l-80 201h-337l-80 -201h-54zM510 246l-153 387l-152 -387h305zM330.5 -125.5q-11.5 11.5 -11.5 27.5t11.5 27t27.5 11q15 0 26.5 -11t11.5 -27t-11.5 -27.5t-26.5 -11.5q-16 0 -27.5 11.5z" />
    <glyph glyph-name="uni1EAD" unicode="&#x1ead;" horiz-adv-x="558" 
d="M264 707h45l132 -156h-54l-100 121l-100 -121h-55zM105.5 26q-50.5 41 -50.5 115q0 77 49 117t141 40q113 0 190 -46v59q0 72 -39 106.5t-125 34.5q-80 0 -154 -31v45q30 13 73 21t84 8q109 0 161.5 -49t52.5 -138v-308h-49v69q-63 -84 -197 -84q-86 0 -136.5 41z
M363.5 52.5q48.5 24.5 71.5 67.5v89q-44 24 -86 35.5t-96 11.5q-78 0 -112.5 -28.5t-34.5 -86.5q0 -55 37 -84t112 -29q60 0 108.5 24.5zM257.5 -125.5q-11.5 11.5 -11.5 27.5t11.5 27t27.5 11q15 0 26.5 -11t11.5 -27t-11.5 -27.5t-26.5 -11.5q-16 0 -27.5 11.5z" />
    <glyph glyph-name="uni1EAE" unicode="&#x1eae;" horiz-adv-x="715" 
d="M380 961h46l-61 -121h-38zM265.5 779.5q-35.5 33.5 -35.5 84.5h41q0 -36 23.5 -58t63.5 -22t63 22t23 58h41q0 -51 -35 -84.5t-92 -33.5t-92.5 33.5zM334 699h47l279 -699h-54l-80 201h-337l-80 -201h-54zM510 246l-153 387l-152 -387h305z" />
    <glyph glyph-name="uni1EAF" unicode="&#x1eaf;" horiz-adv-x="558" 
d="M311 764h46l-61 -121h-38zM196.5 582.5q-35.5 33.5 -35.5 84.5h41q0 -36 23.5 -58t63.5 -22t63 22t23 58h41q0 -51 -35 -84.5t-92 -33.5t-92.5 33.5zM105.5 26q-50.5 41 -50.5 115q0 77 49 117t141 40q113 0 190 -46v59q0 72 -39 106.5t-125 34.5q-80 0 -154 -31v45
q30 13 73 21t84 8q109 0 161.5 -49t52.5 -138v-308h-49v69q-63 -84 -197 -84q-86 0 -136.5 41zM363.5 52.5q48.5 24.5 71.5 67.5v89q-44 24 -86 35.5t-96 11.5q-78 0 -112.5 -28.5t-34.5 -86.5q0 -55 37 -84t112 -29q60 0 108.5 24.5z" />
    <glyph glyph-name="uni1EB0" unicode="&#x1eb0;" horiz-adv-x="715" 
d="M289 961h47l53 -121h-38zM265.5 779.5q-35.5 33.5 -35.5 84.5h41q0 -36 23.5 -58t63.5 -22t63 22t23 58h41q0 -51 -35 -84.5t-92 -33.5t-92.5 33.5zM334 699h47l279 -699h-54l-80 201h-337l-80 -201h-54zM510 246l-153 387l-152 -387h305z" />
    <glyph glyph-name="uni1EB1" unicode="&#x1eb1;" horiz-adv-x="558" 
d="M222 764h47l53 -121h-38zM198.5 582.5q-35.5 33.5 -35.5 84.5h41q0 -36 23.5 -58t63.5 -22t63 22t23 58h41q0 -51 -35 -84.5t-92 -33.5t-92.5 33.5zM105.5 26q-50.5 41 -50.5 115q0 77 49 117t141 40q113 0 190 -46v59q0 72 -39 106.5t-125 34.5q-80 0 -154 -31v45
q30 13 73 21t84 8q109 0 161.5 -49t52.5 -138v-308h-49v69q-63 -84 -197 -84q-86 0 -136.5 41zM363.5 52.5q48.5 24.5 71.5 67.5v89q-44 24 -86 35.5t-96 11.5q-78 0 -112.5 -28.5t-34.5 -86.5q0 -55 37 -84t112 -29q60 0 108.5 24.5z" />
    <glyph glyph-name="uni1EB2" unicode="&#x1eb2;" horiz-adv-x="715" 
d="M331 878q33 0 48 9t15 30q0 18 -10.5 25.5t-33.5 7.5q-29 0 -47 -8v30q23 9 55 9q38 0 57.5 -17.5t19.5 -46.5q0 -26 -18 -43t-50 -20v-26h-36v50zM265.5 778.5q-35.5 33.5 -35.5 84.5h41q0 -36 23.5 -58t63.5 -22t63.5 22t23.5 58h40q0 -51 -35 -84.5t-92 -33.5
t-92.5 33.5zM334 699h47l279 -699h-54l-80 201h-337l-80 -201h-54zM510 246l-153 387l-152 -387h305z" />
    <glyph glyph-name="uni1EB3" unicode="&#x1eb3;" horiz-adv-x="558" 
d="M263 682q33 0 48 9t15 30q0 18 -10.5 25.5t-33.5 7.5q-29 0 -47 -8v30q23 9 55 9q38 0 57.5 -17.5t19.5 -46.5q0 -26 -18 -43t-50 -20v-26h-36v50zM197.5 582.5q-35.5 33.5 -35.5 84.5h41q0 -36 23.5 -58t63.5 -22t63.5 22t23.5 58h40q0 -51 -35 -84.5t-92 -33.5
t-92.5 33.5zM105.5 26q-50.5 41 -50.5 115q0 77 49 117t141 40q113 0 190 -46v59q0 72 -39 106.5t-125 34.5q-80 0 -154 -31v45q30 13 73 21t84 8q109 0 161.5 -49t52.5 -138v-308h-49v69q-63 -84 -197 -84q-86 0 -136.5 41zM363.5 52.5q48.5 24.5 71.5 67.5v89
q-44 24 -86 35.5t-96 11.5q-78 0 -112.5 -28.5t-34.5 -86.5q0 -55 37 -84t112 -29q60 0 108.5 24.5z" />
    <glyph glyph-name="uni1EB4" unicode="&#x1eb4;" horiz-adv-x="715" 
d="M206 931q22 37 76 37q17 0 33.5 -5.5t43.5 -17.5q26 -11 41.5 -16.5t31.5 -5.5q24 0 42.5 10.5t33.5 35.5v-46q-12 -20 -30.5 -28t-45.5 -8q-19 0 -35.5 5.5t-45.5 17.5q-21 10 -37 15.5t-32 5.5q-24 0 -41.5 -10t-34.5 -35v45zM267.5 778.5q-35.5 33.5 -35.5 84.5h41
q0 -36 23.5 -58t63.5 -22t63.5 22t23.5 58h40q0 -51 -35 -84.5t-92 -33.5t-92.5 33.5zM334 699h47l279 -699h-54l-80 201h-337l-80 -201h-54zM510 246l-153 387l-152 -387h305z" />
    <glyph glyph-name="uni1EB5" unicode="&#x1eb5;" horiz-adv-x="558" 
d="M145 735q22 37 76 37q17 0 33.5 -5.5t43.5 -17.5q26 -11 41.5 -16.5t31.5 -5.5q24 0 42.5 10.5t33.5 35.5v-46q-12 -20 -30.5 -28t-45.5 -8q-19 0 -35.5 5.5t-45.5 17.5q-21 10 -37 15.5t-32 5.5q-24 0 -41.5 -10t-34.5 -35v45zM206.5 582.5q-35.5 33.5 -35.5 84.5h41
q0 -36 23.5 -58t63.5 -22t63.5 22t23.5 58h40q0 -51 -35 -84.5t-92 -33.5t-92.5 33.5zM105.5 26q-50.5 41 -50.5 115q0 77 49 117t141 40q113 0 190 -46v59q0 72 -39 106.5t-125 34.5q-80 0 -154 -31v45q30 13 73 21t84 8q109 0 161.5 -49t52.5 -138v-308h-49v69
q-63 -84 -197 -84q-86 0 -136.5 41zM363.5 52.5q48.5 24.5 71.5 67.5v89q-44 24 -86 35.5t-96 11.5q-78 0 -112.5 -28.5t-34.5 -86.5q0 -55 37 -84t112 -29q60 0 108.5 24.5z" />
    <glyph glyph-name="uni1EB6" unicode="&#x1eb6;" horiz-adv-x="715" 
d="M264.5 783q-35.5 34 -35.5 85h42q0 -36 23.5 -58t63.5 -22t63.5 22t23.5 58h41q0 -51 -35.5 -85t-92.5 -34q-58 0 -93.5 34zM334 699h47l279 -699h-54l-80 201h-337l-80 -201h-54zM510 246l-153 387l-152 -387h305zM330.5 -125.5q-11.5 11.5 -11.5 27.5t11.5 27t27.5 11
q15 0 26.5 -11t11.5 -27t-11.5 -27.5t-26.5 -11.5q-16 0 -27.5 11.5z" />
    <glyph glyph-name="uni1EB7" unicode="&#x1eb7;" horiz-adv-x="558" 
d="M190.5 581q-35.5 34 -35.5 85h42q0 -36 23.5 -58t63.5 -22t63.5 22t23.5 58h41q0 -51 -35.5 -85t-92.5 -34q-58 0 -93.5 34zM105.5 26q-50.5 41 -50.5 115q0 77 49 117t141 40q113 0 190 -46v59q0 72 -39 106.5t-125 34.5q-80 0 -154 -31v45q30 13 73 21t84 8
q109 0 161.5 -49t52.5 -138v-308h-49v69q-63 -84 -197 -84q-86 0 -136.5 41zM363.5 52.5q48.5 24.5 71.5 67.5v89q-44 24 -86 35.5t-96 11.5q-78 0 -112.5 -28.5t-34.5 -86.5q0 -55 37 -84t112 -29q60 0 108.5 24.5zM256.5 -125.5q-11.5 11.5 -11.5 27.5t11.5 27t27.5 11
q15 0 26.5 -11t11.5 -27t-11.5 -27.5t-26.5 -11.5q-16 0 -27.5 11.5z" />
    <glyph glyph-name="uni1EB8" unicode="&#x1eb8;" horiz-adv-x="568" 
d="M75 699h438v-45h-385v-282h291v-45h-291v-282h385v-45h-438v699zM244.5 -125.5q-11.5 11.5 -11.5 27.5t11.5 27t27.5 11q15 0 26.5 -11t11.5 -27t-11.5 -27.5t-26.5 -11.5q-16 0 -27.5 11.5z" />
    <glyph glyph-name="uni1EB9" unicode="&#x1eb9;" horiz-adv-x="607" 
d="M126.5 51.5q-71.5 66.5 -71.5 187.5q0 118 64.5 187t183.5 69q80 0 136 -31t84.5 -86t28.5 -125v-33h-449q2 -95 63 -144t165 -49q47 0 92 8t80 23v-45q-29 -12 -79.5 -20t-96.5 -8q-129 0 -200.5 66.5zM504 259q-1 89 -51 141t-150 52q-98 0 -148.5 -54t-51.5 -139h401z
M279.5 -125.5q-11.5 11.5 -11.5 27.5t11.5 27t27.5 11q15 0 26.5 -11t11.5 -27t-11.5 -27.5t-26.5 -11.5q-16 0 -27.5 11.5z" />
    <glyph glyph-name="uni1EBA" unicode="&#x1eba;" horiz-adv-x="568" 
d="M248 808q50 0 71.5 15t21.5 48q0 56 -73 56q-15 0 -32.5 -2.5t-25.5 -6.5v35q11 4 29.5 6.5t36.5 2.5q55 0 83.5 -24.5t28.5 -64.5q0 -38 -24.5 -62.5t-70.5 -28.5v-39h-45v65zM75 699h438v-45h-385v-282h291v-45h-291v-282h385v-45h-438v699z" />
    <glyph glyph-name="uni1EBB" unicode="&#x1ebb;" horiz-adv-x="607" 
d="M286 623q50 0 71.5 15t21.5 48q0 56 -73 56q-15 0 -32.5 -2.5t-25.5 -6.5v35q11 4 29.5 6.5t36.5 2.5q55 0 83.5 -24.5t28.5 -64.5q0 -38 -24.5 -62.5t-70.5 -28.5v-39h-45v65zM126.5 51.5q-71.5 66.5 -71.5 187.5q0 118 64.5 187t183.5 69q80 0 136 -31t84.5 -86
t28.5 -125v-33h-449q2 -95 63 -144t165 -49q47 0 92 8t80 23v-45q-29 -12 -79.5 -20t-96.5 -8q-129 0 -200.5 66.5zM504 259q-1 89 -51 141t-150 52q-98 0 -148.5 -54t-51.5 -139h401z" />
    <glyph glyph-name="uni1EBC" unicode="&#x1ebc;" horiz-adv-x="568" 
d="M96 835q29 44 93 44q22 0 41.5 -6t49.5 -19q25 -12 44.5 -18.5t41.5 -6.5q29 0 51.5 11.5t41.5 41.5v-51q-28 -44 -93 -44q-25 0 -46.5 6.5t-48.5 19.5q-27 12 -44 18t-38 6q-28 0 -50 -11.5t-43 -41.5v51zM75 699h438v-45h-385v-282h291v-45h-291v-282h385v-45h-438v699
z" />
    <glyph glyph-name="uni1EBD" unicode="&#x1ebd;" horiz-adv-x="607" 
d="M127 619q29 44 93 44q22 0 41.5 -6t49.5 -19q25 -12 44.5 -18.5t41.5 -6.5q29 0 51.5 11.5t41.5 41.5v-51q-28 -44 -93 -44q-25 0 -46.5 6.5t-48.5 19.5q-27 12 -44 18t-38 6q-28 0 -50 -11.5t-43 -41.5v51zM126.5 51.5q-71.5 66.5 -71.5 187.5q0 118 64.5 187t183.5 69
q80 0 136 -31t84.5 -86t28.5 -125v-33h-449q2 -95 63 -144t165 -49q47 0 92 8t80 23v-45q-29 -12 -79.5 -20t-96.5 -8q-129 0 -200.5 66.5zM504 259q-1 89 -51 141t-150 52q-98 0 -148.5 -54t-51.5 -139h401z" />
    <glyph glyph-name="uni1EBE" unicode="&#x1ebe;" horiz-adv-x="568" 
d="M421 951h46l-76 -114h-38zM250 868h37l130 -124h-53l-95 91l-95 -91h-54zM75 699h438v-45h-385v-282h291v-45h-291v-282h385v-45h-438v699z" />
    <glyph glyph-name="uni1EBF" unicode="&#x1ebf;" horiz-adv-x="607" 
d="M467 758h46l-76 -114h-38zM296 675h37l130 -124h-53l-95 91l-95 -91h-54zM126.5 51.5q-71.5 66.5 -71.5 187.5q0 118 64.5 187t183.5 69q80 0 136 -31t84.5 -86t28.5 -125v-33h-449q2 -95 63 -144t165 -49q47 0 92 8t80 23v-45q-29 -12 -79.5 -20t-96.5 -8
q-129 0 -200.5 66.5zM504 259q-1 89 -51 141t-150 52q-98 0 -148.5 -54t-51.5 -139h401z" />
    <glyph glyph-name="uni1EC0" unicode="&#x1ec0;" horiz-adv-x="588" 
d="M101 951h46l68 -114h-38zM281 868h37l130 -124h-54l-95 91l-95 -91h-53zM94 699h438v-45h-385v-282h291v-45h-291v-282h385v-45h-438v699z" />
    <glyph glyph-name="uni1EC1" unicode="&#x1ec1;" horiz-adv-x="607" 
d="M109 758h46l68 -114h-38zM289 675h37l130 -124h-54l-95 91l-95 -91h-53zM126.5 51.5q-71.5 66.5 -71.5 187.5q0 118 64.5 187t183.5 69q80 0 136 -31t84.5 -86t28.5 -125v-33h-449q2 -95 63 -144t165 -49q47 0 92 8t80 23v-45q-29 -12 -79.5 -20t-96.5 -8
q-129 0 -200.5 66.5zM504 259q-1 89 -51 141t-150 52q-98 0 -148.5 -54t-51.5 -139h401z" />
    <glyph glyph-name="uni1EC2" unicode="&#x1ec2;" horiz-adv-x="569" 
d="M387 878q33 0 48 9t15 30q0 18 -10.5 25.5t-33.5 7.5q-29 0 -47 -8v30q23 9 55 9q38 0 57.5 -17.5t19.5 -46.5q0 -26 -18 -43t-50 -20v-26h-36v50zM280 868h37l130 -124h-53l-95 91l-95 -91h-54zM75 699h438v-45h-385v-282h291v-45h-291v-282h385v-45h-438v699z" />
    <glyph glyph-name="uni1EC3" unicode="&#x1ec3;" horiz-adv-x="607" 
d="M413 685q33 0 48 9t15 30q0 18 -10.5 25.5t-33.5 7.5q-29 0 -47 -8v30q23 9 55 9q38 0 57.5 -17.5t19.5 -46.5q0 -26 -18 -43t-50 -20v-26h-36v50zM306 675h37l130 -124h-53l-95 91l-95 -91h-54zM126.5 51.5q-71.5 66.5 -71.5 187.5q0 118 64.5 187t183.5 69
q80 0 136 -31t84.5 -86t28.5 -125v-33h-449q2 -95 63 -144t165 -49q47 0 92 8t80 23v-45q-29 -12 -79.5 -20t-96.5 -8q-129 0 -200.5 66.5zM504 259q-1 89 -51 141t-150 52q-98 0 -148.5 -54t-51.5 -139h401z" />
    <glyph glyph-name="uni1EC4" unicode="&#x1ec4;" horiz-adv-x="568" 
d="M152 927q12 20 31 28.5t45 8.5q16 0 31.5 -5t29 -10.5t17.5 -7.5q24 -11 40 -16.5t33 -5.5q24 0 42 10t34 35v-45q-22 -37 -76 -37q-20 0 -38.5 6t-42.5 18q-23 11 -38.5 16t-31.5 5q-24 0 -41.5 -10t-34.5 -36v46zM282 868h37l130 -124h-53l-95 91l-95 -91h-54zM75 699
h438v-45h-385v-282h291v-45h-291v-282h385v-45h-438v699z" />
    <glyph glyph-name="uni1EC5" unicode="&#x1ec5;" horiz-adv-x="607" 
d="M169 734q12 20 31 28.5t45 8.5q16 0 31.5 -5t29 -10.5t17.5 -7.5q24 -11 40 -16.5t33 -5.5q24 0 42 10t34 35v-45q-22 -37 -76 -37q-20 0 -38.5 6t-42.5 18q-23 11 -38.5 16t-31.5 5q-24 0 -41.5 -10t-34.5 -36v46zM299 675h37l130 -124h-53l-95 91l-95 -91h-54z
M126.5 51.5q-71.5 66.5 -71.5 187.5q0 118 64.5 187t183.5 69q80 0 136 -31t84.5 -86t28.5 -125v-33h-449q2 -95 63 -144t165 -49q47 0 92 8t80 23v-45q-29 -12 -79.5 -20t-96.5 -8q-129 0 -200.5 66.5zM504 259q-1 89 -51 141t-150 52q-98 0 -148.5 -54t-51.5 -139h401z
" />
    <glyph glyph-name="uni1EC6" unicode="&#x1ec6;" horiz-adv-x="568" 
d="M247 931h45l132 -156h-54l-100 121l-100 -121h-55zM75 699h438v-45h-385v-282h291v-45h-291v-282h385v-45h-438v699zM242.5 -125.5q-11.5 11.5 -11.5 27.5t11.5 27t27.5 11q15 0 26.5 -11t11.5 -27t-11.5 -27.5t-26.5 -11.5q-16 0 -27.5 11.5z" />
    <glyph glyph-name="uni1EC7" unicode="&#x1ec7;" horiz-adv-x="607" 
d="M284 701h45l132 -156h-54l-100 121l-100 -121h-55zM126.5 51.5q-71.5 66.5 -71.5 187.5q0 118 64.5 187t183.5 69q80 0 136 -31t84.5 -86t28.5 -125v-33h-449q2 -95 63 -144t165 -49q47 0 92 8t80 23v-45q-29 -12 -79.5 -20t-96.5 -8q-129 0 -200.5 66.5zM504 259
q-1 89 -51 141t-150 52q-98 0 -148.5 -54t-51.5 -139h401zM279.5 -125.5q-11.5 11.5 -11.5 27.5t11.5 27t27.5 11q15 0 26.5 -11t11.5 -27t-11.5 -27.5t-26.5 -11.5q-16 0 -27.5 11.5z" />
    <glyph glyph-name="uni1EC8" unicode="&#x1ec8;" horiz-adv-x="204" 
d="M79 808q50 0 71.5 15t21.5 48q0 56 -73 56q-15 0 -32.5 -2.5t-25.5 -6.5v35q11 4 29.5 6.5t36.5 2.5q55 0 83.5 -24.5t28.5 -64.5q0 -38 -24.5 -62.5t-70.5 -28.5v-39h-45v65zM75 699h53v-699h-53v699z" />
    <glyph glyph-name="uni1EC9" unicode="&#x1ec9;" horiz-adv-x="202" 
d="M78 615q50 0 71.5 15t21.5 48q0 56 -73 56q-15 0 -32.5 -2.5t-25.5 -6.5v35q11 4 29.5 6.5t36.5 2.5q55 0 83.5 -24.5t28.5 -64.5q0 -38 -24.5 -62.5t-70.5 -28.5v-39h-45v65zM75 480h52v-480h-52v480z" />
    <glyph glyph-name="uni1ECA" unicode="&#x1eca;" horiz-adv-x="204" 
d="M75 699h53v-699h-53v699zM74.5 -125.5q-11.5 11.5 -11.5 27.5t11.5 27t27.5 11q15 0 26.5 -11t11.5 -27t-11.5 -27.5t-26.5 -11.5q-16 0 -27.5 11.5z" />
    <glyph glyph-name="uni1ECB" unicode="&#x1ecb;" horiz-adv-x="225" 
d="M85.5 604.5q-10.5 10.5 -10.5 26.5q0 15 10.5 26t26.5 11q15 0 26 -11t11 -26q0 -16 -11 -26.5t-26 -10.5q-16 0 -26.5 10.5zM86 480h52v-480h-52v480zM85.5 -125.5q-11.5 11.5 -11.5 27.5t11.5 27t27.5 11q15 0 26.5 -11t11.5 -27t-11.5 -27.5t-26.5 -11.5
q-16 0 -27.5 11.5z" />
    <glyph glyph-name="uni1ECC" unicode="&#x1ecc;" horiz-adv-x="837" 
d="M232.5 30.5q-82.5 45.5 -130 128.5t-47.5 190t47.5 190t130 129t185.5 46t186 -46t130.5 -129t47.5 -190t-47.5 -190t-130.5 -128.5t-186 -45.5t-185.5 45.5zM575.5 71q71.5 39 113 111t41.5 167q0 94 -41 166t-111.5 111.5t-157.5 39.5t-158.5 -39t-113 -111t-41.5 -167
t41.5 -167t112.5 -111t157 -39t157.5 39zM391.5 -125.5q-11.5 11.5 -11.5 27.5t11.5 27t27.5 11q15 0 26.5 -11t11.5 -27t-11.5 -27.5t-26.5 -11.5q-16 0 -27.5 11.5z" />
    <glyph glyph-name="uni1ECD" unicode="&#x1ecd;" horiz-adv-x="627" 
d="M179.5 16.5q-58.5 31.5 -91.5 89t-33 133.5t33 134t91.5 90t133.5 32t133.5 -32t92 -90t33.5 -134t-33 -133.5t-92 -89t-134 -31.5t-133.5 31.5zM421 53q47 26 73 74t26 112t-26 112.5t-73 74.5t-108 26t-108 -26t-73 -74.5t-26 -112.5t26 -112t73 -74t108 -26t108 26z
M286.5 -125.5q-11.5 11.5 -11.5 27.5t11.5 27t27.5 11q15 0 26.5 -11t11.5 -27t-11.5 -27.5t-26.5 -11.5q-16 0 -27.5 11.5z" />
    <glyph glyph-name="uni1ECE" unicode="&#x1ece;" horiz-adv-x="837" 
d="M391 808q50 0 71.5 15t21.5 48q0 56 -73 56q-15 0 -32.5 -2.5t-25.5 -6.5v35q11 4 29.5 6.5t36.5 2.5q55 0 83.5 -24.5t28.5 -64.5q0 -38 -24.5 -62.5t-70.5 -28.5v-39h-45v65zM232.5 30.5q-82.5 45.5 -130 128.5t-47.5 190t47.5 190t130 129t185.5 46t186 -46
t130.5 -129t47.5 -190t-47.5 -190t-130.5 -128.5t-186 -45.5t-185.5 45.5zM575.5 71q71.5 39 113 111t41.5 167q0 94 -41 166t-111.5 111.5t-157.5 39.5t-158.5 -39t-113 -111t-41.5 -167t41.5 -167t112.5 -111t157 -39t157.5 39z" />
    <glyph glyph-name="uni1ECF" unicode="&#x1ecf;" horiz-adv-x="627" 
d="M287 605q50 0 71.5 15t21.5 48q0 56 -73 56q-15 0 -32.5 -2.5t-25.5 -6.5v35q11 4 29.5 6.5t36.5 2.5q55 0 83.5 -24.5t28.5 -64.5q0 -38 -24.5 -62.5t-70.5 -28.5v-39h-45v65zM179.5 16.5q-58.5 31.5 -91.5 89t-33 133.5t33 134t91.5 90t133.5 32t133.5 -32t92 -90
t33.5 -134t-33 -133.5t-92 -89t-134 -31.5t-133.5 31.5zM421 53q47 26 73 74t26 112t-26 112.5t-73 74.5t-108 26t-108 -26t-73 -74.5t-26 -112.5t26 -112t73 -74t108 -26t108 26z" />
    <glyph glyph-name="uni1ED0" unicode="&#x1ed0;" horiz-adv-x="837" 
d="M574 951h46l-76 -114h-38zM403 868h37l130 -124h-53l-95 91l-95 -91h-54zM232.5 30.5q-82.5 45.5 -130 128.5t-47.5 190t47.5 190t130 129t185.5 46t186 -46t130.5 -129t47.5 -190t-47.5 -190t-130.5 -128.5t-186 -45.5t-185.5 45.5zM575.5 71q71.5 39 113 111t41.5 167
q0 94 -41 166t-111.5 111.5t-157.5 39.5t-158.5 -39t-113 -111t-41.5 -167t41.5 -167t112.5 -111t157 -39t157.5 39z" />
    <glyph glyph-name="uni1ED1" unicode="&#x1ed1;" horiz-adv-x="627" 
d="M471 753h46l-76 -114h-38zM300 670h37l130 -124h-53l-95 91l-95 -91h-54zM179.5 16.5q-58.5 31.5 -91.5 89t-33 133.5t33 134t91.5 90t133.5 32t133.5 -32t92 -90t33.5 -134t-33 -133.5t-92 -89t-134 -31.5t-133.5 31.5zM421 53q47 26 73 74t26 112t-26 112.5t-73 74.5
t-108 26t-108 -26t-73 -74.5t-26 -112.5t26 -112t73 -74t108 -26t108 26z" />
    <glyph glyph-name="uni1ED2" unicode="&#x1ed2;" horiz-adv-x="837" 
d="M217 951h46l68 -114h-38zM397 868h37l130 -124h-54l-95 91l-95 -91h-53zM232.5 30.5q-82.5 45.5 -130 128.5t-47.5 190t47.5 190t130 129t185.5 46t186 -46t130.5 -129t47.5 -190t-47.5 -190t-130.5 -128.5t-186 -45.5t-185.5 45.5zM575.5 71q71.5 39 113 111t41.5 167
q0 94 -41 166t-111.5 111.5t-157.5 39.5t-158.5 -39t-113 -111t-41.5 -167t41.5 -167t112.5 -111t157 -39t157.5 39z" />
    <glyph glyph-name="uni1ED3" unicode="&#x1ed3;" horiz-adv-x="627" 
d="M121 753h46l68 -114h-38zM301 670h37l130 -124h-54l-95 91l-95 -91h-53zM179.5 16.5q-58.5 31.5 -91.5 89t-33 133.5t33 134t91.5 90t133.5 32t133.5 -32t92 -90t33.5 -134t-33 -133.5t-92 -89t-134 -31.5t-133.5 31.5zM421 53q47 26 73 74t26 112t-26 112.5t-73 74.5
t-108 26t-108 -26t-73 -74.5t-26 -112.5t26 -112t73 -74t108 -26t108 26z" />
    <glyph glyph-name="uni1ED4" unicode="&#x1ed4;" horiz-adv-x="837" 
d="M502 878q33 0 48 9t15 30q0 18 -10.5 25.5t-33.5 7.5q-29 0 -47 -8v30q23 9 55 9q38 0 57.5 -17.5t19.5 -46.5q0 -26 -18 -43t-50 -20v-26h-36v50zM395 868h37l130 -124h-53l-95 91l-95 -91h-54zM232.5 30.5q-82.5 45.5 -130 128.5t-47.5 190t47.5 190t130 129t185.5 46
t186 -46t130.5 -129t47.5 -190t-47.5 -190t-130.5 -128.5t-186 -45.5t-185.5 45.5zM575.5 71q71.5 39 113 111t41.5 167q0 94 -41 166t-111.5 111.5t-157.5 39.5t-158.5 -39t-113 -111t-41.5 -167t41.5 -167t112.5 -111t157 -39t157.5 39z" />
    <glyph glyph-name="uni1ED5" unicode="&#x1ed5;" horiz-adv-x="627" 
d="M404 680q33 0 48 9t15 30q0 18 -10.5 25.5t-33.5 7.5q-29 0 -47 -8v30q23 9 55 9q38 0 57.5 -17.5t19.5 -46.5q0 -26 -18 -43t-50 -20v-26h-36v50zM297 670h37l130 -124h-53l-95 91l-95 -91h-54zM179.5 16.5q-58.5 31.5 -91.5 89t-33 133.5t33 134t91.5 90t133.5 32
t133.5 -32t92 -90t33.5 -134t-33 -133.5t-92 -89t-134 -31.5t-133.5 31.5zM421 53q47 26 73 74t26 112t-26 112.5t-73 74.5t-108 26t-108 -26t-73 -74.5t-26 -112.5t26 -112t73 -74t108 -26t108 26z" />
    <glyph glyph-name="uni1ED6" unicode="&#x1ed6;" horiz-adv-x="837" 
d="M267 931q22 37 76 37q17 0 33.5 -5.5t43.5 -17.5q26 -11 41.5 -16.5t31.5 -5.5q24 0 42.5 10.5t33.5 35.5v-46q-12 -20 -30.5 -28t-45.5 -8q-19 0 -35.5 5.5t-45.5 17.5q-21 10 -37 15.5t-32 5.5q-24 0 -41.5 -10t-34.5 -35v45zM328.5 778.5q-35.5 33.5 -35.5 84.5h41
q0 -36 23.5 -58t63.5 -22t63.5 22t23.5 58h40q0 -51 -35 -84.5t-92 -33.5t-92.5 33.5zM232.5 30.5q-82.5 45.5 -130 128.5t-47.5 190t47.5 190t130 129t185.5 46t186 -46t130.5 -129t47.5 -190t-47.5 -190t-130.5 -128.5t-186 -45.5t-185.5 45.5zM575.5 71q71.5 39 113 111
t41.5 167q0 94 -41 166t-111.5 111.5t-157.5 39.5t-158.5 -39t-113 -111t-41.5 -167t41.5 -167t112.5 -111t157 -39t157.5 39z" />
    <glyph glyph-name="uni1ED7" unicode="&#x1ed7;" horiz-adv-x="627" 
d="M163 733q22 37 76 37q17 0 33.5 -5.5t43.5 -17.5q26 -11 41.5 -16.5t31.5 -5.5q24 0 42.5 10.5t33.5 35.5v-46q-12 -20 -30.5 -28t-45.5 -8q-19 0 -35.5 5.5t-45.5 17.5q-21 10 -37 15.5t-32 5.5q-24 0 -41.5 -10t-34.5 -35v45zM224.5 580.5q-35.5 33.5 -35.5 84.5h41
q0 -36 23.5 -58t63.5 -22t63.5 22t23.5 58h40q0 -51 -35 -84.5t-92 -33.5t-92.5 33.5zM179.5 16.5q-58.5 31.5 -91.5 89t-33 133.5t33 134t91.5 90t133.5 32t133.5 -32t92 -90t33.5 -134t-33 -133.5t-92 -89t-134 -31.5t-133.5 31.5zM421 53q47 26 73 74t26 112t-26 112.5
t-73 74.5t-108 26t-108 -26t-73 -74.5t-26 -112.5t26 -112t73 -74t108 -26t108 26z" />
    <glyph glyph-name="uni1ED8" unicode="&#x1ed8;" horiz-adv-x="837" 
d="M395 920h45l132 -156h-54l-100 121l-100 -121h-55zM232.5 30.5q-82.5 45.5 -130 128.5t-47.5 190t47.5 190t130 129t185.5 46t186 -46t130.5 -129t47.5 -190t-47.5 -190t-130.5 -128.5t-186 -45.5t-185.5 45.5zM575.5 71q71.5 39 113 111t41.5 167q0 94 -41 166
t-111.5 111.5t-157.5 39.5t-158.5 -39t-113 -111t-41.5 -167t41.5 -167t112.5 -111t157 -39t157.5 39zM391.5 -125.5q-11.5 11.5 -11.5 27.5t11.5 27t27.5 11q15 0 26.5 -11t11.5 -27t-11.5 -27.5t-26.5 -11.5q-16 0 -27.5 11.5z" />
    <glyph glyph-name="uni1ED9" unicode="&#x1ed9;" horiz-adv-x="627" 
d="M290 697h45l132 -156h-54l-100 121l-100 -121h-55zM179.5 16.5q-58.5 31.5 -91.5 89t-33 133.5t33 134t91.5 90t133.5 32t133.5 -32t92 -90t33.5 -134t-33 -133.5t-92 -89t-134 -31.5t-133.5 31.5zM421 53q47 26 73 74t26 112t-26 112.5t-73 74.5t-108 26t-108 -26
t-73 -74.5t-26 -112.5t26 -112t73 -74t108 -26t108 26zM286.5 -125.5q-11.5 11.5 -11.5 27.5t11.5 27t27.5 11q15 0 26.5 -11t11.5 -27t-11.5 -27.5t-26.5 -11.5q-16 0 -27.5 11.5z" />
    <glyph glyph-name="uni1EDA" unicode="&#x1eda;" horiz-adv-x="843" 
d="M472 923h54l-78 -169h-46zM232.5 30.5q-82.5 45.5 -130 128.5t-47.5 190t47.5 190t130 129t185.5 46q74 0 138.5 -24t112.5 -69q43 1 68.5 26t25.5 63v37h48v-39q0 -44 -30 -79.5t-76 -45.5q37 -47 57 -106.5t20 -127.5q0 -107 -47.5 -190t-130.5 -128.5t-186 -45.5
t-185.5 45.5zM575.5 71q71.5 39 113 111t41.5 167q0 94 -41 166t-111.5 111.5t-157.5 39.5t-158.5 -39t-113 -111t-41.5 -167t41.5 -167t112.5 -111t157 -39t157.5 39z" />
    <glyph glyph-name="uni1EDB" unicode="&#x1edb;" horiz-adv-x="653" 
d="M351 717h54l-78 -169h-46zM180 16.5q-59 31.5 -92 89t-33 133.5t33 134t92 90t133 32q106 0 177 -62q39 4 63 28.5t24 59.5v37h43v-39q0 -42 -27.5 -75t-71.5 -45q51 -67 51 -160q0 -76 -33 -133.5t-92 -89t-134 -31.5q-74 0 -133 31.5zM421 53q47 26 73 74t26 112
t-26 112.5t-73 74.5t-108 26t-108 -26t-73 -74.5t-26 -112.5t26 -112t73 -74t108 -26t108 26z" />
    <glyph glyph-name="uni1EDC" unicode="&#x1edc;" horiz-adv-x="843" 
d="M326 923h55l69 -169h-45zM232.5 30.5q-82.5 45.5 -130 128.5t-47.5 190t47.5 190t130 129t185.5 46q74 0 138.5 -24t112.5 -69q43 1 68.5 26t25.5 63v37h48v-39q0 -44 -30 -79.5t-76 -45.5q37 -47 57 -106.5t20 -127.5q0 -107 -47.5 -190t-130.5 -128.5t-186 -45.5
t-185.5 45.5zM575.5 71q71.5 39 113 111t41.5 167q0 94 -41 166t-111.5 111.5t-157.5 39.5t-158.5 -39t-113 -111t-41.5 -167t41.5 -167t112.5 -111t157 -39t157.5 39z" />
    <glyph glyph-name="uni1EDD" unicode="&#x1edd;" horiz-adv-x="653" 
d="M218 717h55l69 -169h-45zM180 16.5q-59 31.5 -92 89t-33 133.5t33 134t92 90t133 32q106 0 177 -62q39 4 63 28.5t24 59.5v37h43v-39q0 -42 -27.5 -75t-71.5 -45q51 -67 51 -160q0 -76 -33 -133.5t-92 -89t-134 -31.5q-74 0 -133 31.5zM421 53q47 26 73 74t26 112
t-26 112.5t-73 74.5t-108 26t-108 -26t-73 -74.5t-26 -112.5t26 -112t73 -74t108 -26t108 26z" />
    <glyph glyph-name="uni1EDE" unicode="&#x1ede;" horiz-adv-x="843" 
d="M401 808q50 0 71.5 15t21.5 48q0 56 -73 56q-15 0 -32.5 -2.5t-25.5 -6.5v35q11 4 29.5 6.5t36.5 2.5q55 0 83.5 -24.5t28.5 -64.5q0 -38 -24.5 -62.5t-70.5 -28.5v-39h-45v65zM232.5 30.5q-82.5 45.5 -130 128.5t-47.5 190t47.5 190t130 129t185.5 46q74 0 138.5 -24
t112.5 -69q43 1 68.5 26t25.5 63v37h48v-39q0 -44 -30 -79.5t-76 -45.5q37 -47 57 -106.5t20 -127.5q0 -107 -47.5 -190t-130.5 -128.5t-186 -45.5t-185.5 45.5zM575.5 71q71.5 39 113 111t41.5 167q0 94 -41 166t-111.5 111.5t-157.5 39.5t-158.5 -39t-113 -111t-41.5 -167
t41.5 -167t112.5 -111t157 -39t157.5 39z" />
    <glyph glyph-name="uni1EDF" unicode="&#x1edf;" horiz-adv-x="653" 
d="M293 605q50 0 71.5 15t21.5 48q0 56 -73 56q-15 0 -32.5 -2.5t-25.5 -6.5v35q11 4 29.5 6.5t36.5 2.5q55 0 83.5 -24.5t28.5 -64.5q0 -38 -24.5 -62.5t-70.5 -28.5v-39h-45v65zM180 16.5q-59 31.5 -92 89t-33 133.5t33 134t92 90t133 32q106 0 177 -62q39 4 63 28.5
t24 59.5v37h43v-39q0 -42 -27.5 -75t-71.5 -45q51 -67 51 -160q0 -76 -33 -133.5t-92 -89t-134 -31.5q-74 0 -133 31.5zM421 53q47 26 73 74t26 112t-26 112.5t-73 74.5t-108 26t-108 -26t-73 -74.5t-26 -112.5t26 -112t73 -74t108 -26t108 26z" />
    <glyph glyph-name="uni1EE0" unicode="&#x1ee0;" horiz-adv-x="843" 
d="M254 815q29 44 93 44q22 0 41.5 -6t49.5 -19q25 -12 44.5 -18.5t41.5 -6.5q29 0 51.5 11.5t41.5 41.5v-51q-28 -44 -93 -44q-25 0 -46.5 6.5t-48.5 19.5q-27 12 -44 18t-38 6q-28 0 -50 -11.5t-43 -41.5v51zM232.5 30.5q-82.5 45.5 -130 128.5t-47.5 190t47.5 190
t130 129t185.5 46q74 0 138.5 -24t112.5 -69q43 1 68.5 26t25.5 63v37h48v-39q0 -44 -30 -79.5t-76 -45.5q37 -47 57 -106.5t20 -127.5q0 -107 -47.5 -190t-130.5 -128.5t-186 -45.5t-185.5 45.5zM575.5 71q71.5 39 113 111t41.5 167q0 94 -41 166t-111.5 111.5t-157.5 39.5
t-158.5 -39t-113 -111t-41.5 -167t41.5 -167t112.5 -111t157 -39t157.5 39z" />
    <glyph glyph-name="uni1EE1" unicode="&#x1ee1;" horiz-adv-x="653" 
d="M136 608q29 44 93 44q22 0 41.5 -6t49.5 -19q25 -12 44.5 -18.5t41.5 -6.5q29 0 51.5 11.5t41.5 41.5v-51q-28 -44 -93 -44q-25 0 -46.5 6.5t-48.5 19.5q-27 12 -44 18t-38 6q-28 0 -50 -11.5t-43 -41.5v51zM180 16.5q-59 31.5 -92 89t-33 133.5t33 134t92 90t133 32
q106 0 177 -62q39 4 63 28.5t24 59.5v37h43v-39q0 -42 -27.5 -75t-71.5 -45q51 -67 51 -160q0 -76 -33 -133.5t-92 -89t-134 -31.5q-74 0 -133 31.5zM421 53q47 26 73 74t26 112t-26 112.5t-73 74.5t-108 26t-108 -26t-73 -74.5t-26 -112.5t26 -112t73 -74t108 -26t108 26z
" />
    <glyph glyph-name="uni1EE2" unicode="&#x1ee2;" horiz-adv-x="843" 
d="M232.5 30.5q-82.5 45.5 -130 128.5t-47.5 190t47.5 190t130 129t185.5 46q74 0 138.5 -24t112.5 -69q43 1 68.5 26t25.5 63v37h48v-39q0 -44 -30 -79.5t-76 -45.5q37 -47 57 -106.5t20 -127.5q0 -107 -47.5 -190t-130.5 -128.5t-186 -45.5t-185.5 45.5zM575.5 71
q71.5 39 113 111t41.5 167q0 94 -41 166t-111.5 111.5t-157.5 39.5t-158.5 -39t-113 -111t-41.5 -167t41.5 -167t112.5 -111t157 -39t157.5 39zM395.5 -125.5q-11.5 11.5 -11.5 27.5t11.5 27t27.5 11q15 0 26.5 -11t11.5 -27t-11.5 -27.5t-26.5 -11.5q-16 0 -27.5 11.5z" />
    <glyph glyph-name="uni1EE3" unicode="&#x1ee3;" horiz-adv-x="653" 
d="M180 16.5q-59 31.5 -92 89t-33 133.5t33 134t92 90t133 32q106 0 177 -62q39 4 63 28.5t24 59.5v37h43v-39q0 -42 -27.5 -75t-71.5 -45q51 -67 51 -160q0 -76 -33 -133.5t-92 -89t-134 -31.5q-74 0 -133 31.5zM421 53q47 26 73 74t26 112t-26 112.5t-73 74.5t-108 26
t-108 -26t-73 -74.5t-26 -112.5t26 -112t73 -74t108 -26t108 26zM282.5 -125.5q-11.5 11.5 -11.5 27.5t11.5 27t27.5 11q15 0 26.5 -11t11.5 -27t-11.5 -27.5t-26.5 -11.5q-16 0 -27.5 11.5z" />
    <glyph glyph-name="uni1EE4" unicode="&#x1ee4;" horiz-adv-x="679" 
d="M138 51.5q-68 66.5 -68 187.5v460h53v-468q0 -101 58 -150t158 -49t158.5 49t58.5 150v468h53v-460q0 -121 -68.5 -187.5t-201.5 -66.5t-201 66.5zM312.5 -125.5q-11.5 11.5 -11.5 27.5t11.5 27t27.5 11q15 0 26.5 -11t11.5 -27t-11.5 -27.5t-26.5 -11.5
q-16 0 -27.5 11.5z" />
    <glyph glyph-name="uni1EE5" unicode="&#x1ee5;" horiz-adv-x="582" 
d="M120 36q-50 51 -50 135v309h52v-310q0 -68 36.5 -105.5t111.5 -37.5q59 0 103.5 26t80.5 83v344h53v-480h-52v80q-67 -95 -189 -95q-96 0 -146 51zM259.5 -125.5q-11.5 11.5 -11.5 27.5t11.5 27t27.5 11q15 0 26.5 -11t11.5 -27t-11.5 -27.5t-26.5 -11.5
q-16 0 -27.5 11.5z" />
    <glyph glyph-name="uni1EE6" unicode="&#x1ee6;" horiz-adv-x="679" 
d="M308 808q50 0 71.5 15t21.5 48q0 56 -73 56q-15 0 -32.5 -2.5t-25.5 -6.5v35q11 4 29.5 6.5t36.5 2.5q55 0 83.5 -24.5t28.5 -64.5q0 -38 -24.5 -62.5t-70.5 -28.5v-39h-45v65zM138 51.5q-68 66.5 -68 187.5v460h53v-468q0 -101 58 -150t158 -49t158.5 49t58.5 150v468
h53v-460q0 -121 -68.5 -187.5t-201.5 -66.5t-201 66.5z" />
    <glyph glyph-name="uni1EE7" unicode="&#x1ee7;" horiz-adv-x="582" 
d="M255 605q50 0 71.5 15t21.5 48q0 56 -73 56q-15 0 -32.5 -2.5t-25.5 -6.5v35q11 4 29.5 6.5t36.5 2.5q55 0 83.5 -24.5t28.5 -64.5q0 -38 -24.5 -62.5t-70.5 -28.5v-39h-45v65zM120 36q-50 51 -50 135v309h52v-310q0 -68 36.5 -105.5t111.5 -37.5q59 0 103.5 26t80.5 83
v344h53v-480h-52v80q-67 -95 -189 -95q-96 0 -146 51z" />
    <glyph glyph-name="uni1EE8" unicode="&#x1ee8;" horiz-adv-x="802" 
d="M391 923h54l-78 -169h-46zM138 51.5q-68 66.5 -68 187.5v460h53v-468q0 -101 58 -150t158 -49t158.5 49t58.5 150v468h53v-73q48 0 71 22t23 62v37h53v-39q0 -34 -19 -64t-52.5 -47.5t-75.5 -17.5v-340q0 -121 -68.5 -187.5t-201.5 -66.5t-201 66.5z" />
    <glyph glyph-name="uni1EE9" unicode="&#x1ee9;" horiz-adv-x="691" 
d="M328 717h54l-78 -169h-46zM118 35q-48 50 -48 133v312h52v-307q0 -68 35.5 -107t112.5 -39q58 0 103.5 26t80.5 83v344h53v-48q42 1 69.5 26.5t27.5 61.5v38h43v-39q0 -33 -18 -61.5t-50 -46t-72 -17.5v-394h-52v83q-68 -98 -192 -98q-97 0 -145 50z" />
    <glyph glyph-name="uni1EEA" unicode="&#x1eea;" horiz-adv-x="788" 
d="M253 923h55l69 -169h-45zM138 51.5q-68 66.5 -68 187.5v460h53v-468q0 -101 58 -150t158 -49t158.5 49t58.5 150v468h53v-73q48 0 71 22t23 62v37h53v-39q0 -34 -19 -64t-52.5 -47.5t-75.5 -17.5v-340q0 -121 -68.5 -187.5t-201.5 -66.5t-201 66.5z" />
    <glyph glyph-name="uni1EEB" unicode="&#x1eeb;" horiz-adv-x="680" 
d="M201 737h55l69 -169h-45zM118 35q-48 50 -48 133v312h52v-307q0 -68 35.5 -107t112.5 -39q58 0 103.5 26t80.5 83v344h53v-48q42 1 69.5 26.5t27.5 61.5v38h43v-39q0 -33 -18 -61.5t-50 -46t-72 -17.5v-394h-52v83q-68 -98 -192 -98q-97 0 -145 50z" />
    <glyph glyph-name="uni1EEC" unicode="&#x1eec;" horiz-adv-x="788" 
d="M312 808q50 0 71.5 15t21.5 48q0 56 -73 56q-15 0 -32.5 -2.5t-25.5 -6.5v35q11 4 29.5 6.5t36.5 2.5q55 0 83.5 -24.5t28.5 -64.5q0 -38 -24.5 -62.5t-70.5 -28.5v-39h-45v65zM138 51.5q-68 66.5 -68 187.5v460h53v-468q0 -101 58 -150t158 -49t158.5 49t58.5 150v468
h53v-73q48 0 71 22t23 62v37h53v-39q0 -34 -19 -64t-52.5 -47.5t-75.5 -17.5v-340q0 -121 -68.5 -187.5t-201.5 -66.5t-201 66.5z" />
    <glyph glyph-name="uni1EED" unicode="&#x1eed;" horiz-adv-x="680" 
d="M268 615q50 0 71.5 15t21.5 48q0 56 -73 56q-15 0 -32.5 -2.5t-25.5 -6.5v35q11 4 29.5 6.5t36.5 2.5q55 0 83.5 -24.5t28.5 -64.5q0 -38 -24.5 -62.5t-70.5 -28.5v-39h-45v65zM118 35q-48 50 -48 133v312h52v-307q0 -68 35.5 -107t112.5 -39q58 0 103.5 26t80.5 83v344
h53v-48q42 1 69.5 26.5t27.5 61.5v38h43v-39q0 -33 -18 -61.5t-50 -46t-72 -17.5v-394h-52v83q-68 -98 -192 -98q-97 0 -145 50z" />
    <glyph glyph-name="uni1EEE" unicode="&#x1eee;" horiz-adv-x="788" 
d="M158 815q29 44 93 44q22 0 41.5 -6t49.5 -19q25 -12 44.5 -18.5t41.5 -6.5q29 0 51.5 11.5t41.5 41.5v-51q-28 -44 -93 -44q-25 0 -46.5 6.5t-48.5 19.5q-27 12 -44 18t-38 6q-28 0 -50 -11.5t-43 -41.5v51zM138 51.5q-68 66.5 -68 187.5v460h53v-468q0 -101 58 -150
t158 -49t158.5 49t58.5 150v468h53v-73q48 0 71 22t23 62v37h53v-39q0 -34 -19 -64t-52.5 -47.5t-75.5 -17.5v-340q0 -121 -68.5 -187.5t-201.5 -66.5t-201 66.5z" />
    <glyph glyph-name="uni1EEF" unicode="&#x1eef;" horiz-adv-x="680" 
d="M118 628q29 44 93 44q22 0 41.5 -6t49.5 -19q25 -12 44.5 -18.5t41.5 -6.5q29 0 51.5 11.5t41.5 41.5v-51q-28 -44 -93 -44q-25 0 -46.5 6.5t-48.5 19.5q-27 12 -44 18t-38 6q-28 0 -50 -11.5t-43 -41.5v51zM118 35q-48 50 -48 133v312h52v-307q0 -68 35.5 -107
t112.5 -39q58 0 103.5 26t80.5 83v344h53v-48q42 1 69.5 26.5t27.5 61.5v38h43v-39q0 -33 -18 -61.5t-50 -46t-72 -17.5v-394h-52v83q-68 -98 -192 -98q-97 0 -145 50z" />
    <glyph glyph-name="uni1EF0" unicode="&#x1ef0;" horiz-adv-x="788" 
d="M138 51.5q-68 66.5 -68 187.5v460h53v-468q0 -101 58 -150t158 -49t158.5 49t58.5 150v468h53v-73q48 0 71 22t23 62v37h53v-39q0 -34 -19 -64t-52.5 -47.5t-75.5 -17.5v-340q0 -121 -68.5 -187.5t-201.5 -66.5t-201 66.5zM304.5 -125.5q-11.5 11.5 -11.5 27.5t11.5 27
t27.5 11q15 0 26.5 -11t11.5 -27t-11.5 -27.5t-26.5 -11.5q-16 0 -27.5 11.5z" />
    <glyph glyph-name="uni1EF1" unicode="&#x1ef1;" horiz-adv-x="680" 
d="M118 35q-48 50 -48 133v312h52v-307q0 -68 35.5 -107t112.5 -39q58 0 103.5 26t80.5 83v344h53v-48q42 1 69.5 26.5t27.5 61.5v38h43v-39q0 -33 -18 -61.5t-50 -46t-72 -17.5v-394h-52v83q-68 -98 -192 -98q-97 0 -145 50zM259.5 -125.5q-11.5 11.5 -11.5 27.5t11.5 27
t27.5 11q15 0 26.5 -11t11.5 -27t-11.5 -27.5t-26.5 -11.5q-16 0 -27.5 11.5z" />
    <glyph glyph-name="Ygrave" unicode="&#x1ef2;" horiz-adv-x="672" 
d="M237 929h55l69 -169h-45zM309 265l-254 434h55l226 -387l226 387h55l-255 -434v-265h-53v265z" />
    <glyph glyph-name="ygrave" unicode="&#x1ef3;" horiz-adv-x="553" 
d="M205 717h55l69 -169h-45zM74 -191v44q24 -9 59 -9q38 0 60 20t41 67l30 73l-209 476h55l181 -413l172 413h55l-228 -555q-27 -64 -60 -93.5t-86 -29.5q-41 0 -70 7z" />
    <glyph glyph-name="uni1EF4" unicode="&#x1ef4;" horiz-adv-x="672" 
d="M309 265l-254 434h55l226 -387l226 387h55l-255 -434v-265h-53v265zM308.5 -125.5q-11.5 11.5 -11.5 27.5t11.5 27t27.5 11q15 0 26.5 -11t11.5 -27t-11.5 -27.5t-26.5 -11.5q-16 0 -27.5 11.5z" />
    <glyph glyph-name="uni1EF5" unicode="&#x1ef5;" horiz-adv-x="553" 
d="M74 -191v44q24 -9 59 -9q38 0 60 20t41 67l30 73l-209 476h55l181 -413l172 413h55l-228 -555q-27 -64 -60 -93.5t-86 -29.5q-41 0 -70 7zM368.5 -124.5q-11.5 11.5 -11.5 27.5t11.5 27t27.5 11q15 0 26.5 -11t11.5 -27t-11.5 -27.5t-26.5 -11.5q-16 0 -27.5 11.5z" />
    <glyph glyph-name="uni1EF6" unicode="&#x1ef6;" horiz-adv-x="672" 
d="M303 808q50 0 71.5 15t21.5 48q0 56 -73 56q-15 0 -32.5 -2.5t-25.5 -6.5v35q11 4 29.5 6.5t36.5 2.5q55 0 83.5 -24.5t28.5 -64.5q0 -38 -24.5 -62.5t-70.5 -28.5v-39h-45v65zM309 265l-254 434h55l226 -387l226 387h55l-255 -434v-265h-53v265z" />
    <glyph glyph-name="uni1EF7" unicode="&#x1ef7;" horiz-adv-x="553" 
d="M260 605q50 0 71.5 15t21.5 48q0 56 -73 56q-15 0 -32.5 -2.5t-25.5 -6.5v35q11 4 29.5 6.5t36.5 2.5q55 0 83.5 -24.5t28.5 -64.5q0 -38 -24.5 -62.5t-70.5 -28.5v-39h-45v65zM74 -191v44q24 -9 59 -9q38 0 60 20t41 67l30 73l-209 476h55l181 -413l172 413h55
l-228 -555q-27 -64 -60 -93.5t-86 -29.5q-41 0 -70 7z" />
    <glyph glyph-name="uni1EF8" unicode="&#x1ef8;" horiz-adv-x="672" 
d="M154 821q29 44 93 44q22 0 41.5 -6t49.5 -19q25 -12 44.5 -18.5t41.5 -6.5q29 0 51.5 11.5t41.5 41.5v-51q-28 -44 -93 -44q-25 0 -46.5 6.5t-48.5 19.5q-27 12 -44 18t-38 6q-28 0 -50 -11.5t-43 -41.5v51zM309 265l-254 434h55l226 -387l226 387h55l-255 -434v-265h-53
v265z" />
    <glyph glyph-name="uni1EF9" unicode="&#x1ef9;" horiz-adv-x="553" 
d="M110 608q29 44 93 44q22 0 41.5 -6t49.5 -19q25 -12 44.5 -18.5t41.5 -6.5q29 0 51.5 11.5t41.5 41.5v-51q-28 -44 -93 -44q-25 0 -46.5 6.5t-48.5 19.5q-27 12 -44 18t-38 6q-28 0 -50 -11.5t-43 -41.5v51zM74 -191v44q24 -9 59 -9q38 0 60 20t41 67l30 73l-209 476h55
l181 -413l172 413h55l-228 -555q-27 -64 -60 -93.5t-86 -29.5q-41 0 -70 7z" />
    <glyph glyph-name="uni2007" unicode="&#x2007;" 
 />
    <glyph glyph-name="uni2010" unicode="&#x2010;" horiz-adv-x="442" 
d="M55 316h332v-44h-332v44z" />
    <glyph glyph-name="figuredash" unicode="&#x2012;" horiz-adv-x="668" 
d="M55 316h558v-44h-558v44z" />
    <glyph glyph-name="endash" unicode="&#x2013;" horiz-adv-x="630" 
d="M55 316h520v-44h-520v44z" />
    <glyph glyph-name="emdash" unicode="&#x2014;" horiz-adv-x="783" 
d="M55 316h673v-44h-673v44z" />
    <glyph glyph-name="uni2015" unicode="&#x2015;" horiz-adv-x="1031" 
d="M55 316h921v-44h-921v44z" />
    <glyph glyph-name="quoteleft" unicode="&#x2018;" horiz-adv-x="231" 
d="M131 714h45l-68 -191h-53z" />
    <glyph glyph-name="quoteright" unicode="&#x2019;" horiz-adv-x="232" 
d="M123 714h54l-77 -191h-45z" />
    <glyph glyph-name="quotesinglbase" unicode="&#x201a;" horiz-adv-x="232" 
d="M123 71h54l-77 -191h-45z" />
    <glyph glyph-name="quotedblleft" unicode="&#x201c;" horiz-adv-x="368" 
d="M131 714h46l-68 -191h-54zM267 714h46l-68 -191h-54z" />
    <glyph glyph-name="quotedblright" unicode="&#x201d;" horiz-adv-x="368" 
d="M123 714h54l-77 -191h-45zM259 714h54l-77 -191h-45z" />
    <glyph glyph-name="quotedblbase" unicode="&#x201e;" horiz-adv-x="368" 
d="M123 71h54l-77 -191h-45zM259 71h54l-77 -191h-45z" />
    <glyph glyph-name="dagger" unicode="&#x2020;" horiz-adv-x="528" 
d="M237 466h-182v45h182v188h53v-188h183v-45h-183v-536h-53v536z" />
    <glyph glyph-name="daggerdbl" unicode="&#x2021;" horiz-adv-x="528" 
d="M237 183h-182v45h182v243h-182v45h182v183h53v-183h183v-45h-183v-243h183v-45h-183v-183h-53v183z" />
    <glyph glyph-name="bullet" unicode="&#x2022;" horiz-adv-x="264" 
d="M77.5 242.5q-22.5 22.5 -22.5 54.5t22.5 55t54.5 23t54.5 -23t22.5 -55t-22.5 -54.5t-54.5 -22.5t-54.5 22.5z" />
    <glyph glyph-name="ellipsis" unicode="&#x2026;" horiz-adv-x="581" 
d="M65 10q-10 10 -10 25q0 14 10 24.5t25 10.5q14 0 24.5 -10.5t10.5 -24.5q0 -15 -10.5 -25t-24.5 -10q-15 0 -25 10zM265 10q-10 10 -10 25q0 14 10 24.5t25 10.5q14 0 24.5 -10.5t10.5 -24.5q0 -15 -10.5 -25t-24.5 -10q-15 0 -25 10zM465.5 10q-10.5 10 -10.5 25
q0 14 10.5 24.5t24.5 10.5q15 0 25.5 -10.5t10.5 -24.5q0 -15 -10.5 -25t-25.5 -10q-14 0 -24.5 10z" />
    <glyph glyph-name="perthousand" unicode="&#x2030;" horiz-adv-x="1284" 
d="M146 371.5q-42 24.5 -66.5 66.5t-24.5 92t24.5 92.5t66.5 67t92 24.5t92.5 -24.5t67 -67t24.5 -92.5t-24.5 -92t-67 -66.5t-92.5 -24.5t-92 24.5zM604 699h52l-387 -699h-52zM309.5 407.5q32.5 18.5 51 50.5t18.5 71t-18.5 71.5t-51 51t-71.5 18.5t-71.5 -18.5t-51 -51
t-18.5 -71.5t18.5 -71t51 -50.5t71.5 -18.5t71.5 18.5zM542 9.5q-42 24.5 -66.5 66.5t-24.5 92t24.5 92.5t66.5 67t92 24.5t92.5 -24.5t67 -67t24.5 -92.5t-24.5 -92t-67 -66.5t-92.5 -24.5t-92 24.5zM953 9.5q-42 24.5 -66.5 66.5t-24.5 92t24.5 92.5t66.5 67t92 24.5
t92.5 -24.5t67 -67t24.5 -92.5t-24.5 -92t-67 -66.5t-92.5 -24.5t-92 24.5zM705.5 45.5q32.5 18.5 51 50.5t18.5 71t-18.5 71.5t-51 51t-71.5 18.5t-71 -18.5t-50.5 -51t-18.5 -71.5t18.5 -71t50.5 -50.5t71 -18.5t71.5 18.5zM1116.5 45.5q32.5 18.5 51 50.5t18.5 71
t-18.5 71.5t-51 51t-71.5 18.5t-71.5 -18.5t-51 -51t-18.5 -71.5t18.5 -71t51 -50.5t71.5 -18.5t71.5 18.5z" />
    <glyph glyph-name="minute" unicode="&#x2032;" horiz-adv-x="162" 
d="M55 699h52v-175h-52v175z" />
    <glyph glyph-name="second" unicode="&#x2033;" horiz-adv-x="323" 
d="M55 699h52v-175h-52v175zM215 699h53v-175h-53v175z" />
    <glyph glyph-name="guilsinglleft" unicode="&#x2039;" horiz-adv-x="357" 
d="M55 310v24l222 180l25 -33l-196 -159l196 -158l-25 -34z" />
    <glyph glyph-name="guilsinglright" unicode="&#x203a;" horiz-adv-x="357" 
d="M55 164l195 158l-195 159l25 33l222 -180v-24l-222 -180z" />
    <glyph glyph-name="fraction" unicode="&#x2044;" horiz-adv-x="220" 
d="M275 714h55l-385 -729h-55z" />
    <glyph glyph-name="uni2070" unicode="&#x2070;" horiz-adv-x="385" 
d="M92 406.5q-37 47.5 -37 127.5t36.5 127.5t100.5 47.5t101 -47.5t37 -127.5t-37 -127.5t-101 -47.5q-63 0 -100 47.5zM263.5 433.5q26.5 36.5 26.5 100.5t-26 100.5t-72 36.5q-45 0 -71.5 -36.5t-26.5 -100.5t26.5 -100.5t71.5 -36.5t71.5 36.5z" />
    <glyph glyph-name="uni2074" unicode="&#x2074;" horiz-adv-x="329" 
d="M201 453h-166v32l160 214h49v-213h50v-33h-50v-83h-43v83zM205 486v168l-128 -168h128z" />
    <glyph glyph-name="uni2075" unicode="&#x2075;" horiz-adv-x="339" 
d="M97.5 365.5q-26.5 5.5 -42.5 13.5v39q17 -10 42.5 -15.5t47.5 -5.5q50 0 73.5 18t23.5 58q0 38 -21.5 56.5t-72.5 18.5q-38 0 -71 -11l-14 8l12 154h184v-36h-148l-7 -89q28 7 59 7q63 0 92 -29t29 -79q0 -53 -34.5 -83t-100.5 -30q-25 0 -51.5 5.5z" />
    <glyph glyph-name="uni2076" unicode="&#x2076;" horiz-adv-x="362" 
d="M90 398q-35 38 -35 108q0 99 43 151t114 52q22 0 49 -5v-35q-17 6 -46 6q-102 0 -120 -130q13 25 38.5 39t57.5 14q59 0 87.5 -32.5t28.5 -87.5q0 -52 -32.5 -85t-92.5 -33q-57 0 -92 38zM245.5 415.5q21.5 22.5 21.5 62.5q0 42 -19 64.5t-62 22.5q-40 0 -63.5 -24
t-23.5 -63q0 -37 22 -61t61 -24q42 0 63.5 22.5z" />
    <glyph glyph-name="uni2077" unicode="&#x2077;" horiz-adv-x="316" 
d="M226 663h-181v36h226v-31l-136 -298h-44z" />
    <glyph glyph-name="uni2078" unicode="&#x2078;" horiz-adv-x="346" 
d="M86.5 385q-31.5 25 -31.5 70q0 35 20 58.5t50 28.5q-26 8 -42 28.5t-16 49.5q0 41 29 65t77 24t77 -24t29 -65q0 -29 -16 -49.5t-43 -28.5q31 -5 51 -28.5t20 -58.5q0 -45 -31.5 -70t-86.5 -25t-86.5 25zM221.5 576.5q17.5 16.5 17.5 42.5t-18.5 42t-47.5 16t-47.5 -16
t-18.5 -42t17.5 -42.5t48.5 -16.5t48.5 16.5zM229.5 408.5q20.5 16.5 20.5 47.5q0 32 -20 50t-57 18t-57 -18t-20 -50q0 -31 20.5 -47.5t56.5 -16.5t56.5 16.5z" />
    <glyph glyph-name="uni2079" unicode="&#x2079;" horiz-adv-x="362" 
d="M101 365v34q18 -5 45 -5q103 0 120 130q-13 -26 -38 -40t-58 -14q-59 0 -87 32.5t-28 87.5q0 52 32.5 85.5t91.5 33.5q58 0 93 -38t35 -108q0 -100 -43 -151.5t-115 -51.5q-30 0 -48 5zM239 527.5q24 23.5 24 63.5q0 37 -22 60.5t-62 23.5q-42 0 -63 -22.5t-21 -61.5
q0 -43 19 -65t62 -22q39 0 63 23.5z" />
    <glyph glyph-name="uni207D" unicode="&#x207d;" horiz-adv-x="210" 
d="M69.5 437.5q-14.5 45.5 -14.5 96.5t14.5 96.5t41.5 78.5h44q-28 -36 -43 -81.5t-15 -93.5t15 -93.5t43 -80.5h-44q-27 32 -41.5 77.5z" />
    <glyph glyph-name="uni207E" unicode="&#x207e;" horiz-adv-x="210" 
d="M97 440.5q15 45.5 15 93.5t-15 93.5t-42 81.5h44q26 -33 41 -79t15 -96t-15 -96t-41 -78h-44q27 35 42 80.5z" />
    <glyph glyph-name="uni207F" unicode="&#x207f;" horiz-adv-x="442" 
d="M60 699h44v-56q27 37 64.5 54t78.5 17q68 0 104 -35t36 -93v-226h-45v216q0 101 -102 101q-84 0 -136 -78v-239h-44v339z" />
    <glyph glyph-name="uni2080" unicode="&#x2080;" horiz-adv-x="385" 
d="M92 -123q-37 47 -37 127t36.5 127.5t100.5 47.5t101 -47.5t37 -127.5t-37 -127t-101 -47q-63 0 -100 47zM263.5 -96.5q26.5 36.5 26.5 100.5q0 65 -26 101t-72 36q-45 0 -71.5 -36t-26.5 -101q0 -64 26.5 -100.5t71.5 -36.5t71.5 36.5z" />
    <glyph glyph-name="uni2081" unicode="&#x2081;" horiz-adv-x="227" 
d="M149 121l-94 -69v46l96 71h41v-329h-43v281z" />
    <glyph glyph-name="uni2082" unicode="&#x2082;" horiz-adv-x="341" 
d="M55 -128l89 80q43 38 59.5 54t26.5 34.5t10 41.5q0 28 -18 43.5t-54 15.5q-23 0 -49.5 -7t-46.5 -21v40q18 12 45.5 18.5t52.5 6.5q54 0 83.5 -26t29.5 -69q0 -28 -11 -49.5t-28.5 -39.5t-54.5 -50l-76 -69h173v-36h-231v33z" />
    </font>
</defs>
</svg>
