<?xml version="1.0" standalone="no"?>
<!DOCTYPE svg PUBLIC "-//W3C//DTD SVG 1.1//EN" "http://www.w3.org/Graphics/SVG/1.1/DTD/svg11.dtd" >
<svg xmlns="http://www.w3.org/2000/svg" xmlns:xlink="http://www.w3.org/1999/xlink" version="1.1">
<metadata>
Created by FontForge 20170731 at Tue May 24 20:51:45 2016
 By Aleksey,,,
Copyright (c) 2015, Cadson Demak (info@cadsondemak.com)
</metadata>
<defs>
<font id="Prompt-ExtraBold" horiz-adv-x="0" >
  <font-face 
    font-family="Prompt ExtraBold"
    font-weight="800"
    font-stretch="normal"
    units-per-em="1000"
    panose-1="0 0 9 0 0 0 0 0 0 0"
    ascent="750"
    descent="-250"
    x-height="480"
    cap-height="699"
    bbox="-687 -409 1432 1104"
    underline-thickness="50"
    underline-position="-150"
    unicode-range="U+000D-FB02"
  />
<missing-glyph horiz-adv-x="493" 
d="M21 714h451v-714h-451v714zM353 103v507h-212v-507h212z" />
    <glyph glyph-name="fi" unicode="fi" horiz-adv-x="682" 
d="M72 358h-67v122h67v58q0 65 29.5 111.5t81 70.5t115.5 24q55 0 96 -18v-140q-28 14 -63 14q-83 0 -83 -77v-43h359v-480h-176v358h-183v-358h-176v358zM451.5 570q-26.5 26 -26.5 66q0 39 27 65.5t66 26.5t66.5 -27t27.5 -65q0 -39 -27.5 -65.5t-66.5 -26.5
q-40 0 -66.5 26z" />
    <glyph glyph-name="fl" unicode="fl" horiz-adv-x="680" 
d="M72 358h-67v122h67v60q0 65 29.5 111t81 69.5t115.5 23.5q55 0 96 -18v-140q-28 14 -63 14q-40 0 -61.5 -18.5t-21.5 -56.5v-45h186v244h176v-724h-176v358h-186v-358h-176v358z" />
    <glyph glyph-name="ru_lakkhangyaothai" unicode="&#xe24;&#xe45;" horiz-adv-x="927" 
d="M427 310q0 84 -87 84q-63 0 -105 -31l36 -62v-125q0 -21 9.5 -30t30.5 -9h44v-137h-156q-62 0 -95.5 35.5t-33.5 97.5v172l-50 89q127 156 321 156q99 0 166 -32q25 13 68 22.5t84 9.5q109 0 168.5 -58t59.5 -164v-524h-200v511q0 37 -15.5 56t-53.5 22q9 -31 9 -68v-521
h-200v506z" />
    <glyph glyph-name="lu_lakkhangyaothai" unicode="&#xe26;&#xe45;" horiz-adv-x="934" 
d="M433 310q0 84 -87 84q-56 0 -100 -30l50 -63v-167q0 -62 -33.5 -98t-95.5 -36h-147v137h38q22 0 29.5 8t7.5 29v131l-70 89q56 74 138.5 115t183.5 41q99 0 166 -32q25 13 68 22.5t84 9.5q109 0 169 -58t60 -164v-524h-201v511q0 37 -15.5 56t-53.5 22q9 -31 9 -68v-521
h-200v506z" />
    <glyph glyph-name=".notdef" horiz-adv-x="493" 
d="M21 714h451v-714h-451v714zM353 103v507h-212v-507h212z" />
    <glyph glyph-name=".null" horiz-adv-x="500" 
 />
    <glyph glyph-name="nonmarkingreturn" unicode="&#xd;" horiz-adv-x="260" 
 />
    <glyph glyph-name="space" unicode=" " horiz-adv-x="320" 
 />
    <glyph glyph-name="exclam" unicode="!" horiz-adv-x="249" 
d="M25 699h200v-458h-200v458zM50 14.5q-30 29.5 -30 73.5t30 73.5t75 29.5q43 0 73.5 -29.5t30.5 -73.5q0 -43 -30.5 -73t-73.5 -30q-45 0 -75 29.5z" />
    <glyph glyph-name="quotedbl" unicode="&#x22;" horiz-adv-x="371" 
d="M20 699h145v-211h-145v211zM206 699h145v-211h-145v211z" />
    <glyph glyph-name="numbersign" unicode="#" horiz-adv-x="783" 
d="M94 127h-74v155h117l29 102h-103v154h146l46 161h182l-46 -161h118l46 161h183l-46 -161h71v-154h-114l-29 -102h99v-155h-142l-36 -127h-183l36 127h-118l-36 -127h-182zM437 282l29 102h-118l-29 -102h118z" />
    <glyph glyph-name="dollar" unicode="$" horiz-adv-x="574" 
d="M211 -13q-56 5 -107 17t-84 30v183q55 -30 115.5 -45t113.5 -15q39 0 56.5 10t17.5 31q0 17 -10.5 29t-32.5 23t-73 33q-97 42 -140.5 93t-43.5 125q0 76 50.5 130.5t137.5 73.5v97h144v-90q83 -7 158 -42v-177q-90 48 -178 48q-39 0 -62 -11.5t-23 -33.5t21.5 -35.5
t81.5 -37.5l19 -7q71 -30 109.5 -59t55.5 -66.5t17 -94.5q0 -82 -49.5 -135.5t-149.5 -68.5v-95h-144v90z" />
    <glyph glyph-name="percent" unicode="%" horiz-adv-x="898" 
d="M111 371.5q-42 24.5 -66.5 66.5t-24.5 92t24.5 92.5t66.5 67t92 24.5t92.5 -24.5t67 -67t24.5 -92.5t-24.5 -92t-67 -66.5t-92.5 -24.5t-92 24.5zM541 699h204l-387 -699h-204zM248 482q18 18 18 45t-18 45.5t-45 18.5t-45 -18.5t-18 -45.5t18 -45t45 -18t45 18zM602 9.5
q-42 24.5 -66.5 66.5t-24.5 92t24.5 92.5t66.5 67t92 24.5t92.5 -24.5t67 -67t24.5 -92.5t-24.5 -92t-67 -66.5t-92.5 -24.5t-92 24.5zM739 120q18 18 18 45t-18 45.5t-45 18.5t-45 -18.5t-18 -45.5t18 -45t45 -18t45 18z" />
    <glyph glyph-name="ampersand" unicode="&#x26;" horiz-adv-x="805" 
d="M91.5 38q-71.5 53 -71.5 147q0 65 28.5 110.5t91.5 85.5q-34 35 -51 71t-17 82q0 52 27 93t78.5 64t121.5 23q67 0 117 -23.5t76.5 -64.5t26.5 -92q0 -57 -24 -95t-78 -77l103 -98q14 31 14 105h171q0 -80 -11 -130t-39 -103l140 -136h-246l-45 41q-36 -29 -90 -42.5
t-132 -13.5q-119 0 -190.5 53zM335.5 485q11.5 15 11.5 35q0 25 -13 37.5t-35 12.5t-34.5 -12.5t-12.5 -37.5q0 -17 10 -32.5t34 -36.5q28 19 39.5 34zM386 152l-112 109q-30 -13 -43.5 -31.5t-13.5 -43.5q0 -31 22 -48t55 -17q60 0 92 31z" />
    <glyph glyph-name="quotesingle" unicode="'" horiz-adv-x="185" 
d="M20 699h145v-211h-145v211z" />
    <glyph glyph-name="parenleft" unicode="(" horiz-adv-x="383" 
d="M20 270q0 260 150 444h213q-152 -195 -152 -444t152 -444h-213q-150 184 -150 444z" />
    <glyph glyph-name="parenright" unicode=")" horiz-adv-x="383" 
d="M152 270q0 249 -152 444h213q150 -184 150 -444t-150 -444h-213q152 195 152 444z" />
    <glyph glyph-name="asterisk" unicode="*" horiz-adv-x="444" 
d="M58 411l70 94l-108 38l45 103l90 -32v85h134v-85l90 33l45 -104l-107 -37l70 -94l-103 -68l-61 85l-61 -86z" />
    <glyph glyph-name="plus" unicode="+" horiz-adv-x="408" 
d="M124 227h-104v155h104v94h159v-94h105v-155h-105v-94h-159v94z" />
    <glyph glyph-name="comma" unicode="," horiz-adv-x="330" 
d="M103 65h207l-108 -215h-182z" />
    <glyph glyph-name="hyphen" unicode="-" horiz-adv-x="408" 
d="M20 384h368v-159h-368v159z" />
    <glyph glyph-name="period" unicode="." horiz-adv-x="179" 
d="M40 19.5q-20 19.5 -20 48.5q0 30 20 50.5t49 20.5t49.5 -20.5t20.5 -50.5q0 -28 -20.5 -48t-49.5 -20t-49 19.5z" />
    <glyph glyph-name="slash" unicode="/" horiz-adv-x="530" 
d="M305 714h205l-285 -714h-205z" />
    <glyph glyph-name="zero" unicode="0" horiz-adv-x="703" 
d="M176.5 28.5q-74.5 43.5 -115.5 125.5t-41 195t40.5 195.5t115 126t175.5 43.5t176 -43.5t115.5 -126t40.5 -195.5t-41 -195t-116 -125.5t-175 -43.5t-174.5 43.5zM441 222.5q31 44.5 31 124.5t-30.5 125.5t-89.5 45.5q-60 0 -90.5 -45.5t-30.5 -125.5t31 -124.5t89 -44.5
q59 0 90 44.5z" />
    <glyph glyph-name="one" unicode="1" horiz-adv-x="406" 
d="M159 477l-139 -100v194l174 128h172v-699h-207v477z" />
    <glyph glyph-name="two" unicode="2" horiz-adv-x="585" 
d="M20 110l97 88q40 36 60 52q56 49 85 76.5t48 56.5t19 57q0 35 -23 56.5t-75 21.5q-48 0 -97.5 -18t-91.5 -50v196q46 32 109.5 50t133.5 18q80 0 138.5 -29t89.5 -79.5t31 -113.5q0 -82 -33 -139.5t-107 -123.5l-75 -67h236v-162h-545v110z" />
    <glyph glyph-name="three" unicode="3" horiz-adv-x="582" 
d="M125 -4q-62 11 -105 35v158q101 -47 205 -47q126 0 126 68q0 35 -29.5 50t-95.5 15h-102v154h97q110 0 110 65q0 31 -26 47t-73 16q-111 0 -200 -56v162q46 24 106 37.5t123 13.5q143 0 212.5 -56t69.5 -156q0 -42 -18.5 -81t-54.5 -69q49 -26 70.5 -64t21.5 -88
q0 -215 -307 -215q-68 0 -130 11z" />
    <glyph glyph-name="four" unicode="4" horiz-adv-x="622" 
d="M314 136h-314v124l328 439h197v-404h97v-159h-97v-136h-211v136zM345 295v158l-117 -158h117z" />
    <glyph glyph-name="five" unicode="5" horiz-adv-x="585" 
d="M120 -1.5q-61 13.5 -100 37.5v176q46 -31 104 -48t109 -17q63 0 91.5 22t28.5 61t-30 59.5t-85 20.5q-33 0 -71.5 -6.5t-66.5 -17.5l-75 43l28 370h467v-162h-271l-7 -86q40 10 89 10q112 0 173 -57.5t61 -167.5q0 -119 -81 -185t-241 -66q-62 0 -123 13.5z" />
    <glyph glyph-name="six" unicode="6" horiz-adv-x="637" 
d="M164 25q-68 40 -106 114t-38 173q0 125 47 216t129 138.5t186 47.5q77 0 137 -20v-171q-47 27 -121 27q-63 0 -107 -32t-55 -93q25 21 67 33.5t87 12.5q103 0 165 -61.5t62 -171.5q0 -72 -33.5 -129t-100 -90.5t-162.5 -33.5q-89 0 -157 40zM384 165q24 24 24 63
q0 38 -24 62.5t-62 24.5q-36 0 -60 -24.5t-24 -62.5q0 -37 23.5 -62t60.5 -25q38 0 62 24z" />
    <glyph glyph-name="seven" unicode="7" horiz-adv-x="533" 
d="M303 537h-293v162h513v-130l-260 -569h-205z" />
    <glyph glyph-name="eight" unicode="8" horiz-adv-x="633" 
d="M100.5 42q-80.5 57 -80.5 161q0 56 24.5 96.5t66.5 61.5q-34 28 -51.5 65t-17.5 81q0 98 74 152.5t201 54.5t200.5 -54.5t73.5 -152.5q0 -44 -17.5 -81.5t-51.5 -64.5q42 -21 66.5 -61.5t24.5 -96.5q0 -104 -80.5 -161t-215.5 -57q-136 0 -216.5 57zM370.5 431.5
q21.5 20.5 21.5 51.5q0 32 -21.5 53t-53.5 21t-53.5 -21t-21.5 -53q0 -31 21.5 -51.5t53.5 -20.5t53.5 20.5zM379 164q24 23 24 60q0 36 -24.5 59.5t-61.5 23.5t-62 -23.5t-25 -59.5q0 -37 24.5 -60t62.5 -23t62 23z" />
    <glyph glyph-name="nine" unicode="9" horiz-adv-x="637" 
d="M117 4v171q50 -27 121 -27q64 0 109 31.5t55 92.5q-24 -20 -63 -32t-83 -12q-69 0 -122.5 28t-83.5 81.5t-30 127.5q0 71 33.5 127.5t100 89t161.5 32.5q146 0 224 -87.5t78 -240.5q0 -128 -47.5 -218.5t-130 -136.5t-185.5 -46q-78 0 -137 19zM377 407q24 24 24 63
q0 37 -24 62t-61 25q-38 0 -62 -24.5t-24 -62.5t24 -62.5t62 -24.5q37 0 61 24z" />
    <glyph glyph-name="colon" unicode=":" horiz-adv-x="232" 
d="M48 340.5q-28 28.5 -28 67.5q0 40 28 68t68 28q39 0 67.5 -28t28.5 -68q0 -39 -28.5 -67.5t-67.5 -28.5q-40 0 -68 28.5zM48 33.5q-28 28.5 -28 67.5q0 40 28 68t68 28q39 0 67.5 -28t28.5 -68q0 -39 -28.5 -67.5t-67.5 -28.5q-40 0 -68 28.5z" />
    <glyph glyph-name="semicolon" unicode=";" horiz-adv-x="330" 
d="M129 340.5q-28 28.5 -28 67.5q0 40 28 68t68 28q39 0 67.5 -28t28.5 -68q0 -39 -28.5 -67.5t-67.5 -28.5q-40 0 -68 28.5zM103 65h207l-108 -215h-182z" />
    <glyph glyph-name="less" unicode="&#x3c;" horiz-adv-x="528" 
d="M20 256v140l488 239v-209l-224 -100l224 -101v-209z" />
    <glyph glyph-name="equal" unicode="=" horiz-adv-x="507" 
d="M20 523h467v-156h-467v156zM20 295h467v-156h-467v156z" />
    <glyph glyph-name="greater" unicode="&#x3e;" horiz-adv-x="528" 
d="M20 225l223 101l-223 100v209l488 -239v-140l-488 -240v209z" />
    <glyph glyph-name="question" unicode="?" horiz-adv-x="529" 
d="M124 260q0 48 18 87t55 65l29 19q33 21 46 34.5t13 31.5q0 45 -84 45q-93 0 -181 -48v176q91 44 214 44q127 0 201 -52t74 -144q0 -50 -22 -82t-74 -68t-70.5 -56.5t-18.5 -53.5v-17h-200v19zM149 14.5q-30 29.5 -30 73.5t30 73.5t74 29.5t74.5 -29.5t30.5 -73.5
q0 -43 -30.5 -73t-74.5 -30t-74 29.5z" />
    <glyph glyph-name="at" unicode="@" horiz-adv-x="902" 
d="M221.5 -33.5q-96.5 42.5 -149 124.5t-52.5 197q0 124 58 220.5t162 151t236 54.5q126 0 217.5 -41.5t140 -120t48.5 -188.5q0 -119 -55 -189t-152 -70q-34 0 -63.5 14t-42.5 37q-24 -24 -62.5 -37.5t-79.5 -13.5q-87 0 -142.5 45t-55.5 136q0 70 30 125.5t86 87t130 31.5
q46 0 96 -11.5t83 -31.5l-13 -235q-1 -23 6.5 -34.5t22.5 -11.5q28 0 42.5 43.5t14.5 114.5q0 112 -62 164t-190 52q-85 0 -153.5 -34.5t-108 -100.5t-39.5 -157q0 -115 71 -174.5t202 -59.5q98 0 171 24v-127q-75 -27 -171 -27q-129 0 -225.5 42.5zM498 283l7 117
q-12 5 -34 5q-35 0 -57.5 -30.5t-22.5 -78.5q0 -35 12.5 -52.5t36.5 -17.5q56 0 58 57z" />
    <glyph glyph-name="A" unicode="A" horiz-adv-x="798" 
d="M300 699h199l279 -699h-212l-52 133h-229l-53 -133h-212zM466 290l-67 196l-67 -196h134z" />
    <glyph glyph-name="B" unicode="B" horiz-adv-x="672" 
d="M40 699h365q102 0 163.5 -50.5t61.5 -144.5q0 -42 -18.5 -79t-53.5 -60q49 -22 71.5 -58t22.5 -94q0 -65 -31 -113.5t-83.5 -74t-116.5 -25.5h-381v699zM351 428q34 0 51.5 15t17.5 48q0 34 -17 47.5t-53 13.5h-103v-124h104zM363 147q41 0 60 15t19 52q0 36 -19.5 53
t-61.5 17h-114v-137h116z" />
    <glyph glyph-name="C" unicode="C" horiz-adv-x="676" 
d="M201 29q-87 44 -134 126t-47 194t47 194.5t134 126.5t203 44q75 0 134 -14t110 -45v-191q-44 34 -99 49t-127 15q-94 0 -142.5 -45t-48.5 -134t50 -134.5t141 -45.5q71 0 127.5 16t106.5 51v-190q-97 -61 -252 -61q-116 0 -203 44z" />
    <glyph glyph-name="D" unicode="D" horiz-adv-x="703" 
d="M40 699h259q116 0 202.5 -42t134 -120.5t47.5 -183.5q0 -174 -103 -263.5t-283 -89.5h-257v699zM312 174q77 0 118.5 48t41.5 131q0 74 -42 123t-115 49h-68v-351h65z" />
    <glyph glyph-name="E" unicode="E" horiz-adv-x="557" 
d="M40 699h507v-174h-300v-96h216v-159h-216v-96h300v-174h-507v699z" />
    <glyph glyph-name="F" unicode="F" horiz-adv-x="547" 
d="M40 699h507v-174h-300v-96h216v-159h-216v-270h-207v699z" />
    <glyph glyph-name="G" unicode="G" horiz-adv-x="691" 
d="M201 29q-87 44 -134 126t-47 194t47 194.5t134 126.5t203 44q156 0 244 -58v-191q-44 33 -99 48t-127 15q-94 0 -142.5 -47t-48.5 -132q0 -89 46.5 -134.5t134.5 -45.5q43 0 70 12v89h-96v131h285v-350q-106 -66 -267 -66q-116 0 -203 44z" />
    <glyph glyph-name="H" unicode="H" horiz-adv-x="727" 
d="M40 699h207v-257h233v257h207v-699h-207v268h-233v-268h-207v699z" />
    <glyph glyph-name="I" unicode="I" horiz-adv-x="287" 
d="M40 699h207v-699h-207v699z" />
    <glyph glyph-name="J" unicode="J" horiz-adv-x="398" 
d="M56.5 -7.5q-38.5 7.5 -56.5 17.5v178q34 -16 82 -16q41 0 57.5 17t16.5 57v453h207v-477q0 -108 -59.5 -172.5t-174.5 -64.5q-34 0 -72.5 7.5z" />
    <glyph glyph-name="K" unicode="K" horiz-adv-x="745" 
d="M40 699h207v-271l215 271h244l-269 -339l288 -360h-244l-234 292v-292h-207v699z" />
    <glyph glyph-name="L" unicode="L" horiz-adv-x="529" 
d="M40 699h207v-525h282v-174h-489v699z" />
    <glyph glyph-name="M" unicode="M" horiz-adv-x="838" 
d="M40 699h189l190 -411l190 411h189v-699h-193v310l-143 -310h-86l-143 310v-310h-193v699z" />
    <glyph glyph-name="N" unicode="N" horiz-adv-x="706" 
d="M40 699h201l218 -366v366h207v-699h-200l-219 366v-366h-207v699z" />
    <glyph glyph-name="O" unicode="O" horiz-adv-x="794" 
d="M205.5 31q-86.5 46 -136 128.5t-49.5 189.5t49.5 190t136 129t192.5 46t191.5 -46t135 -129t49.5 -190t-49.5 -189.5t-135 -128.5t-191.5 -46t-192.5 46zM481.5 199.5q37.5 20.5 59.5 59t22 90.5q0 77 -47 123t-118 46q-72 0 -119.5 -46t-47.5 -123q0 -52 22 -90.5
t60 -59t85 -20.5q46 0 83.5 20.5z" />
    <glyph glyph-name="P" unicode="P" horiz-adv-x="647" 
d="M40 699h322q126 0 200.5 -64.5t74.5 -184.5t-74.5 -185t-200.5 -65h-115v-200h-207v699zM323 364q48 0 75 19t27 67q0 47 -27 66t-75 19h-76v-171h76z" />
    <glyph glyph-name="Q" unicode="Q" horiz-adv-x="799" 
d="M211 42q-91 42 -141 121t-50 186t49.5 190t136 129t192.5 46t191.5 -46t135 -129t49.5 -190q0 -54 -25 -107.5t-62 -86.5h107v-155h-371q-121 0 -212 42zM481.5 199.5q37.5 20.5 59.5 59t22 90.5q0 77 -47 123t-118 46q-72 0 -119.5 -46t-47.5 -123q0 -52 22 -90.5
t60 -59t85 -20.5q46 0 83.5 20.5z" />
    <glyph glyph-name="R" unicode="R" horiz-adv-x="657" 
d="M40 699h325q126 0 199 -63.5t73 -183.5q0 -78 -32.5 -133t-92.5 -84l117 -235h-212l-102 205h-68v-205h-207v699zM324 369q48 0 74.5 18.5t26.5 64.5t-26.5 64.5t-74.5 18.5h-77v-166h77z" />
    <glyph glyph-name="S" unicode="S" horiz-adv-x="574" 
d="M130 -1.5q-68 13.5 -110 35.5v183q55 -30 115.5 -45t113.5 -15q77 0 77 41q0 17 -11.5 29.5t-34.5 24t-73 33.5q-97 42 -140.5 92t-43.5 124q0 62 34.5 110.5t96.5 75.5t143 27q66 0 117 -10.5t99 -33.5v-177q-87 48 -178 48q-40 0 -64 -11.5t-24 -33.5t21.5 -35.5
t81.5 -37.5l22 -9q71 -29 109.5 -57.5t55.5 -66t17 -94.5q0 -99 -72 -155t-217 -56q-67 0 -135 13.5z" />
    <glyph glyph-name="T" unicode="T" horiz-adv-x="593" 
d="M193 525h-188v174h583v-174h-188v-525h-207v525z" />
    <glyph glyph-name="U" unicode="U" horiz-adv-x="724" 
d="M179 26q-73 41 -108.5 113t-35.5 165v395h207v-393q0 -64 30.5 -97t89.5 -33t89.5 33t30.5 97v393h207v-395q0 -93 -35.5 -165t-108.5 -113t-183 -41t-183 41z" />
    <glyph glyph-name="V" unicode="V" horiz-adv-x="798" 
d="M20 699h221l158 -421l159 421h220l-279 -699h-199z" />
    <glyph glyph-name="W" unicode="W" horiz-adv-x="990" 
d="M20 699h214l97 -366l93 366h150l85 -367l96 367h215l-186 -699h-194l-95 371l-95 -371h-194z" />
    <glyph glyph-name="X" unicode="X" horiz-adv-x="782" 
d="M273 351l-250 348h237l131 -183l132 183h237l-250 -348l252 -351h-237l-134 186l-134 -186h-237z" />
    <glyph glyph-name="Y" unicode="Y" horiz-adv-x="766" 
d="M275 266l-255 433h221l138 -241l147 241h220l-264 -433v-266h-207v266z" />
    <glyph glyph-name="Z" unicode="Z" horiz-adv-x="611" 
d="M20 136l292 389h-285v174h541v-137l-291 -388h314v-174h-571v136z" />
    <glyph glyph-name="bracketleft" unicode="[" horiz-adv-x="350" 
d="M20 787h320v-174h-113v-535h113v-174h-320v883z" />
    <glyph glyph-name="backslash" unicode="\" horiz-adv-x="530" 
d="M20 714h205l285 -714h-205z" />
    <glyph glyph-name="bracketright" unicode="]" horiz-adv-x="350" 
d="M10 78h113v535h-113v174h320v-883h-320v174z" />
    <glyph glyph-name="asciicircum" unicode="^" horiz-adv-x="600" 
d="M220 719h160l200 -342h-191l-89 160l-89 -160h-191z" />
    <glyph glyph-name="underscore" unicode="_" horiz-adv-x="479" 
d="M20 0h439v-162h-439v162z" />
    <glyph glyph-name="grave" unicode="`" horiz-adv-x="309" 
d="M20 746h201l68 -180h-176z" />
    <glyph glyph-name="a" unicode="a" horiz-adv-x="606" 
d="M75.5 27.5q-55.5 42.5 -55.5 121.5q0 81 54 123.5t157 42.5q37 0 75 -8t64 -20v9q0 33 -32.5 50t-90.5 17q-87 0 -160 -35v132q33 16 86 25.5t113 9.5q139 0 212 -53t73 -150v-292h-189v38q-24 -24 -66 -38.5t-93 -14.5q-92 0 -147.5 42.5zM335 111q23 10 35 26v37
q-37 24 -84 24q-28 0 -43.5 -13t-15.5 -36q0 -22 15 -35t43 -13q27 0 50 10z" />
    <glyph glyph-name="b" unicode="b" horiz-adv-x="669" 
d="M304.5 0q-41.5 15 -71.5 44v-44h-193v739h200v-294q27 23 68 36.5t86 13.5q76 0 134 -32t89.5 -90.5t31.5 -133.5q0 -76 -31.5 -133.5t-89.5 -89t-134 -31.5q-48 0 -89.5 15zM414.5 166q27.5 26 27.5 73t-27.5 73.5t-74.5 26.5q-34 0 -60.5 -16t-39.5 -44v-79
q13 -28 39.5 -44t60.5 -16q47 0 74.5 26z" />
    <glyph glyph-name="c" unicode="c" horiz-adv-x="539" 
d="M97.5 50.5q-77.5 65.5 -77.5 188.5q0 124 77.5 190t211.5 66q60 0 115 -11.5t89 -32.5v-155q-30 22 -71.5 33.5t-86.5 11.5q-58 0 -93 -25.5t-35 -76.5t34.5 -76t92.5 -25q45 0 87.5 12t77.5 35v-154q-36 -22 -91 -34t-120 -12q-133 0 -210.5 65.5z" />
    <glyph glyph-name="d" unicode="d" horiz-adv-x="669" 
d="M141 16.5q-58 31.5 -89.5 89t-31.5 133.5q0 75 31.5 133.5t89.5 90.5t134 32q46 0 86.5 -13.5t67.5 -36.5v294h200v-739h-193v44q-30 -29 -71.5 -44t-89.5 -15q-76 0 -134 31.5zM389.5 156q26.5 16 39.5 44v79q-13 28 -39.5 44t-60.5 16q-47 0 -74.5 -26.5t-27.5 -73.5
t27.5 -73t74.5 -26q34 0 60.5 16z" />
    <glyph glyph-name="e" unicode="e" horiz-adv-x="600" 
d="M101 51q-81 66 -81 187q0 119 73 188t210 69q88 0 150.5 -32.5t94.5 -89.5t32 -128v-65h-370q24 -64 145 -64q48 0 98.5 7.5t85.5 21.5v-125q-38 -16 -95 -25.5t-117 -9.5q-145 0 -226 66zM391 296q-5 32 -28 49.5t-63 17.5t-62.5 -18t-27.5 -49h181z" />
    <glyph glyph-name="f" unicode="f" horiz-adv-x="384" 
d="M72 358h-67v122h67v60q0 97 61.5 150.5t159.5 53.5q55 0 96 -18v-140q-28 14 -63 14q-40 0 -59 -18t-19 -57v-45h111v-122h-111v-358h-176v358z" />
    <glyph glyph-name="g" unicode="g" horiz-adv-x="669" 
d="M207.5 -221q-49.5 9 -85.5 24v133q79 -34 182 -34q65 0 95 26.5t30 77.5v28q-27 -22 -67.5 -35.5t-85.5 -13.5q-76 0 -134.5 32t-90 90t-31.5 133q0 76 31.5 134t89.5 89.5t134 31.5q47 0 89 -15.5t72 -43.5v44h193v-445q0 -126 -79 -195.5t-246 -69.5q-47 0 -96.5 9z
M389.5 156.5q26.5 16.5 39.5 44.5v78q-13 28 -39.5 44t-60.5 16q-47 0 -74.5 -26t-27.5 -72q0 -48 27.5 -74.5t74.5 -26.5q34 0 60.5 16.5z" />
    <glyph glyph-name="h" unicode="h" horiz-adv-x="629" 
d="M40 739h200v-302q66 58 154 58q103 0 151.5 -52.5t48.5 -144.5v-298h-201v270q0 34 -14.5 51.5t-46.5 17.5q-60 0 -92 -54v-285h-200v739z" />
    <glyph glyph-name="i" unicode="i" horiz-adv-x="290" 
d="M70 563q-30 29 -30 74q0 44 30 73.5t75 29.5q44 0 74.5 -30t30.5 -73q0 -44 -30.5 -73.5t-74.5 -29.5q-45 0 -75 29zM45 480h200v-480h-200v480z" />
    <glyph glyph-name="j" unicode="j" horiz-adv-x="288" 
d="M68 563q-30 29 -30 74q0 43 30.5 73t74.5 30t74.5 -30t30.5 -73q0 -44 -30.5 -73.5t-74.5 -29.5q-45 0 -75 29zM-95 -212v159q30 -15 71 -15q31 0 49 16.5t18 50.5v481h201v-506q0 -101 -65.5 -153t-171.5 -52q-62 0 -102 19z" />
    <glyph glyph-name="k" unicode="k" horiz-adv-x="658" 
d="M40 739h200v-443l142 184h229l-179 -231l206 -249h-229l-169 204v-204h-200v739z" />
    <glyph glyph-name="l" unicode="l" horiz-adv-x="280" 
d="M40 739h200v-739h-200v739z" />
    <glyph glyph-name="m" unicode="m" horiz-adv-x="879" 
d="M40 480h185v-46q28 29 65.5 45t81.5 16q53 0 84.5 -14.5t53.5 -44.5q30 28 71.5 43.5t84.5 15.5q97 0 137.5 -49.5t40.5 -143.5v-302h-191v273q0 35 -12.5 50.5t-42.5 15.5q-34 0 -55 -21v-318h-191v282q0 30 -11 43.5t-38 13.5q-43 0 -71 -47v-292h-192v480z" />
    <glyph glyph-name="n" unicode="n" horiz-adv-x="629" 
d="M40 480h193v-47q31 30 73 46t88 16q103 0 151.5 -52.5t48.5 -144.5v-298h-201v270q0 34 -14.5 51.5t-46.5 17.5q-60 0 -92 -54v-285h-200v480z" />
    <glyph glyph-name="o" unicode="o" horiz-adv-x="647" 
d="M162.5 17.5q-68.5 32.5 -105.5 90.5t-37 132q0 73 37 131t105.5 91t160.5 33t161 -33t106 -91t37 -131q0 -74 -37 -132t-106 -90.5t-161 -32.5t-160.5 32.5zM395 167q27 27 27 73t-27 72.5t-72 26.5t-71.5 -26.5t-26.5 -72.5t26.5 -73t71.5 -27t72 27z" />
    <glyph glyph-name="p" unicode="p" horiz-adv-x="669" 
d="M40 480h193v-44q30 28 72 43.5t89 15.5q76 0 134 -31.5t89.5 -89.5t31.5 -134q0 -75 -31.5 -133t-89.5 -90t-134 -32q-45 0 -86 13.5t-68 35.5v-253h-200v699zM414.5 166.5q27.5 26.5 27.5 74.5q0 47 -27.5 73t-74.5 26q-34 0 -60.5 -16.5t-39.5 -44.5v-78
q13 -28 39.5 -44.5t60.5 -16.5q47 0 74.5 26.5z" />
    <glyph glyph-name="q" unicode="q" horiz-adv-x="669" 
d="M429 34q-27 -22 -68 -35.5t-86 -13.5q-76 0 -134 32t-89.5 90t-31.5 133q0 76 31.5 134t89.5 89.5t134 31.5q47 0 89 -15.5t72 -43.5v44h193v-699h-200v253zM389.5 156.5q26.5 16.5 39.5 44.5v78q-13 28 -39.5 44.5t-60.5 16.5q-47 0 -74.5 -26t-27.5 -73
q0 -48 27.5 -74.5t74.5 -26.5q34 0 60.5 16.5z" />
    <glyph glyph-name="r" unicode="r" horiz-adv-x="419" 
d="M40 480h193v-52q28 29 77.5 46t108.5 17v-155q-63 0 -112 -17t-67 -50v-269h-200v480z" />
    <glyph glyph-name="s" unicode="s" horiz-adv-x="518" 
d="M130.5 -4q-65.5 11 -103.5 32v141q41 -24 100.5 -40.5t107.5 -16.5q29 0 42 3.5t13 14.5q0 10 -12.5 15t-46.5 14l-46 13q-61 18 -96.5 38.5t-52 50t-16.5 74.5q0 81 64 120.5t175 39.5q53 0 114.5 -11.5t91.5 -30.5v-139q-31 20 -83 34.5t-95 14.5q-59 0 -59 -20
q0 -9 14.5 -15t50.5 -14l42 -10q65 -17 100 -39t49 -51.5t14 -73.5q0 -71 -62.5 -113t-179.5 -42q-60 0 -125.5 11z" />
    <glyph glyph-name="t" unicode="t" horiz-adv-x="395" 
d="M114 37q-48 52 -48 141v167h-66v135h66v144h201v-144h107v-135h-107v-138q0 -36 13.5 -51.5t45.5 -15.5q36 0 69 19v-148q-29 -13 -60.5 -19.5t-79.5 -6.5q-93 0 -141 52z" />
    <glyph glyph-name="u" unicode="u" horiz-adv-x="629" 
d="M85 41q-50 56 -50 148v291h200v-267q0 -73 64 -73q29 0 52 14t37 40v286h201v-480h-194v46q-30 -30 -72 -45.5t-88 -15.5q-100 0 -150 56z" />
    <glyph glyph-name="v" unicode="v" horiz-adv-x="636" 
d="M20 480h200l98 -252l98 252h200l-202 -480h-192z" />
    <glyph glyph-name="w" unicode="w" horiz-adv-x="867" 
d="M20 480h200l67 -250l67 250h159l67 -250l67 250h200l-162 -480h-180l-72 242l-71 -242h-180z" />
    <glyph glyph-name="x" unicode="x" horiz-adv-x="680" 
d="M226 248l-194 232h227l80 -97l81 97h227l-194 -232l207 -248h-225l-95 113l-95 -113h-225z" />
    <glyph glyph-name="y" unicode="y" horiz-adv-x="642" 
d="M131 -193q-38 5 -56 14v148q31 -12 68 -12q32 0 49 13.5t27 40.5l9 23l-208 446h200l114 -293l107 293h201l-192 -491q-38 -96 -96 -141.5t-150 -45.5q-35 0 -73 5z" />
    <glyph glyph-name="z" unicode="z" horiz-adv-x="531" 
d="M20 104l214 241h-209v135h478v-104l-212 -241h220v-135h-491v104z" />
    <glyph glyph-name="braceleft" unicode="{" horiz-adv-x="369" 
d="M109.5 -66.5q-29.5 30.5 -29.5 90.5v179q0 25 -13 39.5t-36 14.5h-31v176h31q24 0 36.5 14.5t12.5 38.5v179q0 61 29.5 91.5t81.5 30.5h168v-174h-39q-18 0 -25.5 -8t-7.5 -26v-127q0 -41 -18 -68t-53 -38v-2q71 -25 71 -106v-127q0 -18 7.5 -26t25.5 -8h39v-174h-168
q-52 0 -81.5 30.5z" />
    <glyph glyph-name="bar" unicode="|" horiz-adv-x="247" 
d="M20 812h207v-956h-207v956z" />
    <glyph glyph-name="braceright" unicode="}" horiz-adv-x="369" 
d="M10 77h38q19 0 26.5 8t7.5 26v127q0 40 18 67t52 39v2q-34 11 -52 38t-18 68v127q0 18 -8 26t-26 8h-38v174h168q51 0 81 -30.5t30 -91.5v-179q0 -24 12.5 -38.5t35.5 -14.5h32v-176h-32q-23 0 -35.5 -14.5t-12.5 -39.5v-179q0 -60 -30 -90.5t-81 -30.5h-168v174z" />
    <glyph glyph-name="asciitilde" unicode="~" horiz-adv-x="503" 
d="M316.5 233q-26.5 7 -71.5 22q-39 13 -64 19.5t-47 6.5q-68 0 -114 -53v173q38 44 114 44q25 0 52 -7t69 -21q37 -13 64 -20t50 -7q69 0 114 54v-173q-37 -45 -114 -45q-26 0 -52.5 7z" />
    <glyph glyph-name="uni00A0" unicode="&#xa0;" horiz-adv-x="320" 
 />
    <glyph glyph-name="exclamdown" unicode="&#xa1;" horiz-adv-x="249" 
d="M50 373q-30 29 -30 74q0 43 30 73t75 30q43 0 73.5 -30t30.5 -73q0 -44 -30.5 -73.5t-73.5 -29.5q-45 0 -75 29zM25 294h200v-458h-200v458z" />
    <glyph glyph-name="cent" unicode="&#xa2;" horiz-adv-x="539" 
d="M244 -10q-106 15 -165 78.5t-59 170.5t59 171.5t165 79.5v91h142v-91q79 -11 127 -39v-155q-31 23 -72.5 34.5t-85.5 11.5q-58 0 -93 -26t-35 -77q0 -52 35 -77t92 -25q44 0 87 12.5t78 35.5v-154q-50 -30 -133 -41v-91h-142v91z" />
    <glyph glyph-name="sterling" unicode="&#xa3;" horiz-adv-x="483" 
d="M25 149h69v149h-66v139h66v68q0 66 30.5 113.5t83.5 71.5t118 24q56 0 97 -18v-140q-30 14 -64 14q-41 0 -64.5 -20.5t-23.5 -59.5v-53h136v-139h-136v-149h187v-149h-433v149z" />
    <glyph glyph-name="currency" unicode="&#xa4;" horiz-adv-x="610" 
d="M20 126l84 62q-23 43 -23 92q0 47 23 93l-83 62l81 100l91 -72q49 29 112 29q64 0 113 -29l90 71l81 -99l-83 -62q23 -43 23 -93q0 -52 -23 -92l84 -63l-82 -101l-91 71q-50 -28 -112 -28q-61 0 -111 28l-92 -71zM360 225.5q23 22.5 23 54.5t-23 55t-55 23t-54.5 -23
t-22.5 -55t22.5 -54.5t54.5 -22.5t55 22.5z" />
    <glyph glyph-name="yen" unicode="&#xa5;" horiz-adv-x="766" 
d="M275 65h-120v129h120v35h-120v128h66l-201 342h221l138 -241l147 241h220l-209 -342h65v-128h-120v-35h120v-129h-120v-65h-207v65z" />
    <glyph glyph-name="brokenbar" unicode="&#xa6;" horiz-adv-x="247" 
d="M20 812h207v-408h-207v408zM20 263h207v-407h-207v407z" />
    <glyph glyph-name="section" unicode="&#xa7;" horiz-adv-x="574" 
d="M130 -156.5q-68 13.5 -110 35.5v183q55 -30 115.5 -45t113.5 -15q39 0 56.5 10t17.5 31q0 17 -10.5 29t-32.5 23t-73 33q-97 42 -140.5 93t-43.5 125q0 45 23 77q-23 33 -23 78q0 62 34.5 110.5t96.5 75.5t143 27q66 0 117 -10.5t99 -33.5v-177q-87 48 -178 48
q-39 0 -62 -11.5t-23 -33.5t24.5 -36.5t97.5 -44.5q71 -29 109.5 -58t55.5 -66.5t17 -94.5q0 -37 -20 -74q20 -37 20 -81q0 -99 -72 -155t-217 -56q-67 0 -135 13.5zM366 235q0 23 -15 35.5t-56 27.5q-43 17 -68 36q-3 -10 -3 -20q0 -22 15.5 -35t55.5 -29q27 -10 42 -17.5
t26 -16.5q3 8 3 19z" />
    <glyph glyph-name="dieresis" unicode="&#xa8;" horiz-adv-x="439" 
d="M44.5 589.5q-24.5 23.5 -24.5 57.5t24.5 58.5t58.5 24.5t57.5 -24t23.5 -59q0 -34 -23.5 -57.5t-57.5 -23.5t-58.5 23.5zM279.5 589.5q-24.5 23.5 -24.5 57.5t24.5 58.5t58.5 24.5q33 0 57 -24.5t24 -58.5t-24 -57.5t-57 -23.5q-34 0 -58.5 23.5z" />
    <glyph glyph-name="copyright" unicode="&#xa9;" horiz-adv-x="788" 
d="M206 31q-86 46 -136 129t-50 189q0 107 50 190t136 129t188 46t188 -46t136 -129t50 -190q0 -106 -50 -189t-136 -129t-188 -46t-188 46zM522 130.5q56 28.5 87.5 84.5t31.5 134t-31.5 133.5t-87 84t-128.5 28.5t-128.5 -28.5t-87 -84t-31.5 -133.5t31.5 -134t87.5 -84.5
t128 -28.5t128 28.5zM240 196q-56 53 -56 152t56.5 152t154.5 53t156 -35v-121q-49 36 -119 36q-41 0 -64.5 -21.5t-23.5 -63.5t23.5 -63.5t63.5 -21.5q70 0 125 39v-122q-66 -37 -162 -37q-98 0 -154 53z" />
    <glyph glyph-name="ordfeminine" unicode="&#xaa;" horiz-adv-x="434" 
d="M60 379.5q-40 30.5 -40 86.5q0 58 38.5 88.5t113.5 30.5q25 0 52 -5.5t47 -14.5v7q0 23 -23.5 35t-64.5 12q-63 0 -115 -25v94q23 12 61 19t82 7q99 0 151 -38t52 -107v-209h-135v27q-17 -17 -47 -27.5t-66 -10.5q-66 0 -106 30.5zM245.5 439q16.5 7 25.5 19v27
q-27 16 -61 16q-42 0 -42 -35q0 -16 11 -25t31 -9q19 0 35.5 7z" />
    <glyph glyph-name="guillemotleft" unicode="&#xab;" horiz-adv-x="718" 
d="M20 306v40l251 231l116 -110l-155 -141l155 -141l-116 -110zM331 306v40l251 231l116 -110l-155 -141l155 -141l-116 -110z" />
    <glyph glyph-name="logicalnot" unicode="&#xac;" horiz-adv-x="452" 
d="M259 237h-239v147h412v-260h-173v113z" />
    <glyph glyph-name="uni00AD" unicode="&#xad;" horiz-adv-x="408" 
d="M20 384h368v-159h-368v159z" />
    <glyph glyph-name="registered" unicode="&#xae;" horiz-adv-x="788" 
d="M206 31q-86 46 -136 129t-50 189q0 107 50 190t136 129t188 46t188 -46t136 -129t50 -190q0 -106 -50 -189t-136 -129t-188 -46t-188 46zM522 130.5q56 28.5 87.5 84.5t31.5 134t-31.5 133.5t-87 84t-128.5 28.5t-128.5 -28.5t-87 -84t-31.5 -133.5t31.5 -134t87.5 -84.5
t128 -28.5t128 28.5zM239 542h180q69 0 109.5 -35t40.5 -101q0 -43 -17 -73.5t-49 -46.5l58 -120h-120l-50 103h-31v-103h-121v376zM400 365q49 0 49 41q0 40 -49 40h-40v-81h40z" />
    <glyph glyph-name="macron" unicode="&#xaf;" horiz-adv-x="396" 
d="M20 692h356v-118h-356v118z" />
    <glyph glyph-name="degree" unicode="&#xb0;" horiz-adv-x="328" 
d="M92 458.5q-33 19.5 -52.5 52.5t-19.5 72t19.5 72t52.5 52.5t72 19.5t72 -19.5t52.5 -52.5t19.5 -72t-19.5 -72t-52.5 -52.5t-72 -19.5t-72 19.5zM195 551.5q13 13.5 13 31.5t-13 31t-31 13t-31 -13t-13 -31t13 -31.5t31 -13.5t31 13.5z" />
    <glyph glyph-name="plusminus" unicode="&#xb1;" horiz-adv-x="408" 
d="M124 294h-104v155h104v94h159v-94h105v-155h-105v-94h-159v94zM20 155h368v-155h-368v155z" />
    <glyph glyph-name="uni00B2" unicode="&#xb2;" horiz-adv-x="342" 
d="M20 442q81 52 114 78.5t33 47.5q0 14 -10 20.5t-32 6.5q-25 0 -50 -9t-44 -24v115q21 14 60 23t76 9q72 0 110 -32.5t38 -78.5q0 -38 -22.5 -65.5t-77.5 -66.5h107v-96h-302v72z" />
    <glyph glyph-name="uni00B3" unicode="&#xb3;" horiz-adv-x="345" 
d="M82 365.5q-38 5.5 -62 16.5v89q45 -23 95 -23q54 0 54 27q0 14 -12.5 19.5t-43.5 5.5h-43v70h42q48 0 48 24q0 26 -47 26t-88 -26v90q23 11 61.5 18t75.5 7q71 0 112.5 -27.5t41.5 -74.5q0 -44 -34 -72q43 -21 43 -72q0 -47 -43 -75t-122 -28q-40 0 -78 5.5z" />
    <glyph glyph-name="acute" unicode="&#xb4;" horiz-adv-x="309" 
d="M88 746h201l-93 -180h-176z" />
    <glyph glyph-name="paragraph" unicode="&#xb6;" horiz-adv-x="788" 
d="M293 261h-25q-112 0 -180 64t-68 184q0 82 36 139t99 85.5t144 28.5h469v-896h-206v734h-63v-734h-206v395z" />
    <glyph glyph-name="periodcentered" unicode="&#xb7;" horiz-adv-x="179" 
d="M40 248q-20 20 -20 49t20 50t49 21t49.5 -21t20.5 -50t-20.5 -49t-49.5 -20t-49 20z" />
    <glyph glyph-name="cedilla" unicode="&#xb8;" horiz-adv-x="347" 
d="M40 -233v80q12 -7 30.5 -11t35.5 -4q32 0 48 8t16 29q0 24 -23 34t-79 10l33 87h131l-18 -46q44 -6 68.5 -31t24.5 -62q0 -50 -40.5 -79.5t-117.5 -29.5q-71 0 -109 15z" />
    <glyph glyph-name="uni00B9" unicode="&#xb9;" horiz-adv-x="233" 
d="M89 558l-69 -49v127l85 63h128v-329h-144v188z" />
    <glyph glyph-name="ordmasculine" unicode="&#xba;" horiz-adv-x="475" 
d="M122.5 371.5q-49.5 23.5 -76 65t-26.5 94.5q0 52 26.5 94t76 65.5t115.5 23.5q65 0 114.5 -23.5t76 -65.5t26.5 -94q0 -53 -26.5 -94.5t-76 -65t-114.5 -23.5q-66 0 -115.5 23.5zM289 479.5q19 19.5 19 51.5q0 33 -19 52t-51 19t-51.5 -19t-19.5 -52q0 -32 19.5 -51.5
t51.5 -19.5t51 19.5z" />
    <glyph glyph-name="guillemotright" unicode="&#xbb;" horiz-adv-x="718" 
d="M20 185l155 141l-155 141l115 110l252 -231v-40l-252 -231zM331 185l155 141l-155 141l115 110l252 -231v-40l-252 -231z" />
    <glyph glyph-name="onequarter" unicode="&#xbc;" horiz-adv-x="790" 
d="M89 558l-69 -49v127l85 63h128v-329h-144v188zM481 699h204l-387 -699h-204zM582 53h-142v88l135 188h151v-181h44v-95h-44v-53h-144v53zM626 148v78l-61 -78h61z" />
    <glyph glyph-name="onehalf" unicode="&#xbd;" horiz-adv-x="813" 
d="M89 558l-69 -49v127l85 63h128v-329h-144v188zM481 699h204l-387 -699h-204zM491 72q80 51 113 78t33 48q0 14 -10 20.5t-32 6.5q-25 0 -49.5 -9t-43.5 -24v115q21 14 60 23t76 9q71 0 109 -32.5t38 -78.5q0 -38 -22.5 -65.5t-77.5 -66.5h108v-96h-302v72z" />
    <glyph glyph-name="threequarters" unicode="&#xbe;" horiz-adv-x="805" 
d="M82 365.5q-38 5.5 -62 16.5v89q45 -23 95 -23q54 0 54 27q0 14 -12.5 19.5t-43.5 5.5h-43v70h42q48 0 48 24q0 26 -47 26t-88 -26v90q23 11 61.5 18t75.5 7q71 0 112.5 -27.5t41.5 -74.5q0 -44 -34 -72q43 -21 43 -72q0 -47 -43 -75t-122 -28q-40 0 -78 5.5zM500 699h205
l-387 -699h-205zM597 53h-142v88l135 188h151v-181h44v-95h-44v-53h-144v53zM641 148v78l-61 -78h61z" />
    <glyph glyph-name="questiondown" unicode="&#xbf;" horiz-adv-x="529" 
d="M230.5 373.5q-30.5 29.5 -30.5 73.5q0 43 30.5 73t74.5 30q45 0 75 -29.5t30 -73.5q0 -45 -30 -74t-75 -29q-44 0 -74.5 29.5zM94 -127.5q-74 51.5 -74 143.5q0 51 21.5 82.5t74.5 67.5q51 36 69.5 57t18.5 53v18h201v-20q0 -48 -18.5 -86.5t-54.5 -64.5l-30 -20
q-32 -22 -45 -35t-13 -31q0 -44 84 -44q91 0 181 48v-177q-94 -43 -214 -43q-127 0 -201 51.5z" />
    <glyph glyph-name="Agrave" unicode="&#xc0;" horiz-adv-x="798" 
d="M213 917h201l69 -180h-177zM300 699h199l279 -699h-212l-52 133h-229l-53 -133h-212zM466 290l-67 196l-67 -196h134z" />
    <glyph glyph-name="Aacute" unicode="&#xc1;" horiz-adv-x="798" 
d="M389 917h201l-93 -180h-177zM300 699h199l279 -699h-212l-52 133h-229l-53 -133h-212zM466 290l-67 196l-67 -196h134z" />
    <glyph glyph-name="Acircumflex" unicode="&#xc2;" horiz-adv-x="798" 
d="M317 920h165l148 -172h-172l-58 71l-58 -71h-173zM300 699h199l279 -699h-212l-52 133h-229l-53 -133h-212zM466 290l-67 196l-67 -196h134z" />
    <glyph glyph-name="Atilde" unicode="&#xc3;" horiz-adv-x="798" 
d="M191 883q35 41 107 41q22 0 44.5 -6t58.5 -19q31 -12 53.5 -18.5t44.5 -6.5q65 0 107 49v-140q-34 -41 -107 -41q-25 0 -49.5 6.5t-57.5 19.5q-33 12 -53 18t-41 6q-64 0 -107 -50v141zM300 699h199l279 -699h-212l-52 133h-229l-53 -133h-212zM466 290l-67 196l-67 -196
h134z" />
    <glyph glyph-name="Adieresis" unicode="&#xc4;" horiz-adv-x="798" 
d="M223.5 765.5q-24.5 23.5 -24.5 57.5t25 58.5t58 24.5q34 0 58 -24.5t24 -58.5t-24 -57.5t-58 -23.5t-58.5 23.5zM459.5 765.5q-24.5 23.5 -24.5 57.5t24.5 58.5t58.5 24.5q33 0 57 -24.5t24 -58.5t-24 -57.5t-57 -23.5q-34 0 -58.5 23.5zM300 699h199l279 -699h-212
l-52 133h-229l-53 -133h-212zM466 290l-67 196l-67 -196h134z" />
    <glyph glyph-name="Aring" unicode="&#xc5;" horiz-adv-x="798" 
d="M778 0h-212l-52 133h-229l-53 -133h-212l269 673q-18 19 -28.5 44.5t-10.5 54.5q0 41 20 74.5t54.5 53t74.5 19.5q41 0 75.5 -19.5t54.5 -53t20 -74.5q0 -57 -39 -99zM363 809q-15 -15 -15 -37q0 -21 15 -36t36 -15q22 0 37 15t15 36q0 23 -14.5 37.5t-37.5 14.5
q-21 0 -36 -15zM466 290l-67 196l-67 -196h134z" />
    <glyph glyph-name="AE" unicode="&#xc6;" horiz-adv-x="908" 
d="M313 699h585v-174h-280v-96h197v-159h-197v-96h280v-174h-466v133h-141l-55 -133h-216zM432 292v233h-6l-92 -233h98z" />
    <glyph glyph-name="Ccedilla" unicode="&#xc7;" horiz-adv-x="676" 
d="M465 -12l-13 -34q44 -6 68.5 -31t24.5 -62q0 -50 -40.5 -79.5t-117.5 -29.5q-71 0 -109 15v80q12 -7 30.5 -11t35.5 -4q32 0 48 8t16 29q0 24 -23 34t-79 10l29 76q-147 19 -231 114t-84 246q0 112 47 194.5t134 126.5t203 44q75 0 134 -14t110 -45v-191q-44 34 -99 49
t-127 15q-94 0 -142.5 -45t-48.5 -134t50 -134.5t141 -45.5q71 0 127.5 16t106.5 51v-190q-79 -49 -191 -58z" />
    <glyph glyph-name="Egrave" unicode="&#xc8;" horiz-adv-x="557" 
d="M122 923h201l69 -180h-177zM40 699h507v-174h-300v-96h216v-159h-216v-96h300v-174h-507v699z" />
    <glyph glyph-name="Eacute" unicode="&#xc9;" horiz-adv-x="557" 
d="M265 917h201l-93 -180h-177zM40 699h507v-174h-300v-96h216v-159h-216v-96h300v-174h-507v699z" />
    <glyph glyph-name="Ecircumflex" unicode="&#xca;" horiz-adv-x="557" 
d="M209 916h165l148 -172h-172l-58 71l-58 -71h-173zM40 699h507v-174h-300v-96h216v-159h-216v-96h300v-174h-507v699z" />
    <glyph glyph-name="Edieresis" unicode="&#xcb;" horiz-adv-x="557" 
d="M125.5 770.5q-24.5 23.5 -24.5 57.5t25 58.5t58 24.5q34 0 58 -24.5t24 -58.5t-24 -57.5t-58 -23.5t-58.5 23.5zM361.5 770.5q-24.5 23.5 -24.5 57.5t24.5 58.5t58.5 24.5q33 0 57 -24.5t24 -58.5t-24 -57.5t-57 -23.5q-34 0 -58.5 23.5zM40 699h507v-174h-300v-96h216
v-159h-216v-96h300v-174h-507v699z" />
    <glyph glyph-name="Igrave" unicode="&#xcc;" horiz-adv-x="287" 
d="M-37 917h201l69 -180h-177zM40 699h207v-699h-207v699z" />
    <glyph glyph-name="Iacute" unicode="&#xcd;" horiz-adv-x="287" 
d="M121 917h201l-93 -180h-177zM40 699h207v-699h-207v699z" />
    <glyph glyph-name="Icircumflex" unicode="&#xce;" horiz-adv-x="287" 
d="M61 913h165l148 -172h-172l-58 71l-58 -71h-173zM40 699h207v-699h-207v699z" />
    <glyph glyph-name="Idieresis" unicode="&#xcf;" horiz-adv-x="287" 
d="M-32.5 765.5q-24.5 23.5 -24.5 57.5t25 58.5t58 24.5q34 0 58 -24.5t24 -58.5t-24 -57.5t-58 -23.5t-58.5 23.5zM203.5 765.5q-24.5 23.5 -24.5 57.5t24.5 58.5t58.5 24.5q33 0 57 -24.5t24 -58.5t-24 -57.5t-57 -23.5q-34 0 -58.5 23.5zM40 699h207v-699h-207v699z" />
    <glyph glyph-name="Eth" unicode="&#xd0;" horiz-adv-x="739" 
d="M76 274h-46v150h46v275h259q116 0 202.5 -42t134 -120.5t47.5 -183.5q0 -174 -103 -263.5t-283 -89.5h-257v274zM348 184q78 0 118.5 44t40.5 125q0 73 -41 117t-115 44h-68v-90h124v-150h-124v-90h65z" />
    <glyph glyph-name="Ntilde" unicode="&#xd1;" horiz-adv-x="706" 
d="M158 883q35 41 107 41q22 0 44.5 -6t58.5 -19q31 -12 53.5 -18.5t44.5 -6.5q65 0 107 49v-140q-34 -41 -107 -41q-25 0 -49.5 6.5t-57.5 19.5q-33 12 -53 18t-41 6q-64 0 -107 -50v141zM40 699h201l218 -366v366h207v-699h-200l-219 366v-366h-207v699z" />
    <glyph glyph-name="Ograve" unicode="&#xd2;" horiz-adv-x="794" 
d="M228 917h201l69 -180h-177zM205.5 31q-86.5 46 -136 128.5t-49.5 189.5t49.5 190t136 129t192.5 46t191.5 -46t135 -129t49.5 -190t-49.5 -189.5t-135 -128.5t-191.5 -46t-192.5 46zM481.5 199.5q37.5 20.5 59.5 59t22 90.5q0 77 -47 123t-118 46q-72 0 -119.5 -46
t-47.5 -123q0 -52 22 -90.5t60 -59t85 -20.5q46 0 83.5 20.5z" />
    <glyph glyph-name="Oacute" unicode="&#xd3;" horiz-adv-x="794" 
d="M367 917h201l-93 -180h-177zM205.5 31q-86.5 46 -136 128.5t-49.5 189.5t49.5 190t136 129t192.5 46t191.5 -46t135 -129t49.5 -190t-49.5 -189.5t-135 -128.5t-191.5 -46t-192.5 46zM481.5 199.5q37.5 20.5 59.5 59t22 90.5q0 77 -47 123t-118 46q-72 0 -119.5 -46
t-47.5 -123q0 -52 22 -90.5t60 -59t85 -20.5q46 0 83.5 20.5z" />
    <glyph glyph-name="Ocircumflex" unicode="&#xd4;" horiz-adv-x="794" 
d="M315 921h165l148 -172h-172l-58 71l-58 -71h-173zM205.5 31q-86.5 46 -136 128.5t-49.5 189.5t49.5 190t136 129t192.5 46t191.5 -46t135 -129t49.5 -190t-49.5 -189.5t-135 -128.5t-191.5 -46t-192.5 46zM481.5 199.5q37.5 20.5 59.5 59t22 90.5q0 77 -47 123t-118 46
q-72 0 -119.5 -46t-47.5 -123q0 -52 22 -90.5t60 -59t85 -20.5q46 0 83.5 20.5z" />
    <glyph glyph-name="Otilde" unicode="&#xd5;" horiz-adv-x="794" 
d="M191 892q35 41 107 41q22 0 44.5 -6t58.5 -19q31 -12 53.5 -18.5t44.5 -6.5q65 0 107 49v-140q-34 -41 -107 -41q-25 0 -49.5 6.5t-57.5 19.5q-33 12 -53 18t-41 6q-64 0 -107 -50v141zM205.5 31q-86.5 46 -136 128.5t-49.5 189.5t49.5 190t136 129t192.5 46t191.5 -46
t135 -129t49.5 -190t-49.5 -189.5t-135 -128.5t-191.5 -46t-192.5 46zM481.5 199.5q37.5 20.5 59.5 59t22 90.5q0 77 -47 123t-118 46q-72 0 -119.5 -46t-47.5 -123q0 -52 22 -90.5t60 -59t85 -20.5q46 0 83.5 20.5z" />
    <glyph glyph-name="Odieresis" unicode="&#xd6;" horiz-adv-x="794" 
d="M221.5 772.5q-24.5 23.5 -24.5 57.5t25 58.5t58 24.5q34 0 58 -24.5t24 -58.5t-24 -57.5t-58 -23.5t-58.5 23.5zM457.5 772.5q-24.5 23.5 -24.5 57.5t24.5 58.5t58.5 24.5q33 0 57 -24.5t24 -58.5t-24 -57.5t-57 -23.5q-34 0 -58.5 23.5zM205.5 31q-86.5 46 -136 128.5
t-49.5 189.5t49.5 190t136 129t192.5 46t191.5 -46t135 -129t49.5 -190t-49.5 -189.5t-135 -128.5t-191.5 -46t-192.5 46zM481.5 199.5q37.5 20.5 59.5 59t22 90.5q0 77 -47 123t-118 46q-72 0 -119.5 -46t-47.5 -123q0 -52 22 -90.5t60 -59t85 -20.5q46 0 83.5 20.5z" />
    <glyph glyph-name="multiply" unicode="&#xd7;" horiz-adv-x="413" 
d="M206 200l-73 -73l-113 112l73 73l-73 74l113 113l73 -73l74 74l113 -114l-74 -74l74 -73l-113 -113z" />
    <glyph glyph-name="Oslash" unicode="&#xd8;" horiz-adv-x="794" 
d="M206 30q-87 46 -136.5 129t-49.5 190t49.5 190t136 129t192.5 46q44 0 80 -7l31 77h121l-46 -114q88 -44 139 -128t51 -193q0 -107 -49.5 -189.5t-135 -128.5t-191.5 -46q-45 0 -86 9l-32 -80h-121zM402 518h-4q-72 0 -119.5 -46t-47.5 -123q0 -82 51 -128zM398 179
q46 0 83.5 20.5t59.5 59t22 90.5q0 42 -14.5 75.5t-41.5 55.5l-121 -301h12z" />
    <glyph glyph-name="Ugrave" unicode="&#xd9;" horiz-adv-x="724" 
d="M192 917h201l69 -180h-177zM179 26q-73 41 -108.5 113t-35.5 165v395h207v-393q0 -64 30.5 -97t89.5 -33t89.5 33t30.5 97v393h207v-395q0 -93 -35.5 -165t-108.5 -113t-183 -41t-183 41z" />
    <glyph glyph-name="Uacute" unicode="&#xda;" horiz-adv-x="724" 
d="M345 917h201l-93 -180h-177zM179 26q-73 41 -108.5 113t-35.5 165v395h207v-393q0 -64 30.5 -97t89.5 -33t89.5 33t30.5 97v393h207v-395q0 -93 -35.5 -165t-108.5 -113t-183 -41t-183 41z" />
    <glyph glyph-name="Ucircumflex" unicode="&#xdb;" horiz-adv-x="724" 
d="M280 920h165l148 -172h-172l-58 71l-58 -71h-173zM179 26q-73 41 -108.5 113t-35.5 165v395h207v-393q0 -64 30.5 -97t89.5 -33t89.5 33t30.5 97v393h207v-395q0 -93 -35.5 -165t-108.5 -113t-183 -41t-183 41z" />
    <glyph glyph-name="Udieresis" unicode="&#xdc;" horiz-adv-x="724" 
d="M186.5 772.5q-24.5 23.5 -24.5 57.5t25 58.5t58 24.5q34 0 58 -24.5t24 -58.5t-24 -57.5t-58 -23.5t-58.5 23.5zM422.5 772.5q-24.5 23.5 -24.5 57.5t24.5 58.5t58.5 24.5q33 0 57 -24.5t24 -58.5t-24 -57.5t-57 -23.5q-34 0 -58.5 23.5zM179 26q-73 41 -108.5 113
t-35.5 165v395h207v-393q0 -64 30.5 -97t89.5 -33t89.5 33t30.5 97v393h207v-395q0 -93 -35.5 -165t-108.5 -113t-183 -41t-183 41z" />
    <glyph glyph-name="Yacute" unicode="&#xdd;" horiz-adv-x="766" 
d="M361 923h201l-93 -180h-177zM275 266l-255 433h221l138 -241l147 241h220l-264 -433v-266h-207v266z" />
    <glyph glyph-name="Thorn" unicode="&#xde;" horiz-adv-x="647" 
d="M40 699h207v-102h117q127 0 200 -62.5t73 -182.5t-73 -182.5t-200 -62.5h-117v-107h-207v699zM323 271q48 0 75 17.5t27 63.5t-27 63.5t-75 17.5h-76v-162h76z" />
    <glyph glyph-name="germandbls" unicode="&#xdf;" horiz-adv-x="661" 
d="M280 3v162q28 -19 75 -19q37 0 56.5 21.5t19.5 58.5q0 80 -88 80h-53v139h44q35 0 52 21t17 56q0 32 -19.5 50.5t-57.5 18.5q-41 0 -63 -21.5t-22 -59.5v-510h-206v484q0 260 289 260q154 0 221.5 -65.5t67.5 -160.5q0 -46 -18 -83.5t-54 -59.5q52 -22 76 -63t24 -101
q0 -107 -61 -166.5t-176 -59.5q-81 0 -124 18z" />
    <glyph glyph-name="agrave" unicode="&#xe0;" horiz-adv-x="606" 
d="M169 697h201l69 -180h-177zM45.5 27.5q-55.5 42.5 -55.5 121.5q0 81 54 123.5t157 42.5q37 0 75 -8t64 -20v9q0 33 -32.5 50t-90.5 17q-87 0 -160 -35v132q33 16 86 25.5t113 9.5q139 0 212 -53t73 -150v-292h-189v38q-24 -24 -66 -38.5t-93 -14.5q-92 0 -147.5 42.5z
M305 111q23 10 35 26v37q-37 24 -84 24q-28 0 -43.5 -13t-15.5 -36q0 -22 15 -35t43 -13q27 0 50 10z" />
    <glyph glyph-name="aacute" unicode="&#xe1;" horiz-adv-x="606" 
d="M286 697h201l-93 -180h-177zM45.5 27.5q-55.5 42.5 -55.5 121.5q0 81 54 123.5t157 42.5q37 0 75 -8t64 -20v9q0 33 -32.5 50t-90.5 17q-87 0 -160 -35v132q33 16 86 25.5t113 9.5q139 0 212 -53t73 -150v-292h-189v38q-24 -24 -66 -38.5t-93 -14.5q-92 0 -147.5 42.5z
M305 111q23 10 35 26v37q-37 24 -84 24q-28 0 -43.5 -13t-15.5 -36q0 -22 15 -35t43 -13q27 0 50 10z" />
    <glyph glyph-name="acircumflex" unicode="&#xe2;" horiz-adv-x="606" 
d="M238 700h165l148 -172h-172l-58 71l-58 -71h-173zM45.5 27.5q-55.5 42.5 -55.5 121.5q0 81 54 123.5t157 42.5q37 0 75 -8t64 -20v9q0 33 -32.5 50t-90.5 17q-87 0 -160 -35v132q33 16 86 25.5t113 9.5q139 0 212 -53t73 -150v-292h-189v38q-24 -24 -66 -38.5t-93 -14.5
q-92 0 -147.5 42.5zM305 111q23 10 35 26v37q-37 24 -84 24q-28 0 -43.5 -13t-15.5 -36q0 -22 15 -35t43 -13q27 0 50 10z" />
    <glyph glyph-name="atilde" unicode="&#xe3;" horiz-adv-x="606" 
d="M126 662q35 41 107 41q22 0 44.5 -6t58.5 -19q31 -12 53.5 -18.5t44.5 -6.5q65 0 107 49v-140q-34 -41 -107 -41q-25 0 -49.5 6.5t-57.5 19.5q-33 12 -53 18t-41 6q-64 0 -107 -50v141zM45.5 27.5q-55.5 42.5 -55.5 121.5q0 81 54 123.5t157 42.5q37 0 75 -8t64 -20v9
q0 33 -32.5 50t-90.5 17q-87 0 -160 -35v132q33 16 86 25.5t113 9.5q139 0 212 -53t73 -150v-292h-189v38q-24 -24 -66 -38.5t-93 -14.5q-92 0 -147.5 42.5zM305 111q23 10 35 26v37q-37 24 -84 24q-28 0 -43.5 -13t-15.5 -36q0 -22 15 -35t43 -13q27 0 50 10z" />
    <glyph glyph-name="adieresis" unicode="&#xe4;" horiz-adv-x="606" 
d="M140.5 542.5q-24.5 23.5 -24.5 57.5t25 58.5t58 24.5q34 0 58 -24.5t24 -58.5t-24 -57.5t-58 -23.5t-58.5 23.5zM376.5 542.5q-24.5 23.5 -24.5 57.5t24.5 58.5t58.5 24.5q33 0 57 -24.5t24 -58.5t-24 -57.5t-57 -23.5q-34 0 -58.5 23.5zM45.5 27.5
q-55.5 42.5 -55.5 121.5q0 81 54 123.5t157 42.5q37 0 75 -8t64 -20v9q0 33 -32.5 50t-90.5 17q-87 0 -160 -35v132q33 16 86 25.5t113 9.5q139 0 212 -53t73 -150v-292h-189v38q-24 -24 -66 -38.5t-93 -14.5q-92 0 -147.5 42.5zM305 111q23 10 35 26v37q-37 24 -84 24
q-28 0 -43.5 -13t-15.5 -36q0 -22 15 -35t43 -13q27 0 50 10z" />
    <glyph glyph-name="aring" unicode="&#xe5;" horiz-adv-x="606" 
d="M246.5 540.5q-34.5 19.5 -54.5 53t-20 73.5q0 41 20 74.5t54.5 53t74.5 19.5q41 0 75.5 -19.5t54.5 -53t20 -74.5q0 -40 -20 -73.5t-54.5 -53t-75.5 -19.5q-40 0 -74.5 19.5zM358 631q15 15 15 36q0 23 -14.5 37.5t-37.5 14.5q-21 0 -36 -15t-15 -37q0 -21 15 -36t36 -15
q22 0 37 15zM45.5 27.5q-55.5 42.5 -55.5 121.5q0 81 54 123.5t157 42.5q37 0 75 -8t64 -20v9q0 33 -32.5 50t-90.5 17q-87 0 -160 -35v132q33 16 86 25.5t113 9.5q139 0 212 -53t73 -150v-292h-189v38q-24 -24 -66 -38.5t-93 -14.5q-92 0 -147.5 42.5zM305 111q23 10 35 26
v37q-37 24 -84 24q-28 0 -43.5 -13t-15.5 -36q0 -22 15 -35t43 -13q27 0 50 10z" />
    <glyph glyph-name="ae" unicode="&#xe6;" horiz-adv-x="955" 
d="M78 27q-58 42 -58 122t53.5 123t152.5 43q37 0 75 -8t64 -20v9q0 33 -32.5 50t-90.5 17q-87 0 -160 -35v132q33 16 86 25.5t113 9.5q117 0 192 -56q35 26 83 41t102 15q88 0 150.5 -32.5t94.5 -89.5t32 -128v-63h-369q25 -66 144 -66q48 0 98.5 7.5t85.5 21.5v-125
q-38 -16 -92.5 -25.5t-113.5 -9.5q-67 0 -122.5 18t-93.5 51q-45 -33 -101.5 -51t-135.5 -18q-99 0 -157 42zM746 295q-5 32 -28 50t-63 18t-62 -18.5t-27 -49.5h180zM329 110.5q23 9.5 36 25.5v38q-37 24 -84 24q-28 0 -43.5 -13t-15.5 -36q0 -22 15 -35t43 -13
q26 0 49 9.5z" />
    <glyph glyph-name="ccedilla" unicode="&#xe7;" horiz-adv-x="539" 
d="M371 -12l-13 -34q44 -6 68.5 -31t24.5 -62q0 -50 -40.5 -79.5t-117.5 -29.5q-71 0 -109 15v80q12 -7 30.5 -11t35.5 -4q32 0 48 8t16 29q0 24 -23 34t-79 10l29 77q-104 15 -162.5 78.5t-58.5 170.5q0 124 77.5 190t211.5 66q60 0 115 -11.5t89 -32.5v-155
q-30 22 -71.5 33.5t-86.5 11.5q-58 0 -93 -25.5t-35 -76.5t34.5 -76t92.5 -25q45 0 87.5 12t77.5 35v-154q-55 -34 -148 -43z" />
    <glyph glyph-name="egrave" unicode="&#xe8;" horiz-adv-x="600" 
d="M139 697h201l69 -180h-177zM101 51q-81 66 -81 187q0 119 73 188t210 69q88 0 150.5 -32.5t94.5 -89.5t32 -128v-65h-370q24 -64 145 -64q48 0 98.5 7.5t85.5 21.5v-125q-38 -16 -95 -25.5t-117 -9.5q-145 0 -226 66zM391 296q-5 32 -28 49.5t-63 17.5t-62.5 -18
t-27.5 -49h181z" />
    <glyph glyph-name="eacute" unicode="&#xe9;" horiz-adv-x="600" 
d="M280 697h201l-93 -180h-177zM101 51q-81 66 -81 187q0 119 73 188t210 69q88 0 150.5 -32.5t94.5 -89.5t32 -128v-65h-370q24 -64 145 -64q48 0 98.5 7.5t85.5 21.5v-125q-38 -16 -95 -25.5t-117 -9.5q-145 0 -226 66zM391 296q-5 32 -28 49.5t-63 17.5t-62.5 -18
t-27.5 -49h181z" />
    <glyph glyph-name="ecircumflex" unicode="&#xea;" horiz-adv-x="618" 
d="M245 700h165l148 -172h-172l-58 71l-58 -71h-173zM119 51q-81 66 -81 187q0 119 73 188t210 69q88 0 150.5 -32.5t94.5 -89.5t32 -128v-65h-370q24 -64 145 -64q48 0 98.5 7.5t85.5 21.5v-125q-38 -16 -95 -25.5t-117 -9.5q-145 0 -226 66zM409 296q-5 32 -28 49.5
t-63 17.5t-62.5 -18t-27.5 -49h181z" />
    <glyph glyph-name="edieresis" unicode="&#xeb;" horiz-adv-x="600" 
d="M133.5 544.5q-24.5 23.5 -24.5 57.5t25 58.5t58 24.5q34 0 58 -24.5t24 -58.5t-24 -57.5t-58 -23.5t-58.5 23.5zM369.5 544.5q-24.5 23.5 -24.5 57.5t24.5 58.5t58.5 24.5q33 0 57 -24.5t24 -58.5t-24 -57.5t-57 -23.5q-34 0 -58.5 23.5zM101 51q-81 66 -81 187
q0 119 73 188t210 69q88 0 150.5 -32.5t94.5 -89.5t32 -128v-65h-370q24 -64 145 -64q48 0 98.5 7.5t85.5 21.5v-125q-38 -16 -95 -25.5t-117 -9.5q-145 0 -226 66zM391 296q-5 32 -28 49.5t-63 17.5t-62.5 -18t-27.5 -49h181z" />
    <glyph glyph-name="igrave" unicode="&#xec;" horiz-adv-x="280" 
d="M-36 697h201l69 -180h-177zM40 480h200v-480h-200v480z" />
    <glyph glyph-name="iacute" unicode="&#xed;" horiz-adv-x="280" 
d="M117 697h201l-93 -180h-177zM40 480h200v-480h-200v480z" />
    <glyph glyph-name="icircumflex" unicode="&#xee;" horiz-adv-x="280" 
d="M58 700h165l148 -172h-172l-58 71l-58 -71h-173zM40 480h200v-480h-200v480z" />
    <glyph glyph-name="idieresis" unicode="&#xef;" horiz-adv-x="280" 
d="M-36.5 544.5q-24.5 23.5 -24.5 57.5t25 58.5t58 24.5q34 0 58 -24.5t24 -58.5t-24 -57.5t-58 -23.5t-58.5 23.5zM199.5 544.5q-24.5 23.5 -24.5 57.5t24.5 58.5t58.5 24.5q33 0 57 -24.5t24 -58.5t-24 -57.5t-57 -23.5q-34 0 -58.5 23.5zM40 480h200v-480h-200v480z" />
    <glyph glyph-name="eth" unicode="&#xf0;" horiz-adv-x="637" 
d="M93 52q-73 67 -73 177q0 111 70.5 170.5t185.5 59.5q40 0 78.5 -11t62.5 -30q-11 84 -59 120l-117 -65v64l49 27q-18 2 -28 2q-85 0 -136 -27v154q27 9 64.5 15t76.5 6q115 0 198 -53l118 65v-63l-71 -39q105 -102 105 -296q0 -103 -38 -180.5t-107.5 -120t-163.5 -42.5
q-142 0 -215 67zM377 161q22 25 22 63q0 40 -23 63.5t-60 23.5q-40 0 -62.5 -23t-22.5 -64t22.5 -64.5t62.5 -23.5q39 0 61 25z" />
    <glyph glyph-name="ntilde" unicode="&#xf1;" horiz-adv-x="629" 
d="M110 662q35 41 107 41q22 0 44.5 -6t58.5 -19q31 -12 53.5 -18.5t44.5 -6.5q65 0 107 49v-140q-34 -41 -107 -41q-25 0 -49.5 6.5t-57.5 19.5q-33 12 -53 18t-41 6q-64 0 -107 -50v141zM40 480h193v-47q31 30 73 46t88 16q103 0 151.5 -52.5t48.5 -144.5v-298h-201v270
q0 34 -14.5 51.5t-46.5 17.5q-60 0 -92 -54v-285h-200v480z" />
    <glyph glyph-name="ograve" unicode="&#xf2;" horiz-adv-x="647" 
d="M157 697h201l69 -180h-177zM162.5 17.5q-68.5 32.5 -105.5 90.5t-37 132q0 73 37 131t105.5 91t160.5 33t161 -33t106 -91t37 -131q0 -74 -37 -132t-106 -90.5t-161 -32.5t-160.5 32.5zM395 167q27 27 27 73t-27 72.5t-72 26.5t-71.5 -26.5t-26.5 -72.5t26.5 -73
t71.5 -27t72 27z" />
    <glyph glyph-name="oacute" unicode="&#xf3;" horiz-adv-x="647" 
d="M301 697h201l-93 -180h-177zM162.5 17.5q-68.5 32.5 -105.5 90.5t-37 132q0 73 37 131t105.5 91t160.5 33t161 -33t106 -91t37 -131q0 -74 -37 -132t-106 -90.5t-161 -32.5t-160.5 32.5zM395 167q27 27 27 73t-27 72.5t-72 26.5t-71.5 -26.5t-26.5 -72.5t26.5 -73
t71.5 -27t72 27z" />
    <glyph glyph-name="ocircumflex" unicode="&#xf4;" horiz-adv-x="647" 
d="M241 700h165l148 -172h-172l-58 71l-58 -71h-173zM162.5 17.5q-68.5 32.5 -105.5 90.5t-37 132q0 73 37 131t105.5 91t160.5 33t161 -33t106 -91t37 -131q0 -74 -37 -132t-106 -90.5t-161 -32.5t-160.5 32.5zM395 167q27 27 27 73t-27 72.5t-72 26.5t-71.5 -26.5
t-26.5 -72.5t26.5 -73t71.5 -27t72 27z" />
    <glyph glyph-name="otilde" unicode="&#xf5;" horiz-adv-x="647" 
d="M116 665q35 41 107 41q22 0 44.5 -6t58.5 -19q31 -12 53.5 -18.5t44.5 -6.5q65 0 107 49v-140q-34 -41 -107 -41q-25 0 -49.5 6.5t-57.5 19.5q-33 12 -53 18t-41 6q-64 0 -107 -50v141zM162.5 17.5q-68.5 32.5 -105.5 90.5t-37 132q0 73 37 131t105.5 91t160.5 33
t161 -33t106 -91t37 -131q0 -74 -37 -132t-106 -90.5t-161 -32.5t-160.5 32.5zM395 167q27 27 27 73t-27 72.5t-72 26.5t-71.5 -26.5t-26.5 -72.5t26.5 -73t71.5 -27t72 27z" />
    <glyph glyph-name="odieresis" unicode="&#xf6;" horiz-adv-x="647" 
d="M147.5 544.5q-24.5 23.5 -24.5 57.5t25 58.5t58 24.5q34 0 58 -24.5t24 -58.5t-24 -57.5t-58 -23.5t-58.5 23.5zM383.5 544.5q-24.5 23.5 -24.5 57.5t24.5 58.5t58.5 24.5q33 0 57 -24.5t24 -58.5t-24 -57.5t-57 -23.5q-34 0 -58.5 23.5zM162.5 17.5
q-68.5 32.5 -105.5 90.5t-37 132q0 73 37 131t105.5 91t160.5 33t161 -33t106 -91t37 -131q0 -74 -37 -132t-106 -90.5t-161 -32.5t-160.5 32.5zM395 167q27 27 27 73t-27 72.5t-72 26.5t-71.5 -26.5t-26.5 -72.5t26.5 -73t71.5 -27t72 27z" />
    <glyph glyph-name="divide" unicode="&#xf7;" horiz-adv-x="408" 
d="M150.5 432.5q-20.5 20.5 -20.5 49.5q0 30 20.5 51t49.5 21q30 0 51 -21t21 -51q0 -29 -21 -49.5t-51 -20.5q-29 0 -49.5 20.5zM20 384h368v-159h-368v159zM150.5 75.5q-20.5 20.5 -20.5 49.5q0 30 20.5 51t49.5 21q30 0 51 -21t21 -51q0 -29 -21 -49.5t-51 -20.5
q-29 0 -49.5 20.5z" />
    <glyph glyph-name="oslash" unicode="&#xf8;" horiz-adv-x="647" 
d="M175 12q-73 30 -114 90t-41 138q0 73 37 131t105.5 91t160.5 33q24 0 45 -3l30 74h111l-40 -98q75 -31 116.5 -91t41.5 -137q0 -74 -37 -132t-106 -90.5t-161 -32.5q-25 0 -48 3l-29 -74h-110zM308 342q-41 -5 -64 -32t-23 -70q0 -39 19 -66zM401 169q24 27 24 71
q0 42 -21 67l-68 -170q41 5 65 32z" />
    <glyph glyph-name="ugrave" unicode="&#xf9;" horiz-adv-x="629" 
d="M146 697h201l69 -180h-177zM85 41q-50 56 -50 148v291h200v-267q0 -73 64 -73q29 0 52 14t37 40v286h201v-480h-194v46q-30 -30 -72 -45.5t-88 -15.5q-100 0 -150 56z" />
    <glyph glyph-name="uacute" unicode="&#xfa;" horiz-adv-x="629" 
d="M286 697h201l-93 -180h-177zM85 41q-50 56 -50 148v291h200v-267q0 -73 64 -73q29 0 52 14t37 40v286h201v-480h-194v46q-30 -30 -72 -45.5t-88 -15.5q-100 0 -150 56z" />
    <glyph glyph-name="ucircumflex" unicode="&#xfb;" horiz-adv-x="629" 
d="M233 700h165l148 -172h-172l-58 71l-58 -71h-173zM85 41q-50 56 -50 148v291h200v-267q0 -73 64 -73q29 0 52 14t37 40v286h201v-480h-194v46q-30 -30 -72 -45.5t-88 -15.5q-100 0 -150 56z" />
    <glyph glyph-name="udieresis" unicode="&#xfc;" horiz-adv-x="629" 
d="M140.5 544.5q-24.5 23.5 -24.5 57.5t25 58.5t58 24.5q34 0 58 -24.5t24 -58.5t-24 -57.5t-58 -23.5t-58.5 23.5zM376.5 544.5q-24.5 23.5 -24.5 57.5t24.5 58.5t58.5 24.5q33 0 57 -24.5t24 -58.5t-24 -57.5t-57 -23.5q-34 0 -58.5 23.5zM85 41q-50 56 -50 148v291h200
v-267q0 -73 64 -73q29 0 52 14t37 40v286h201v-480h-194v46q-30 -30 -72 -45.5t-88 -15.5q-100 0 -150 56z" />
    <glyph glyph-name="yacute" unicode="&#xfd;" horiz-adv-x="642" 
d="M307 698h201l-93 -180h-177zM131 -193q-38 5 -56 14v148q31 -12 68 -12q32 0 49 13.5t27 40.5l9 23l-208 446h200l114 -293l107 293h201l-192 -491q-38 -96 -96 -141.5t-150 -45.5q-35 0 -73 5z" />
    <glyph glyph-name="thorn" unicode="&#xfe;" horiz-adv-x="669" 
d="M40 699h200v-254q27 23 68 36.5t86 13.5q76 0 134 -31.5t89.5 -89.5t31.5 -134q0 -75 -31.5 -133t-89.5 -90t-134 -32q-45 0 -86 13.5t-68 35.5v-253h-200v918zM414.5 166.5q27.5 26.5 27.5 74.5q0 47 -27.5 73t-74.5 26q-34 0 -60.5 -16.5t-39.5 -44.5v-78
q13 -28 39.5 -44.5t60.5 -16.5q47 0 74.5 26.5z" />
    <glyph glyph-name="ydieresis" unicode="&#xff;" horiz-adv-x="642" 
d="M165.5 544.5q-24.5 23.5 -24.5 57.5t25 58.5t58 24.5q34 0 58 -24.5t24 -58.5t-24 -57.5t-58 -23.5t-58.5 23.5zM401.5 544.5q-24.5 23.5 -24.5 57.5t24.5 58.5t58.5 24.5q33 0 57 -24.5t24 -58.5t-24 -57.5t-57 -23.5q-34 0 -58.5 23.5zM131 -193q-38 5 -56 14v148
q31 -12 68 -12q32 0 49 13.5t27 40.5l9 23l-208 446h200l114 -293l107 293h201l-192 -491q-38 -96 -96 -141.5t-150 -45.5q-35 0 -73 5z" />
    <glyph glyph-name="Amacron" unicode="&#x100;" horiz-adv-x="798" 
d="M221 870h356v-118h-356v118zM300 699h199l279 -699h-212l-52 133h-229l-53 -133h-212zM466 290l-67 196l-67 -196h134z" />
    <glyph glyph-name="amacron" unicode="&#x101;" horiz-adv-x="606" 
d="M135 649h356v-118h-356v118zM45.5 27.5q-55.5 42.5 -55.5 121.5q0 81 54 123.5t157 42.5q37 0 75 -8t64 -20v9q0 33 -32.5 50t-90.5 17q-87 0 -160 -35v132q33 16 86 25.5t113 9.5q139 0 212 -53t73 -150v-292h-189v38q-24 -24 -66 -38.5t-93 -14.5q-92 0 -147.5 42.5z
M305 111q23 10 35 26v37q-37 24 -84 24q-28 0 -43.5 -13t-15.5 -36q0 -22 15 -35t43 -13q27 0 50 10z" />
    <glyph glyph-name="Abreve" unicode="&#x102;" horiz-adv-x="798" 
d="M255.5 791q-50.5 49 -50.5 135h149q0 -60 45 -60t45 60h149q0 -86 -50.5 -135t-143.5 -49t-143.5 49zM300 699h199l279 -699h-212l-52 133h-229l-53 -133h-212zM466 290l-67 196l-67 -196h134z" />
    <glyph glyph-name="abreve" unicode="&#x103;" horiz-adv-x="606" 
d="M183.5 570q-50.5 49 -50.5 135h149q0 -60 45 -60t45 60h149q0 -86 -50.5 -135t-143.5 -49t-143.5 49zM45.5 27.5q-55.5 42.5 -55.5 121.5q0 81 54 123.5t157 42.5q37 0 75 -8t64 -20v9q0 33 -32.5 50t-90.5 17q-87 0 -160 -35v132q33 16 86 25.5t113 9.5q139 0 212 -53
t73 -150v-292h-189v38q-24 -24 -66 -38.5t-93 -14.5q-92 0 -147.5 42.5zM305 111q23 10 35 26v37q-37 24 -84 24q-28 0 -43.5 -13t-15.5 -36q0 -22 15 -35t43 -13q27 0 50 10z" />
    <glyph glyph-name="Aogonek" unicode="&#x104;" horiz-adv-x="798" 
d="M687.5 -39q-18.5 -18 -18.5 -39q0 -13 8 -20.5t22 -7.5q25 0 49 12v-108q-52 -16 -116 -16q-61 0 -98.5 25t-37.5 75q0 38 18.5 68t51.5 50l-52 133h-229l-53 -133h-212l280 699h199l279 -699h-30q-42 -21 -60.5 -39zM466 290l-67 196l-67 -196h134z" />
    <glyph glyph-name="aogonek" unicode="&#x105;" horiz-adv-x="606" 
d="M500 -98.5q8 -7.5 22 -7.5q25 0 49 12v-108q-52 -16 -116 -16q-61 0 -98.5 25t-37.5 75q0 38 18.5 68t51.5 50h-37v38q-24 -24 -66 -38.5t-93 -14.5q-92 0 -147.5 42.5t-55.5 121.5q0 81 54 123.5t157 42.5q37 0 75 -8t64 -20v9q0 33 -32.5 50t-90.5 17q-87 0 -160 -35
v132q33 16 86 25.5t113 9.5q139 0 212 -53t73 -150v-292h30q-42 -21 -60.5 -39t-18.5 -39q0 -13 8 -20.5zM340 174q-37 24 -84 24q-28 0 -43.5 -13t-15.5 -36q0 -22 15 -35t43 -13q27 0 50 10t35 26v37z" />
    <glyph glyph-name="Cacute" unicode="&#x106;" horiz-adv-x="676" 
d="M386 917h201l-93 -180h-177zM201 29q-87 44 -134 126t-47 194t47 194.5t134 126.5t203 44q75 0 134 -14t110 -45v-191q-44 34 -99 49t-127 15q-94 0 -142.5 -45t-48.5 -134t50 -134.5t141 -45.5q71 0 127.5 16t106.5 51v-190q-97 -61 -252 -61q-116 0 -203 44z" />
    <glyph glyph-name="cacute" unicode="&#x107;" horiz-adv-x="539" 
d="M287 697h201l-93 -180h-177zM97.5 50.5q-77.5 65.5 -77.5 188.5q0 124 77.5 190t211.5 66q60 0 115 -11.5t89 -32.5v-155q-30 22 -71.5 33.5t-86.5 11.5q-58 0 -93 -25.5t-35 -76.5t34.5 -76t92.5 -25q45 0 87.5 12t77.5 35v-154q-36 -22 -91 -34t-120 -12
q-133 0 -210.5 65.5z" />
    <glyph glyph-name="Ccircumflex" unicode="&#x108;" horiz-adv-x="676" 
d="M307 920h165l148 -172h-172l-58 71l-58 -71h-173zM201 29q-87 44 -134 126t-47 194t47 194.5t134 126.5t203 44q75 0 134 -14t110 -45v-191q-44 34 -99 49t-127 15q-94 0 -142.5 -45t-48.5 -134t50 -134.5t141 -45.5q71 0 127.5 16t106.5 51v-190q-97 -61 -252 -61
q-116 0 -203 44z" />
    <glyph glyph-name="ccircumflex" unicode="&#x109;" horiz-adv-x="552" 
d="M224 700h165l148 -172h-172l-58 71l-58 -71h-173zM97.5 50.5q-77.5 65.5 -77.5 188.5q0 124 77.5 190t211.5 66q60 0 115 -11.5t89 -32.5v-155q-30 22 -71.5 33.5t-86.5 11.5q-58 0 -93 -25.5t-35 -76.5t34.5 -76t92.5 -25q45 0 87.5 12t77.5 35v-154q-36 -22 -91 -34
t-120 -12q-133 0 -210.5 65.5z" />
    <glyph glyph-name="Cdotaccent" unicode="&#x10a;" horiz-adv-x="676" 
d="M361.5 765.5q-24.5 23.5 -24.5 57.5t24.5 58.5t58.5 24.5t57.5 -24t23.5 -59q0 -34 -23.5 -57.5t-57.5 -23.5t-58.5 23.5zM201 29q-87 44 -134 126t-47 194t47 194.5t134 126.5t203 44q75 0 134 -14t110 -45v-191q-44 34 -99 49t-127 15q-94 0 -142.5 -45t-48.5 -134
t50 -134.5t141 -45.5q71 0 127.5 16t106.5 51v-190q-97 -61 -252 -61q-116 0 -203 44z" />
    <glyph glyph-name="cdotaccent" unicode="&#x10b;" horiz-adv-x="539" 
d="M253.5 544.5q-24.5 23.5 -24.5 57.5t24.5 58.5t58.5 24.5t57.5 -24t23.5 -59q0 -34 -23.5 -57.5t-57.5 -23.5t-58.5 23.5zM97.5 50.5q-77.5 65.5 -77.5 188.5q0 124 77.5 190t211.5 66q60 0 115 -11.5t89 -32.5v-155q-30 22 -71.5 33.5t-86.5 11.5q-58 0 -93 -25.5
t-35 -76.5t34.5 -76t92.5 -25q45 0 87.5 12t77.5 35v-154q-36 -22 -91 -34t-120 -12q-133 0 -210.5 65.5z" />
    <glyph glyph-name="Ccaron" unicode="&#x10c;" horiz-adv-x="676" 
d="M177 920h173l58 -71l58 71h172l-148 -172h-165zM201 29q-87 44 -134 126t-47 194t47 194.5t134 126.5t203 44q75 0 134 -14t110 -45v-191q-44 34 -99 49t-127 15q-94 0 -142.5 -45t-48.5 -134t50 -134.5t141 -45.5q71 0 127.5 16t106.5 51v-190q-97 -61 -252 -61
q-116 0 -203 44z" />
    <glyph glyph-name="ccaron" unicode="&#x10d;" horiz-adv-x="537" 
d="M66 700h173l58 -71l58 71h172l-148 -172h-165zM97.5 50.5q-77.5 65.5 -77.5 188.5q0 124 77.5 190t211.5 66q60 0 115 -11.5t89 -32.5v-155q-30 22 -71.5 33.5t-86.5 11.5q-58 0 -93 -25.5t-35 -76.5t34.5 -76t92.5 -25q45 0 87.5 12t77.5 35v-154q-36 -22 -91 -34
t-120 -12q-133 0 -210.5 65.5z" />
    <glyph glyph-name="Dcaron" unicode="&#x10e;" horiz-adv-x="703" 
d="M96 920h173l58 -71l58 71h172l-148 -172h-165zM40 699h259q116 0 202.5 -42t134 -120.5t47.5 -183.5q0 -174 -103 -263.5t-283 -89.5h-257v699zM312 174q77 0 118.5 48t41.5 131q0 74 -42 123t-115 49h-68v-351h65z" />
    <glyph glyph-name="dcaron" unicode="&#x10f;" horiz-adv-x="743" 
d="M729 769h164l-101 -200h-147zM141 13.5q-58 31.5 -89.5 89.5t-31.5 134q0 75 31.5 133t89 90t134.5 32q46 0 87.5 -15t66.5 -40v299h200v-739h-193v49q-27 -29 -70 -46.5t-91 -17.5q-76 0 -134 31.5zM389.5 153q26.5 16 39.5 44v80q-13 28 -39.5 44t-60.5 16
q-46 0 -74 -26.5t-28 -74.5t28 -73.5t74 -25.5q34 0 60.5 16z" />
    <glyph glyph-name="Dcroat" unicode="&#x110;" horiz-adv-x="739" 
d="M76 274h-46v150h46v275h259q116 0 202.5 -42t134 -120.5t47.5 -183.5q0 -174 -103 -263.5t-283 -89.5h-257v274zM348 184q78 0 118.5 44t40.5 125q0 73 -41 117t-115 44h-68v-90h124v-150h-124v-90h65z" />
    <glyph glyph-name="dcroat" unicode="&#x111;" horiz-adv-x="680" 
d="M141 16.5q-58 31.5 -89.5 89t-31.5 133.5q0 75 31.5 133.5t89.5 90.5t134 32q46 0 86.5 -13.5t67.5 -36.5v79h-136v149h136v66h200v-66h41v-149h-41v-524h-193v44q-30 -29 -71.5 -44t-89.5 -15q-76 0 -134 31.5zM389.5 156q26.5 16 39.5 44v79q-13 28 -39.5 44t-60.5 16
q-47 0 -74.5 -26.5t-27.5 -73.5t27.5 -73t74.5 -26q34 0 60.5 16z" />
    <glyph glyph-name="Emacron" unicode="&#x112;" horiz-adv-x="557" 
d="M126 875h356v-118h-356v118zM40 699h507v-174h-300v-96h216v-159h-216v-96h300v-174h-507v699z" />
    <glyph glyph-name="emacron" unicode="&#x113;" horiz-adv-x="600" 
d="M132 649h356v-118h-356v118zM101 51q-81 66 -81 187q0 119 73 188t210 69q88 0 150.5 -32.5t94.5 -89.5t32 -128v-65h-370q24 -64 145 -64q48 0 98.5 7.5t85.5 21.5v-125q-38 -16 -95 -25.5t-117 -9.5q-145 0 -226 66zM391 296q-5 32 -28 49.5t-63 17.5t-62.5 -18
t-27.5 -49h181z" />
    <glyph glyph-name="Ebreve" unicode="&#x114;" horiz-adv-x="557" 
d="M153.5 790q-50.5 49 -50.5 135h149q0 -60 45 -60t45 60h149q0 -86 -50.5 -135t-143.5 -49t-143.5 49zM40 699h507v-174h-300v-96h216v-159h-216v-96h300v-174h-507v699z" />
    <glyph glyph-name="ebreve" unicode="&#x115;" horiz-adv-x="600" 
d="M171.5 570q-50.5 49 -50.5 135h149q0 -60 45 -60t45 60h149q0 -86 -50.5 -135t-143.5 -49t-143.5 49zM101 51q-81 66 -81 187q0 119 73 188t210 69q88 0 150.5 -32.5t94.5 -89.5t32 -128v-65h-370q24 -64 145 -64q48 0 98.5 7.5t85.5 21.5v-125q-38 -16 -95 -25.5
t-117 -9.5q-145 0 -226 66zM391 296q-5 32 -28 49.5t-63 17.5t-62.5 -18t-27.5 -49h181z" />
    <glyph glyph-name="Edotaccent" unicode="&#x116;" horiz-adv-x="557" 
d="M238.5 765.5q-24.5 23.5 -24.5 57.5t24.5 58.5t58.5 24.5t57.5 -24t23.5 -59q0 -34 -23.5 -57.5t-57.5 -23.5t-58.5 23.5zM40 699h507v-174h-300v-96h216v-159h-216v-96h300v-174h-507v699z" />
    <glyph glyph-name="edotaccent" unicode="&#x117;" horiz-adv-x="600" 
d="M245.5 544.5q-24.5 23.5 -24.5 57.5t24.5 58.5t58.5 24.5t57.5 -24t23.5 -59q0 -34 -23.5 -57.5t-57.5 -23.5t-58.5 23.5zM101 51q-81 66 -81 187q0 119 73 188t210 69q88 0 150.5 -32.5t94.5 -89.5t32 -128v-65h-370q24 -64 145 -64q48 0 98.5 7.5t85.5 21.5v-125
q-38 -16 -95 -25.5t-117 -9.5q-145 0 -226 66zM391 296q-5 32 -28 49.5t-63 17.5t-62.5 -18t-27.5 -49h181z" />
    <glyph glyph-name="Eogonek" unicode="&#x118;" horiz-adv-x="559" 
d="M478 -98.5q8 -7.5 22 -7.5q25 0 49 12v-108q-52 -16 -116 -16q-61 0 -98.5 25t-37.5 75q0 38 18.5 68t51.5 50h-327v699h507v-174h-300v-96h216v-159h-216v-96h300v-174h2q-42 -21 -60.5 -39t-18.5 -39q0 -13 8 -20.5z" />
    <glyph glyph-name="eogonek" unicode="&#x119;" horiz-adv-x="600" 
d="M580 180h-370q24 -64 145 -64q48 0 98.5 7.5t85.5 21.5v-125q-29 -12 -71 -21q-41 -21 -59 -38.5t-18 -38.5q0 -13 8 -20.5t22 -7.5q25 0 49 12v-108q-52 -16 -116 -16q-61 0 -98.5 25t-37.5 75q0 65 52 106q-119 12 -184.5 77t-65.5 173q0 119 73 188t210 69
q88 0 150.5 -32.5t94.5 -89.5t32 -128v-65zM391 296q-5 32 -28 49.5t-63 17.5t-62.5 -18t-27.5 -49h181z" />
    <glyph glyph-name="Ecaron" unicode="&#x11a;" horiz-adv-x="557" 
d="M75 920h173l58 -71l58 71h172l-148 -172h-165zM40 699h507v-174h-300v-96h216v-159h-216v-96h300v-174h-507v699z" />
    <glyph glyph-name="ecaron" unicode="&#x11b;" horiz-adv-x="620" 
d="M97 700h173l58 -71l58 71h172l-148 -172h-165zM121 51q-81 66 -81 187q0 119 73 188t210 69q88 0 150.5 -32.5t94.5 -89.5t32 -128v-65h-370q24 -64 145 -64q48 0 98.5 7.5t85.5 21.5v-125q-38 -16 -95 -25.5t-117 -9.5q-145 0 -226 66zM411 296q-5 32 -28 49.5t-63 17.5
t-62.5 -18t-27.5 -49h181z" />
    <glyph glyph-name="Gcircumflex" unicode="&#x11c;" horiz-adv-x="691" 
d="M312 920h165l148 -172h-172l-58 71l-58 -71h-173zM201 29q-87 44 -134 126t-47 194t47 194.5t134 126.5t203 44q156 0 244 -58v-191q-44 33 -99 48t-127 15q-94 0 -142.5 -47t-48.5 -132q0 -89 46.5 -134.5t134.5 -45.5q43 0 70 12v89h-96v131h285v-350
q-106 -66 -267 -66q-116 0 -203 44z" />
    <glyph glyph-name="gcircumflex" unicode="&#x11d;" horiz-adv-x="669" 
d="M276 700h165l148 -172h-172l-58 71l-58 -71h-173zM207.5 -221q-49.5 9 -85.5 24v133q79 -34 182 -34q65 0 95 26.5t30 77.5v28q-27 -22 -67.5 -35.5t-85.5 -13.5q-76 0 -134.5 32t-90 90t-31.5 133q0 76 31.5 134t89.5 89.5t134 31.5q47 0 89 -15.5t72 -43.5v44h193v-445
q0 -126 -79 -195.5t-246 -69.5q-47 0 -96.5 9zM389.5 156.5q26.5 16.5 39.5 44.5v78q-13 28 -39.5 44t-60.5 16q-47 0 -74.5 -26t-27.5 -72q0 -48 27.5 -74.5t74.5 -26.5q34 0 60.5 16.5z" />
    <glyph glyph-name="Gbreve" unicode="&#x11e;" horiz-adv-x="691" 
d="M273.5 790q-50.5 49 -50.5 135h149q0 -60 45 -60t45 60h149q0 -86 -50.5 -135t-143.5 -49t-143.5 49zM201 29q-87 44 -134 126t-47 194t47 194.5t134 126.5t203 44q156 0 244 -58v-191q-44 33 -99 48t-127 15q-94 0 -142.5 -47t-48.5 -132q0 -89 46.5 -134.5t134.5 -45.5
q43 0 70 12v89h-96v131h285v-350q-106 -66 -267 -66q-116 0 -203 44z" />
    <glyph glyph-name="gbreve" unicode="&#x11f;" horiz-adv-x="669" 
d="M206.5 570q-50.5 49 -50.5 135h149q0 -60 45 -60t45 60h149q0 -86 -50.5 -135t-143.5 -49t-143.5 49zM207.5 -221q-49.5 9 -85.5 24v133q79 -34 182 -34q65 0 95 26.5t30 77.5v28q-27 -22 -67.5 -35.5t-85.5 -13.5q-76 0 -134.5 32t-90 90t-31.5 133q0 76 31.5 134
t89.5 89.5t134 31.5q47 0 89 -15.5t72 -43.5v44h193v-445q0 -126 -79 -195.5t-246 -69.5q-47 0 -96.5 9zM389.5 156.5q26.5 16.5 39.5 44.5v78q-13 28 -39.5 44t-60.5 16q-47 0 -74.5 -26t-27.5 -72q0 -48 27.5 -74.5t74.5 -26.5q34 0 60.5 16.5z" />
    <glyph glyph-name="Gdotaccent" unicode="&#x120;" horiz-adv-x="691" 
d="M358.5 765.5q-24.5 23.5 -24.5 57.5t24.5 58.5t58.5 24.5t57.5 -24t23.5 -59q0 -34 -23.5 -57.5t-57.5 -23.5t-58.5 23.5zM201 29q-87 44 -134 126t-47 194t47 194.5t134 126.5t203 44q156 0 244 -58v-191q-44 33 -99 48t-127 15q-94 0 -142.5 -47t-48.5 -132
q0 -89 46.5 -134.5t134.5 -45.5q43 0 70 12v89h-96v131h285v-350q-106 -66 -267 -66q-116 0 -203 44z" />
    <glyph glyph-name="gdotaccent" unicode="&#x121;" horiz-adv-x="669" 
d="M319.5 544.5q-24.5 23.5 -24.5 57.5t24.5 58.5t58.5 24.5t57.5 -24t23.5 -59q0 -34 -23.5 -57.5t-57.5 -23.5t-58.5 23.5zM207.5 -221q-49.5 9 -85.5 24v133q79 -34 182 -34q65 0 95 26.5t30 77.5v28q-27 -22 -67.5 -35.5t-85.5 -13.5q-76 0 -134.5 32t-90 90t-31.5 133
q0 76 31.5 134t89.5 89.5t134 31.5q47 0 89 -15.5t72 -43.5v44h193v-445q0 -126 -79 -195.5t-246 -69.5q-47 0 -96.5 9zM389.5 156.5q26.5 16.5 39.5 44.5v78q-13 28 -39.5 44t-60.5 16q-47 0 -74.5 -26t-27.5 -72q0 -48 27.5 -74.5t74.5 -26.5q34 0 60.5 16.5z" />
    <glyph glyph-name="Gcommaaccent" unicode="&#x122;" horiz-adv-x="691" 
d="M201 29q-87 44 -134 126t-47 194t47 194.5t134 126.5t203 44q156 0 244 -58v-191q-44 33 -99 48t-127 15q-94 0 -142.5 -47t-48.5 -132q0 -89 46.5 -134.5t134.5 -45.5q43 0 70 12v89h-96v131h285v-350q-106 -66 -267 -66q-116 0 -203 44zM319 -45h197l-108 -215h-172z
" />
    <glyph glyph-name="gcommaaccent" unicode="&#x123;" horiz-adv-x="669" 
d="M378 736h172l-83 -215h-197zM207.5 -221q-49.5 9 -85.5 24v133q79 -34 182 -34q65 0 95 26.5t30 77.5v28q-27 -22 -67.5 -35.5t-85.5 -13.5q-76 0 -134.5 32t-90 90t-31.5 133q0 76 31.5 134t89.5 89.5t134 31.5q47 0 89 -15.5t72 -43.5v44h193v-445q0 -126 -79 -195.5
t-246 -69.5q-47 0 -96.5 9zM389.5 156.5q26.5 16.5 39.5 44.5v78q-13 28 -39.5 44t-60.5 16q-47 0 -74.5 -26t-27.5 -72q0 -48 27.5 -74.5t74.5 -26.5q34 0 60.5 16.5z" />
    <glyph glyph-name="Hcircumflex" unicode="&#x124;" horiz-adv-x="727" 
d="M281 920h165l148 -172h-172l-58 71l-58 -71h-173zM40 699h207v-257h233v257h207v-699h-207v268h-233v-268h-207v699z" />
    <glyph glyph-name="hcircumflex" unicode="&#x125;" horiz-adv-x="629" 
d="M194 937h165l148 -172h-172l-58 71l-58 -71h-173zM40 739h200v-302q66 58 154 58q103 0 151.5 -52.5t48.5 -144.5v-298h-201v270q0 34 -14.5 51.5t-46.5 17.5q-60 0 -92 -54v-285h-200v739z" />
    <glyph glyph-name="Hbar" unicode="&#x126;" horiz-adv-x="792" 
d="M72 517h-42v132h42v50h211v-50h225v50h211v-50h43v-132h-43v-517h-211v257h-225v-257h-211v517zM508 453v64h-225v-64h225z" />
    <glyph glyph-name="hbar" unicode="&#x127;" horiz-adv-x="630" 
d="M41 534h-41v131h41v74h200v-74h112v-131h-112v-98q32 29 71.5 44t82.5 15q103 0 151.5 -52t48.5 -144v-299h-201v270q0 34 -14.5 51.5t-47.5 17.5q-59 0 -91 -54v-285h-200v534z" />
    <glyph glyph-name="Itilde" unicode="&#x128;" horiz-adv-x="287" 
d="M-64 883q35 41 107 41q22 0 44.5 -6t58.5 -19q31 -12 53.5 -18.5t44.5 -6.5q65 0 107 49v-140q-34 -41 -107 -41q-25 0 -49.5 6.5t-57.5 19.5q-33 12 -53 18t-41 6q-64 0 -107 -50v141zM40 699h207v-699h-207v699z" />
    <glyph glyph-name="itilde" unicode="&#x129;" horiz-adv-x="280" 
d="M-67 662q35 41 107 41q22 0 44.5 -6t58.5 -19q31 -12 53.5 -18.5t44.5 -6.5q65 0 107 49v-140q-34 -41 -107 -41q-25 0 -49.5 6.5t-57.5 19.5q-33 12 -53 18t-41 6q-64 0 -107 -50v141zM40 480h200v-480h-200v480z" />
    <glyph glyph-name="Imacron" unicode="&#x12a;" horiz-adv-x="287" 
d="M-43 875h373v-128h-373v128zM40 699h207v-699h-207v699z" />
    <glyph glyph-name="imacron" unicode="&#x12b;" horiz-adv-x="280" 
d="M-46 654h373v-128h-373v128zM40 480h200v-480h-200v480z" />
    <glyph glyph-name="Ibreve" unicode="&#x12c;" horiz-adv-x="287" 
d="M-0.5 790q-50.5 49 -50.5 135h149q0 -60 45 -60t45 60h149q0 -86 -50.5 -135t-143.5 -49t-143.5 49zM40 699h207v-699h-207v699z" />
    <glyph glyph-name="ibreve" unicode="&#x12d;" horiz-adv-x="280" 
d="M-3.5 570q-50.5 49 -50.5 135h149q0 -60 45 -60t45 60h149q0 -86 -50.5 -135t-143.5 -49t-143.5 49zM40 480h200v-480h-200v480z" />
    <glyph glyph-name="Iogonek" unicode="&#x12e;" horiz-adv-x="287" 
d="M247 699v-699h-5q-42 -21 -60.5 -39t-18.5 -39q0 -13 8 -20.5t22 -7.5q25 0 49 12v-108q-52 -16 -116 -16q-61 0 -98.5 25t-37.5 75q0 38 18.5 68t51.5 50h-20v699h207z" />
    <glyph glyph-name="iogonek" unicode="&#x12f;" horiz-adv-x="290" 
d="M70 563q-30 29 -30 74q0 44 30 73.5t75 29.5q44 0 74.5 -30t30.5 -73q0 -44 -30.5 -73.5t-74.5 -29.5q-45 0 -75 29zM45 480h200v-480h-5q-42 -21 -60.5 -39t-18.5 -39q0 -13 8 -20.5t22 -7.5q25 0 49 12v-108q-52 -16 -116 -16q-61 0 -98.5 25t-37.5 75q0 38 18.5 68
t51.5 50h-13v480z" />
    <glyph glyph-name="Idotaccent" unicode="&#x130;" horiz-adv-x="287" 
d="M85.5 765.5q-24.5 23.5 -24.5 57.5t24.5 58.5t58.5 24.5t57.5 -24t23.5 -59q0 -34 -23.5 -57.5t-57.5 -23.5t-58.5 23.5zM40 699h207v-699h-207v699z" />
    <glyph glyph-name="dotlessi" unicode="&#x131;" horiz-adv-x="280" 
d="M40 480h200v-480h-200v480z" />
    <glyph glyph-name="IJ" unicode="&#x132;" horiz-adv-x="680" 
d="M40 699h207v-699h-207v699zM338.5 -7.5q-38.5 7.5 -56.5 17.5v178q34 -16 82 -16q41 0 57.5 17t16.5 57v453h207v-477q0 -108 -59.5 -172.5t-174.5 -64.5q-34 0 -72.5 7.5z" />
    <glyph glyph-name="ij" unicode="&#x133;" horiz-adv-x="557" 
d="M70 563q-30 29 -30 74q0 44 30 73.5t75 29.5q44 0 74.5 -30t30.5 -73q0 -44 -30.5 -73.5t-74.5 -29.5q-45 0 -75 29zM337 563q-30 29 -30 74q0 43 30.5 73t74.5 30t74.5 -30t30.5 -73q0 -44 -30.5 -73.5t-74.5 -29.5q-45 0 -75 29zM45 480h200v-480h-200v480zM174 -212
v159q30 -15 71 -15q31 0 49 16.5t18 50.5v481h201v-506q0 -101 -65.5 -153t-171.5 -52q-62 0 -102 19z" />
    <glyph glyph-name="Jcircumflex" unicode="&#x134;" horiz-adv-x="398" 
d="M170 913h165l148 -172h-172l-58 71l-58 -71h-173zM56.5 -7.5q-38.5 7.5 -56.5 17.5v178q34 -16 82 -16q41 0 57.5 17t16.5 57v453h207v-477q0 -108 -59.5 -172.5t-174.5 -64.5q-34 0 -72.5 7.5z" />
    <glyph glyph-name="jcircumflex" unicode="&#x135;" horiz-adv-x="284" 
d="M60 700h165l148 -172h-172l-58 71l-58 -71h-173zM-95 -212v159q30 -15 71 -15q31 0 49 16.5t18 50.5v481h201v-506q0 -101 -65.5 -153t-171.5 -52q-62 0 -102 19z" />
    <glyph glyph-name="Kcommaaccent" unicode="&#x136;" horiz-adv-x="745" 
d="M40 699h207v-271l215 271h244l-269 -339l288 -360h-244l-234 292v-292h-207v699zM263 -45h197l-108 -215h-172z" />
    <glyph glyph-name="kcommaaccent" unicode="&#x137;" horiz-adv-x="658" 
d="M40 739h200v-443l142 184h229l-179 -231l206 -249h-229l-169 204v-204h-200v739zM222 -45h197l-108 -215h-172z" />
    <glyph glyph-name="kgreenlandic" unicode="&#x138;" horiz-adv-x="658" 
d="M40 480h200v-191l142 191h229l-179 -240l206 -240h-229l-169 197v-197h-200v480z" />
    <glyph glyph-name="Lacute" unicode="&#x139;" horiz-adv-x="529" 
d="M127 920h201l-93 -180h-177zM40 699h207v-525h282v-174h-489v699z" />
    <glyph glyph-name="lacute" unicode="&#x13a;" horiz-adv-x="280" 
d="M122 950h201l-93 -180h-177zM40 739h200v-739h-200v739z" />
    <glyph glyph-name="Lcommaaccent" unicode="&#x13b;" horiz-adv-x="529" 
d="M40 699h207v-525h282v-174h-489v699zM214 -45h197l-108 -215h-172z" />
    <glyph glyph-name="lcommaaccent" unicode="&#x13c;" horiz-adv-x="287" 
d="M40 699h207v-699h-207v699zM43 -45h197l-108 -215h-172z" />
    <glyph glyph-name="Lcaron" unicode="&#x13d;" horiz-adv-x="549" 
d="M404 718h197l-108 -215h-172zM40 699h207v-525h282v-174h-489v699z" />
    <glyph glyph-name="lcaron" unicode="&#x13e;" horiz-adv-x="535" 
d="M357 764h197l-108 -215h-172zM40 739h200v-739h-200v739z" />
    <glyph glyph-name="Ldot" unicode="&#x13f;" horiz-adv-x="529" 
d="M40 699h207v-525h282v-174h-489v699zM347.5 340.5q-24.5 23.5 -24.5 57.5t24.5 58.5t58.5 24.5t57.5 -24t23.5 -59q0 -34 -23.5 -57.5t-57.5 -23.5t-58.5 23.5z" />
    <glyph glyph-name="ldot" unicode="&#x140;" horiz-adv-x="428" 
d="M40 739h200v-739h-200v739zM298.5 328.5q-24.5 23.5 -24.5 57.5t24.5 58.5t58.5 24.5t57.5 -24t23.5 -59q0 -34 -23.5 -57.5t-57.5 -23.5t-58.5 23.5z" />
    <glyph glyph-name="Lslash" unicode="&#x141;" horiz-adv-x="537" 
d="M48 242l-68 -30v194l68 30v263h211v-169l127 57v-193l-127 -57v-160h278v-177h-489v242z" />
    <glyph glyph-name="lslash" unicode="&#x142;" horiz-adv-x="316" 
d="M53 229l-98 -43v194l98 43v316h200v-226l108 48v-194l-108 -48v-319h-200v229z" />
    <glyph glyph-name="Nacute" unicode="&#x143;" horiz-adv-x="706" 
d="M331 917h201l-93 -180h-177zM40 699h201l218 -366v366h207v-699h-200l-219 366v-366h-207v699z" />
    <glyph glyph-name="nacute" unicode="&#x144;" horiz-adv-x="629" 
d="M274 703h201l-93 -180h-177zM40 480h193v-47q31 30 73 46t88 16q103 0 151.5 -52.5t48.5 -144.5v-298h-201v270q0 34 -14.5 51.5t-46.5 17.5q-60 0 -92 -54v-285h-200v480z" />
    <glyph glyph-name="Ncommaaccent" unicode="&#x145;" horiz-adv-x="706" 
d="M40 699h201l218 -366v366h207v-699h-200l-219 366v-366h-207v699zM269 -45h197l-108 -215h-172z" />
    <glyph glyph-name="ncommaaccent" unicode="&#x146;" horiz-adv-x="629" 
d="M40 480h193v-47q31 30 73 46t88 16q103 0 151.5 -52.5t48.5 -144.5v-298h-201v270q0 34 -14.5 51.5t-46.5 17.5q-60 0 -92 -54v-285h-200v480zM232 -45h197l-108 -215h-172z" />
    <glyph glyph-name="Ncaron" unicode="&#x147;" horiz-adv-x="706" 
d="M130 920h173l58 -71l58 71h172l-148 -172h-165zM40 699h201l218 -366v366h207v-699h-200l-219 366v-366h-207v699z" />
    <glyph glyph-name="ncaron" unicode="&#x148;" horiz-adv-x="635" 
d="M75 707h173l58 -71l58 71h172l-148 -172h-165zM46 480h193v-47q31 30 73 46t88 16q103 0 151.5 -52.5t48.5 -144.5v-298h-201v270q0 34 -14.5 51.5t-46.5 17.5q-60 0 -92 -54v-285h-200v480z" />
    <glyph glyph-name="napostrophe" unicode="&#x149;" horiz-adv-x="751" 
d="M43 718h197l-108 -215h-172zM162 480h193v-47q31 30 73 46t88 16q103 0 151.5 -52.5t48.5 -144.5v-298h-201v270q0 34 -14.5 51.5t-46.5 17.5q-60 0 -92 -54v-285h-200v480z" />
    <glyph glyph-name="Eng" unicode="&#x14a;" horiz-adv-x="706" 
d="M327 -212v159q30 -15 71 -15q31 0 49 16.5t18 50.5v7l-218 360v-366h-207v699h201l218 -366v366h207v-719q0 -102 -66 -156.5t-171 -54.5q-62 0 -102 19z" />
    <glyph glyph-name="eng" unicode="&#x14b;" horiz-adv-x="628" 
d="M255 -212v160q29 -16 71 -16q31 0 49 16.5t18 50.5v271q0 34 -14.5 51.5t-46.5 17.5q-60 0 -92 -54v-285h-200v480h193v-47q31 30 73 46t88 16q103 0 151 -52.5t48 -144.5v-323q0 -102 -65 -154t-171 -52q-62 0 -102 19z" />
    <glyph glyph-name="Omacron" unicode="&#x14c;" horiz-adv-x="794" 
d="M220 875h356v-118h-356v118zM205.5 31q-86.5 46 -136 128.5t-49.5 189.5t49.5 190t136 129t192.5 46t191.5 -46t135 -129t49.5 -190t-49.5 -189.5t-135 -128.5t-191.5 -46t-192.5 46zM481.5 199.5q37.5 20.5 59.5 59t22 90.5q0 77 -47 123t-118 46q-72 0 -119.5 -46
t-47.5 -123q0 -52 22 -90.5t60 -59t85 -20.5q46 0 83.5 20.5z" />
    <glyph glyph-name="omacron" unicode="&#x14d;" horiz-adv-x="647" 
d="M145 654h356v-118h-356v118zM162.5 17.5q-68.5 32.5 -105.5 90.5t-37 132q0 73 37 131t105.5 91t160.5 33t161 -33t106 -91t37 -131q0 -74 -37 -132t-106 -90.5t-161 -32.5t-160.5 32.5zM395 167q27 27 27 73t-27 72.5t-72 26.5t-71.5 -26.5t-26.5 -72.5t26.5 -73
t71.5 -27t72 27z" />
    <glyph glyph-name="Obreve" unicode="&#x14e;" horiz-adv-x="794" 
d="M253.5 790q-50.5 49 -50.5 135h149q0 -60 45 -60t45 60h149q0 -86 -50.5 -135t-143.5 -49t-143.5 49zM205.5 31q-86.5 46 -136 128.5t-49.5 189.5t49.5 190t136 129t192.5 46t191.5 -46t135 -129t49.5 -190t-49.5 -189.5t-135 -128.5t-191.5 -46t-192.5 46zM481.5 199.5
q37.5 20.5 59.5 59t22 90.5q0 77 -47 123t-118 46q-72 0 -119.5 -46t-47.5 -123q0 -52 22 -90.5t60 -59t85 -20.5q46 0 83.5 20.5z" />
    <glyph glyph-name="obreve" unicode="&#x14f;" horiz-adv-x="647" 
d="M179.5 565q-50.5 49 -50.5 135h149q0 -60 45 -60t45 60h149q0 -86 -50.5 -135t-143.5 -49t-143.5 49zM162.5 17.5q-68.5 32.5 -105.5 90.5t-37 132q0 73 37 131t105.5 91t160.5 33t161 -33t106 -91t37 -131q0 -74 -37 -132t-106 -90.5t-161 -32.5t-160.5 32.5zM395 167
q27 27 27 73t-27 72.5t-72 26.5t-71.5 -26.5t-26.5 -72.5t26.5 -73t71.5 -27t72 27z" />
    <glyph glyph-name="Ohungarumlaut" unicode="&#x150;" horiz-adv-x="794" 
d="M241 920h194l-93 -179h-169zM507 920h193l-92 -179h-169zM205.5 31q-86.5 46 -136 128.5t-49.5 189.5t49.5 190t136 129t192.5 46t191.5 -46t135 -129t49.5 -190t-49.5 -189.5t-135 -128.5t-191.5 -46t-192.5 46zM481.5 199.5q37.5 20.5 59.5 59t22 90.5q0 77 -47 123
t-118 46q-72 0 -119.5 -46t-47.5 -123q0 -52 22 -90.5t60 -59t85 -20.5q46 0 83.5 20.5z" />
    <glyph glyph-name="ohungarumlaut" unicode="&#x151;" horiz-adv-x="647" 
d="M159 700h194l-93 -179h-169zM425 700h193l-92 -179h-169zM162.5 17.5q-68.5 32.5 -105.5 90.5t-37 132q0 73 37 131t105.5 91t160.5 33t161 -33t106 -91t37 -131q0 -74 -37 -132t-106 -90.5t-161 -32.5t-160.5 32.5zM395 167q27 27 27 73t-27 72.5t-72 26.5t-71.5 -26.5
t-26.5 -72.5t26.5 -73t71.5 -27t72 27z" />
    <glyph glyph-name="OE" unicode="&#x152;" horiz-adv-x="891" 
d="M215.5 42q-92.5 42 -144 121t-51.5 186t51.5 186.5t144 121.5t211.5 42h444v-174h-266v-96h182v-159h-182v-96h266v-174h-444q-119 0 -211.5 42zM398 512q-81 0 -124 -42t-43 -121q0 -80 43.5 -121.5t123.5 -41.5v326z" />
    <glyph glyph-name="oe" unicode="&#x153;" horiz-adv-x="1076" 
d="M1056 180h-370q24 -64 145 -64q48 0 98.5 7.5t85.5 21.5v-125q-38 -16 -95 -25.5t-117 -9.5q-82 0 -144 21.5t-101 62.5q-40 -40 -100 -62t-135 -22q-92 0 -160.5 32.5t-105.5 90.5t-37 132q0 73 37 131t105.5 91t160.5 33q74 0 133 -21.5t100 -60.5q36 40 92 61t131 21
q88 0 150.5 -32.5t94.5 -89.5t32 -128v-65zM867 296q-5 32 -28 49.5t-63 17.5t-62.5 -18t-27.5 -49h181zM395 167q27 27 27 73t-27 72.5t-72 26.5t-71.5 -26.5t-26.5 -72.5t26.5 -73t71.5 -27t72 27z" />
    <glyph glyph-name="Racute" unicode="&#x154;" horiz-adv-x="657" 
d="M256 917h201l-93 -180h-177zM40 699h325q126 0 199 -63.5t73 -183.5q0 -78 -32.5 -133t-92.5 -84l117 -235h-212l-102 205h-68v-205h-207v699zM324 369q48 0 74.5 18.5t26.5 64.5t-26.5 64.5t-74.5 18.5h-77v-166h77z" />
    <glyph glyph-name="racute" unicode="&#x155;" horiz-adv-x="419" 
d="M124 697h201l-93 -180h-177zM40 480h193v-52q28 29 77.5 46t108.5 17v-155q-63 0 -112 -17t-67 -50v-269h-200v480z" />
    <glyph glyph-name="Rcommaaccent" unicode="&#x156;" horiz-adv-x="657" 
d="M40 699h325q126 0 199 -63.5t73 -183.5q0 -78 -32.5 -133t-92.5 -84l117 -235h-212l-102 205h-68v-205h-207v699zM324 369q48 0 74.5 18.5t26.5 64.5t-26.5 64.5t-74.5 18.5h-77v-166h77zM231 -45h197l-108 -215h-172z" />
    <glyph glyph-name="rcommaaccent" unicode="&#x157;" horiz-adv-x="413" 
d="M34 480h193v-52q28 29 77.5 46t108.5 17v-155q-63 0 -112 -17t-67 -50v-269h-200v480zM36 -45h197l-108 -215h-172z" />
    <glyph glyph-name="Rcaron" unicode="&#x158;" horiz-adv-x="657" 
d="M99 920h173l58 -71l58 71h172l-148 -172h-165zM40 699h325q126 0 199 -63.5t73 -183.5q0 -78 -32.5 -133t-92.5 -84l117 -235h-212l-102 205h-68v-205h-207v699zM324 369q48 0 74.5 18.5t26.5 64.5t-26.5 64.5t-74.5 18.5h-77v-166h77z" />
    <glyph glyph-name="rcaron" unicode="&#x159;" horiz-adv-x="411" 
d="M-73 700h173l58 -71l58 71h172l-148 -172h-165zM32 480h193v-52q28 29 77.5 46t108.5 17v-155q-63 0 -112 -17t-67 -50v-269h-200v480z" />
    <glyph glyph-name="Sacute" unicode="&#x15a;" horiz-adv-x="574" 
d="M263 917h201l-93 -180h-177zM130 -1.5q-68 13.5 -110 35.5v183q55 -30 115.5 -45t113.5 -15q77 0 77 41q0 17 -11.5 29.5t-34.5 24t-73 33.5q-97 42 -140.5 92t-43.5 124q0 62 34.5 110.5t96.5 75.5t143 27q66 0 117 -10.5t99 -33.5v-177q-87 48 -178 48q-40 0 -64 -11.5
t-24 -33.5t21.5 -35.5t81.5 -37.5l22 -9q71 -29 109.5 -57.5t55.5 -66t17 -94.5q0 -99 -72 -155t-217 -56q-67 0 -135 13.5z" />
    <glyph glyph-name="sacute" unicode="&#x15b;" horiz-adv-x="518" 
d="M216 697h201l-93 -180h-177zM130.5 -4q-65.5 11 -103.5 32v141q41 -24 100.5 -40.5t107.5 -16.5q29 0 42 3.5t13 14.5q0 10 -12.5 15t-46.5 14l-46 13q-61 18 -96.5 38.5t-52 50t-16.5 74.5q0 81 64 120.5t175 39.5q53 0 114.5 -11.5t91.5 -30.5v-139q-31 20 -83 34.5
t-95 14.5q-59 0 -59 -20q0 -9 14.5 -15t50.5 -14l42 -10q65 -17 100 -39t49 -51.5t14 -73.5q0 -71 -62.5 -113t-179.5 -42q-60 0 -125.5 11z" />
    <glyph glyph-name="Scircumflex" unicode="&#x15c;" horiz-adv-x="574" 
d="M205 920h165l148 -172h-172l-58 71l-58 -71h-173zM130 -1.5q-68 13.5 -110 35.5v183q55 -30 115.5 -45t113.5 -15q77 0 77 41q0 17 -11.5 29.5t-34.5 24t-73 33.5q-97 42 -140.5 92t-43.5 124q0 62 34.5 110.5t96.5 75.5t143 27q66 0 117 -10.5t99 -33.5v-177
q-87 48 -178 48q-40 0 -64 -11.5t-24 -33.5t21.5 -35.5t81.5 -37.5l22 -9q71 -29 109.5 -57.5t55.5 -66t17 -94.5q0 -99 -72 -155t-217 -56q-67 0 -135 13.5z" />
    <glyph glyph-name="scircumflex" unicode="&#x15d;" horiz-adv-x="507" 
d="M158 700h165l148 -172h-172l-58 71l-58 -71h-173zM115.5 -4q-65.5 11 -103.5 32v141q41 -24 100.5 -40.5t107.5 -16.5q29 0 42 3.5t13 14.5q0 10 -12.5 15t-46.5 14l-46 13q-61 18 -96.5 38.5t-52 50t-16.5 74.5q0 81 64 120.5t175 39.5q53 0 114.5 -11.5t91.5 -30.5
v-139q-31 20 -83 34.5t-95 14.5q-59 0 -59 -20q0 -9 14.5 -15t50.5 -14l42 -10q65 -17 100 -39t49 -51.5t14 -73.5q0 -71 -62.5 -113t-179.5 -42q-60 0 -125.5 11z" />
    <glyph glyph-name="Scedilla" unicode="&#x15e;" horiz-adv-x="574" 
d="M498.5 54.5q-55.5 -54.5 -167.5 -66.5l-13 -34q44 -6 68.5 -31t24.5 -62q0 -50 -40.5 -79.5t-117.5 -29.5q-71 0 -109 15v80q12 -7 30.5 -11t35.5 -4q32 0 48 8t16 29q0 24 -23 34t-79 10l28 75q-53 5 -101 17t-79 29v183q55 -30 115.5 -45t113.5 -15q77 0 77 41
q0 17 -11.5 29.5t-34.5 24t-73 33.5q-97 42 -140.5 92t-43.5 124q0 62 34.5 110.5t96.5 75.5t143 27q66 0 117 -10.5t99 -33.5v-177q-87 48 -178 48q-40 0 -64 -11.5t-24 -33.5t21.5 -35.5t81.5 -37.5l22 -9q71 -29 109.5 -57.5t55.5 -66t17 -94.5q0 -87 -55.5 -141.5z" />
    <glyph glyph-name="scedilla" unicode="&#x15f;" horiz-adv-x="518" 
d="M451 38.5q-47 -40.5 -137 -50.5l-13 -34q44 -6 68.5 -31t24.5 -62q0 -50 -40.5 -79.5t-117.5 -29.5q-71 0 -109 15v80q12 -7 30.5 -11t35.5 -4q32 0 48 8t16 29q0 24 -23 34t-79 10l29 76q-106 11 -157 39v141q41 -24 100.5 -40.5t107.5 -16.5q29 0 42 3.5t13 14.5
q0 10 -12.5 15t-46.5 14l-46 13q-61 18 -96.5 38.5t-52 50t-16.5 74.5q0 81 64 120.5t175 39.5q53 0 114.5 -11.5t91.5 -30.5v-139q-31 20 -83 34.5t-95 14.5q-59 0 -59 -20q0 -9 14.5 -15t50.5 -14l42 -10q65 -17 100 -39t49 -51.5t14 -73.5q0 -61 -47 -101.5z" />
    <glyph glyph-name="Scaron" unicode="&#x160;" horiz-adv-x="574" 
d="M56 920h173l58 -71l58 71h172l-148 -172h-165zM130 -1.5q-68 13.5 -110 35.5v183q55 -30 115.5 -45t113.5 -15q77 0 77 41q0 17 -11.5 29.5t-34.5 24t-73 33.5q-97 42 -140.5 92t-43.5 124q0 62 34.5 110.5t96.5 75.5t143 27q66 0 117 -10.5t99 -33.5v-177
q-87 48 -178 48q-40 0 -64 -11.5t-24 -33.5t21.5 -35.5t81.5 -37.5l22 -9q71 -29 109.5 -57.5t55.5 -66t17 -94.5q0 -99 -72 -155t-217 -56q-67 0 -135 13.5z" />
    <glyph glyph-name="scaron" unicode="&#x161;" horiz-adv-x="512" 
d="M25 700h173l58 -71l58 71h172l-148 -172h-165zM124.5 -4q-65.5 11 -103.5 32v141q41 -24 100.5 -40.5t107.5 -16.5q29 0 42 3.5t13 14.5q0 10 -12.5 15t-46.5 14l-46 13q-61 18 -96.5 38.5t-52 50t-16.5 74.5q0 81 64 120.5t175 39.5q53 0 114.5 -11.5t91.5 -30.5v-139
q-31 20 -83 34.5t-95 14.5q-59 0 -59 -20q0 -9 14.5 -15t50.5 -14l42 -10q65 -17 100 -39t49 -51.5t14 -73.5q0 -71 -62.5 -113t-179.5 -42q-60 0 -125.5 11z" />
    <glyph glyph-name="uni0162" unicode="&#x162;" horiz-adv-x="593" 
d="M363 0l-18 -46q44 -6 68.5 -31t24.5 -62q0 -50 -40.5 -79.5t-117.5 -29.5q-71 0 -109 15v80q12 -7 30.5 -11t35.5 -4q32 0 48 8t16 29q0 24 -23 34t-79 10l33 87h-39v525h-188v174h583v-174h-188v-525h-37z" />
    <glyph glyph-name="uni0163" unicode="&#x163;" horiz-adv-x="395" 
d="M307 -13l-13 -33q44 -6 68.5 -31t24.5 -62q0 -50 -40.5 -79.5t-117.5 -29.5q-71 0 -109 15v80q12 -7 30.5 -11t35.5 -4q32 0 48 8t16 29q0 24 -23 34t-79 10l32 83q-56 18 -85 66t-29 116v167h-66v135h66v144h201v-144h107v-135h-107v-138q0 -36 13.5 -51.5t45.5 -15.5
q36 0 69 19v-148q-39 -19 -88 -24z" />
    <glyph glyph-name="Tcaron" unicode="&#x164;" horiz-adv-x="593" 
d="M70 920h173l58 -71l58 71h172l-148 -172h-165zM193 525h-188v174h583v-174h-188v-525h-207v525z" />
    <glyph glyph-name="tcaron" unicode="&#x165;" horiz-adv-x="574" 
d="M414 799h197l-108 -215h-172zM114 37q-48 52 -48 141v167h-66v135h66v144h201v-144h107v-135h-107v-138q0 -36 13.5 -51.5t45.5 -15.5q36 0 69 19v-148q-29 -13 -60.5 -19.5t-79.5 -6.5q-93 0 -141 52z" />
    <glyph glyph-name="Tbar" unicode="&#x166;" horiz-adv-x="593" 
d="M191 240h-99v169h99v112h-186v178h583v-178h-186v-112h102v-169h-102v-240h-211v240z" />
    <glyph glyph-name="tbar" unicode="&#x167;" horiz-adv-x="395" 
d="M114.5 37q-47.5 52 -47.5 141v22h-67v106h67v41h-67v133h67v144h200v-144h107v-133h-107v-41h107v-106h-107q1 -32 15 -46t45 -14q36 0 68 19v-148q-28 -13 -59.5 -19.5t-79.5 -6.5q-94 0 -141.5 52z" />
    <glyph glyph-name="Utilde" unicode="&#x168;" horiz-adv-x="724" 
d="M162 883q35 41 107 41q22 0 44.5 -6t58.5 -19q31 -12 53.5 -18.5t44.5 -6.5q65 0 107 49v-140q-34 -41 -107 -41q-25 0 -49.5 6.5t-57.5 19.5q-33 12 -53 18t-41 6q-64 0 -107 -50v141zM179 26q-73 41 -108.5 113t-35.5 165v395h207v-393q0 -64 30.5 -97t89.5 -33
t89.5 33t30.5 97v393h207v-395q0 -93 -35.5 -165t-108.5 -113t-183 -41t-183 41z" />
    <glyph glyph-name="utilde" unicode="&#x169;" horiz-adv-x="629" 
d="M117 662q35 41 107 41q22 0 44.5 -6t58.5 -19q31 -12 53.5 -18.5t44.5 -6.5q65 0 107 49v-140q-34 -41 -107 -41q-25 0 -49.5 6.5t-57.5 19.5q-33 12 -53 18t-41 6q-64 0 -107 -50v141zM85 41q-50 56 -50 148v291h200v-267q0 -73 64 -73q29 0 52 14t37 40v286h201v-480
h-194v46q-30 -30 -72 -45.5t-88 -15.5q-100 0 -150 56z" />
    <glyph glyph-name="Umacron" unicode="&#x16a;" horiz-adv-x="724" 
d="M190 875h356v-118h-356v118zM179 26q-73 41 -108.5 113t-35.5 165v395h207v-393q0 -64 30.5 -97t89.5 -33t89.5 33t30.5 97v393h207v-395q0 -93 -35.5 -165t-108.5 -113t-183 -41t-183 41z" />
    <glyph glyph-name="umacron" unicode="&#x16b;" horiz-adv-x="629" 
d="M142 654h356v-118h-356v118zM85 41q-50 56 -50 148v291h200v-267q0 -73 64 -73q29 0 52 14t37 40v286h201v-480h-194v46q-30 -30 -72 -45.5t-88 -15.5q-100 0 -150 56z" />
    <glyph glyph-name="Ubreve" unicode="&#x16c;" horiz-adv-x="724" 
d="M224.5 790q-50.5 49 -50.5 135h149q0 -60 45 -60t45 60h149q0 -86 -50.5 -135t-143.5 -49t-143.5 49zM179 26q-73 41 -108.5 113t-35.5 165v395h207v-393q0 -64 30.5 -97t89.5 -33t89.5 33t30.5 97v393h207v-395q0 -93 -35.5 -165t-108.5 -113t-183 -41t-183 41z" />
    <glyph glyph-name="ubreve" unicode="&#x16d;" horiz-adv-x="629" 
d="M173.5 570q-50.5 49 -50.5 135h149q0 -60 45 -60t45 60h149q0 -86 -50.5 -135t-143.5 -49t-143.5 49zM85 41q-50 56 -50 148v291h200v-267q0 -73 64 -73q29 0 52 14t37 40v286h201v-480h-194v46q-30 -30 -72 -45.5t-88 -15.5q-100 0 -150 56z" />
    <glyph glyph-name="Uring" unicode="&#x16e;" horiz-adv-x="724" 
d="M292.5 760.5q-34.5 19.5 -54.5 53t-20 73.5q0 41 20 74.5t54.5 53t74.5 19.5q41 0 75.5 -19.5t54.5 -53t20 -74.5q0 -40 -20 -73.5t-54.5 -53t-75.5 -19.5q-40 0 -74.5 19.5zM404 851q15 15 15 36q0 23 -14.5 37.5t-37.5 14.5q-21 0 -36 -15t-15 -37q0 -21 15 -36t36 -15
q22 0 37 15zM179 26q-73 41 -108.5 113t-35.5 165v395h207v-393q0 -64 30.5 -97t89.5 -33t89.5 33t30.5 97v393h207v-395q0 -93 -35.5 -165t-108.5 -113t-183 -41t-183 41z" />
    <glyph glyph-name="uring" unicode="&#x16f;" horiz-adv-x="629" 
d="M243.5 540.5q-34.5 19.5 -54.5 53t-20 73.5q0 41 20 74.5t54.5 53t74.5 19.5q41 0 75.5 -19.5t54.5 -53t20 -74.5q0 -40 -20 -73.5t-54.5 -53t-75.5 -19.5q-40 0 -74.5 19.5zM355 631q15 15 15 36q0 23 -14.5 37.5t-37.5 14.5q-21 0 -36 -15t-15 -37q0 -21 15 -36t36 -15
q22 0 37 15zM85 41q-50 56 -50 148v291h200v-267q0 -73 64 -73q29 0 52 14t37 40v286h201v-480h-194v46q-30 -30 -72 -45.5t-88 -15.5q-100 0 -150 56z" />
    <glyph glyph-name="Uhungarumlaut" unicode="&#x170;" horiz-adv-x="724" 
d="M216 920h194l-93 -179h-169zM482 920h193l-92 -179h-169zM179 26q-73 41 -108.5 113t-35.5 165v395h207v-393q0 -64 30.5 -97t89.5 -33t89.5 33t30.5 97v393h207v-395q0 -93 -35.5 -165t-108.5 -113t-183 -41t-183 41z" />
    <glyph glyph-name="uhungarumlaut" unicode="&#x171;" horiz-adv-x="630" 
d="M156 700h194l-93 -179h-169zM422 700h193l-92 -179h-169zM85 41q-50 56 -50 148v291h200v-267q0 -73 64 -73q29 0 52 14t37 40v286h201v-480h-194v46q-30 -30 -72 -45.5t-88 -15.5q-100 0 -150 56z" />
    <glyph glyph-name="Uogonek" unicode="&#x172;" horiz-adv-x="724" 
d="M689 699v-395q0 -119 -56.5 -201t-170.5 -108q-37 -19 -53.5 -36t-16.5 -37q0 -13 8 -20.5t22 -7.5q25 0 49 12v-108q-52 -16 -116 -16q-61 0 -98.5 25t-37.5 75q0 69 58 110q-121 22 -181.5 105.5t-60.5 206.5v395h207v-393q0 -64 30.5 -97t89.5 -33t89.5 33t30.5 97
v393h207z" />
    <glyph glyph-name="uogonek" unicode="&#x173;" horiz-adv-x="629" 
d="M589 480v-480h-6q-42 -21 -60.5 -39t-18.5 -39q0 -13 8 -20.5t22 -7.5q25 0 49 12v-108q-52 -16 -116 -16q-61 0 -98.5 25t-37.5 75q0 38 18.5 68t51.5 50h-6v46q-30 -30 -72 -45.5t-88 -15.5q-100 0 -150 56t-50 148v291h200v-267q0 -73 64 -73q29 0 52 14t37 40v286
h201z" />
    <glyph glyph-name="Wcircumflex" unicode="&#x174;" horiz-adv-x="990" 
d="M418 920h165l148 -172h-172l-58 71l-58 -71h-173zM20 699h214l97 -366l93 366h150l85 -367l96 367h215l-186 -699h-194l-95 371l-95 -371h-194z" />
    <glyph glyph-name="wcircumflex" unicode="&#x175;" horiz-adv-x="867" 
d="M356 700h165l148 -172h-172l-58 71l-58 -71h-173zM20 480h200l67 -250l67 250h159l67 -250l67 250h200l-162 -480h-180l-72 242l-71 -242h-180z" />
    <glyph glyph-name="Ycircumflex" unicode="&#x176;" horiz-adv-x="766" 
d="M302 920h165l148 -172h-172l-58 71l-58 -71h-173zM275 266l-255 433h221l138 -241l147 241h220l-264 -433v-266h-207v266z" />
    <glyph glyph-name="ycircumflex" unicode="&#x177;" horiz-adv-x="657" 
d="M272 700h165l148 -172h-172l-58 71l-58 -71h-173zM146 -193q-38 5 -56 14v148q31 -12 68 -12q32 0 49 13.5t27 40.5l9 23l-208 446h200l114 -293l107 293h201l-192 -491q-38 -96 -96 -141.5t-150 -45.5q-35 0 -73 5z" />
    <glyph glyph-name="Ydieresis" unicode="&#x178;" horiz-adv-x="766" 
d="M203.5 770.5q-24.5 23.5 -24.5 57.5t25 58.5t58 24.5q34 0 58 -24.5t24 -58.5t-24 -57.5t-58 -23.5t-58.5 23.5zM439.5 770.5q-24.5 23.5 -24.5 57.5t24.5 58.5t58.5 24.5q33 0 57 -24.5t24 -58.5t-24 -57.5t-57 -23.5q-34 0 -58.5 23.5zM275 266l-255 433h221l138 -241
l147 241h220l-264 -433v-266h-207v266z" />
    <glyph glyph-name="Zacute" unicode="&#x179;" horiz-adv-x="611" 
d="M263 917h201l-93 -180h-177zM20 136l292 389h-285v174h541v-137l-291 -388h314v-174h-571v136z" />
    <glyph glyph-name="zacute" unicode="&#x17a;" horiz-adv-x="531" 
d="M242 697h201l-93 -180h-177zM20 104l214 241h-209v135h478v-104l-212 -241h220v-135h-491v104z" />
    <glyph glyph-name="Zdotaccent" unicode="&#x17b;" horiz-adv-x="611" 
d="M244.5 765.5q-24.5 23.5 -24.5 57.5t24.5 58.5t58.5 24.5t57.5 -24t23.5 -59q0 -34 -23.5 -57.5t-57.5 -23.5t-58.5 23.5zM20 136l292 389h-285v174h541v-137l-291 -388h314v-174h-571v136z" />
    <glyph glyph-name="zdotaccent" unicode="&#x17c;" horiz-adv-x="531" 
d="M221.5 544.5q-24.5 23.5 -24.5 57.5t24.5 58.5t58.5 24.5t57.5 -24t23.5 -59q0 -34 -23.5 -57.5t-57.5 -23.5t-58.5 23.5zM20 104l214 241h-209v135h478v-104l-212 -241h220v-135h-491v104z" />
    <glyph glyph-name="Zcaron" unicode="&#x17d;" horiz-adv-x="611" 
d="M74 920h173l58 -71l58 71h172l-148 -172h-165zM20 136l292 389h-285v174h541v-137l-291 -388h314v-174h-571v136z" />
    <glyph glyph-name="zcaron" unicode="&#x17e;" horiz-adv-x="545" 
d="M44 700h173l58 -71l58 71h172l-148 -172h-165zM20 104l214 241h-209v135h478v-104l-212 -241h220v-135h-491v104z" />
    <glyph glyph-name="uni018F" unicode="&#x18f;" horiz-adv-x="823" 
d="M194 31.5q-87 46.5 -130.5 127t-43.5 182.5v85h531q-11 59 -61.5 87.5t-156.5 28.5q-66 0 -135 -11t-120 -31v164q55 23 132.5 36.5t161.5 13.5q134 0 231 -42.5t148.5 -124t51.5 -195.5q0 -112 -45.5 -194.5t-134.5 -127.5t-216 -45q-126 0 -213 46.5zM507 187.5
q38 33.5 44 90.5h-301q7 -53 46 -88.5t106 -35.5t105 33.5z" />
    <glyph glyph-name="florin" unicode="&#x192;" horiz-adv-x="562" 
d="M-110 -213l29 141q27 -15 61 -15q40 0 63.5 18.5t31.5 56.5l78 370h-69l24 122h70l13 60q23 107 87 155.5t173 48.5q61 0 97 -18l-28 -140q-26 14 -63 14q-78 0 -93 -75l-10 -45h118l-24 -122h-119l-82 -384q-22 -107 -84.5 -155.5t-175.5 -48.5q-61 0 -97 17z" />
    <glyph glyph-name="Ohorn" unicode="&#x1a0;" horiz-adv-x="907" 
d="M205.5 31q-86.5 46 -136 128.5t-49.5 189.5t49.5 190t136 129t192.5 46q71 0 134.5 -21.5t112.5 -61.5q55 0 77 20.5t22 62.5v33h163v-46q0 -79 -42.5 -133t-120.5 -68q30 -71 30 -151q0 -107 -49.5 -189.5t-135 -128.5t-191.5 -46t-192.5 46zM514 227q46 45 46 122
q0 76 -46 121t-116 45q-71 0 -117.5 -45t-46.5 -121q0 -77 46.5 -122t117.5 -45q70 0 116 45z" />
    <glyph glyph-name="ohorn" unicode="&#x1a1;" horiz-adv-x="750" 
d="M162.5 17.5q-68.5 32.5 -105.5 90.5t-37 132q0 73 37 131t105.5 91t160.5 33q117 0 198 -54q37 6 53 27t16 57v33h160v-46q0 -71 -35 -122.5t-100 -71.5q12 -37 12 -78q0 -74 -37 -132t-106 -90.5t-161 -32.5t-160.5 32.5zM395 167q27 27 27 73t-27 72.5t-72 26.5
t-71.5 -26.5t-26.5 -72.5t26.5 -73t71.5 -27t72 27z" />
    <glyph glyph-name="Uhorn" unicode="&#x1af;" horiz-adv-x="902" 
d="M120 69.5q-80 84.5 -80 223.5v406h185v-403q0 -71 34 -106.5t99 -35.5t98.5 35.5t33.5 106.5v403h186v-67q46 0 62 18t16 63v34h148v-45q0 -89 -55 -142.5t-171 -53.5v-213q0 -139 -80 -223.5t-238 -84.5t-238 84.5z" />
    <glyph glyph-name="uhorn" unicode="&#x1b0;" horiz-adv-x="802" 
d="M85 41q-50 56 -50 148v291h200v-267q0 -73 64 -73q29 0 52 14t37 40v286h201v-37q38 3 51.5 21.5t13.5 59.5v34h148v-45q0 -86 -52 -139t-161 -57v-317h-194v46q-30 -30 -72 -45.5t-88 -15.5q-100 0 -150 56z" />
    <glyph glyph-name="uni01CD" unicode="&#x1cd;" horiz-adv-x="798" 
d="M169 920h173l58 -71l58 71h172l-148 -172h-165zM300 699h199l279 -699h-212l-52 133h-229l-53 -133h-212zM466 290l-67 196l-67 -196h134z" />
    <glyph glyph-name="uni01CE" unicode="&#x1ce;" horiz-adv-x="620" 
d="M104 700h173l58 -71l58 71h172l-148 -172h-165zM45.5 27.5q-55.5 42.5 -55.5 121.5q0 81 54 123.5t157 42.5q37 0 75 -8t64 -20v9q0 33 -32.5 50t-90.5 17q-87 0 -160 -35v132q33 16 86 25.5t113 9.5q139 0 212 -53t73 -150v-292h-189v38q-24 -24 -66 -38.5t-93 -14.5
q-92 0 -147.5 42.5zM305 111q23 10 35 26v37q-37 24 -84 24q-28 0 -43.5 -13t-15.5 -36q0 -22 15 -35t43 -13q27 0 50 10z" />
    <glyph glyph-name="uni01CF" unicode="&#x1cf;" horiz-adv-x="287" 
d="M-87 923h173l58 -71l58 71h172l-148 -172h-165zM40 699h207v-699h-207v699z" />
    <glyph glyph-name="uni01D0" unicode="&#x1d0;" horiz-adv-x="281" 
d="M-90 702h173l58 -71l58 71h172l-148 -172h-165zM41 480h200v-480h-200v480z" />
    <glyph glyph-name="uni01D1" unicode="&#x1d1;" horiz-adv-x="794" 
d="M167 920h173l58 -71l58 71h172l-148 -172h-165zM205.5 31q-86.5 46 -136 128.5t-49.5 189.5t49.5 190t136 129t192.5 46t191.5 -46t135 -129t49.5 -190t-49.5 -189.5t-135 -128.5t-191.5 -46t-192.5 46zM481.5 199.5q37.5 20.5 59.5 59t22 90.5q0 77 -47 123t-118 46
q-72 0 -119.5 -46t-47.5 -123q0 -52 22 -90.5t60 -59t85 -20.5q46 0 83.5 20.5z" />
    <glyph glyph-name="uni01D2" unicode="&#x1d2;" horiz-adv-x="647" 
d="M93 700h173l58 -71l58 71h172l-148 -172h-165zM162.5 17.5q-68.5 32.5 -105.5 90.5t-37 132q0 73 37 131t105.5 91t160.5 33t161 -33t106 -91t37 -131q0 -74 -37 -132t-106 -90.5t-161 -32.5t-160.5 32.5zM395 167q27 27 27 73t-27 72.5t-72 26.5t-71.5 -26.5
t-26.5 -72.5t26.5 -73t71.5 -27t72 27z" />
    <glyph glyph-name="uni01D3" unicode="&#x1d3;" horiz-adv-x="724" 
d="M137 920h173l58 -71l58 71h172l-148 -172h-165zM179 26q-73 41 -108.5 113t-35.5 165v395h207v-393q0 -64 30.5 -97t89.5 -33t89.5 33t30.5 97v393h207v-395q0 -93 -35.5 -165t-108.5 -113t-183 -41t-183 41z" />
    <glyph glyph-name="uni01D4" unicode="&#x1d4;" horiz-adv-x="629" 
d="M89 700h173l58 -71l58 71h172l-148 -172h-165zM85 41q-50 56 -50 148v291h200v-267q0 -73 64 -73q29 0 52 14t37 40v286h201v-480h-194v46q-30 -30 -72 -45.5t-88 -15.5q-100 0 -150 56z" />
    <glyph glyph-name="uni01D5" unicode="&#x1d5;" horiz-adv-x="724" 
d="M190 1072h356v-118h-356v118zM192.5 764.5q-24.5 23.5 -24.5 57.5t25 58.5t58 24.5q34 0 58 -24.5t24 -58.5t-24 -57.5t-58 -23.5t-58.5 23.5zM428.5 764.5q-24.5 23.5 -24.5 57.5t24.5 58.5t58.5 24.5q33 0 57 -24.5t24 -58.5t-24 -57.5t-57 -23.5q-34 0 -58.5 23.5z
M179 26q-73 41 -108.5 113t-35.5 165v395h207v-393q0 -64 30.5 -97t89.5 -33t89.5 33t30.5 97v393h207v-395q0 -93 -35.5 -165t-108.5 -113t-183 -41t-183 41z" />
    <glyph glyph-name="uni01D6" unicode="&#x1d6;" horiz-adv-x="629" 
d="M145 864h356v-118h-356v118zM147.5 544.5q-24.5 23.5 -24.5 57.5t25 58.5t58 24.5q34 0 58 -24.5t24 -58.5t-24 -57.5t-58 -23.5t-58.5 23.5zM383.5 544.5q-24.5 23.5 -24.5 57.5t24.5 58.5t58.5 24.5q33 0 57 -24.5t24 -58.5t-24 -57.5t-57 -23.5q-34 0 -58.5 23.5z
M85 41q-50 56 -50 148v291h200v-267q0 -73 64 -73q29 0 52 14t37 40v286h201v-480h-194v46q-30 -30 -72 -45.5t-88 -15.5q-100 0 -150 56z" />
    <glyph glyph-name="uni01D7" unicode="&#x1d7;" horiz-adv-x="724" 
d="M355 1052h164l-82 -144h-140zM195.5 773.5q-22.5 21.5 -22.5 52.5t23 53.5t53 22.5q31 0 53 -22.5t22 -53.5t-22 -52.5t-53 -21.5t-53.5 21.5zM431.5 773.5q-22.5 21.5 -22.5 52.5t22.5 53.5t53.5 22.5q30 0 52 -22.5t22 -53.5t-22 -52.5t-52 -21.5q-31 0 -53.5 21.5z
M179 26q-73 41 -108.5 113t-35.5 165v395h207v-393q0 -64 30.5 -97t89.5 -33t89.5 33t30.5 97v393h207v-395q0 -93 -35.5 -165t-108.5 -113t-183 -41t-183 41z" />
    <glyph glyph-name="uni01D8" unicode="&#x1d8;" horiz-adv-x="629" 
d="M299 828h164l-82 -144h-140zM139.5 549.5q-22.5 21.5 -22.5 52.5t23 53.5t53 22.5q31 0 53 -22.5t22 -53.5t-22 -52.5t-53 -21.5t-53.5 21.5zM375.5 549.5q-22.5 21.5 -22.5 52.5t22.5 53.5t53.5 22.5q30 0 52 -22.5t22 -53.5t-22 -52.5t-52 -21.5q-31 0 -53.5 21.5z
M85 41q-50 56 -50 148v291h200v-267q0 -73 64 -73q29 0 52 14t37 40v286h201v-480h-194v46q-30 -30 -72 -45.5t-88 -15.5q-100 0 -150 56z" />
    <glyph glyph-name="uni01D9" unicode="&#x1d9;" horiz-adv-x="724" 
d="M185 1017h137l41 -46l41 46h137l-125 -126h-105zM193 770.5q-22 21.5 -22 52.5t22 53.5t52 22.5q31 0 53.5 -22.5t22.5 -53.5t-22.5 -52.5t-53.5 -21.5q-30 0 -52 21.5zM428 770.5q-22 21.5 -22 52.5t22 53.5t53 22.5q30 0 53 -22.5t23 -53.5t-22.5 -52.5t-53.5 -21.5
t-53 21.5zM179 26q-73 41 -108.5 113t-35.5 165v395h207v-393q0 -64 30.5 -97t89.5 -33t89.5 33t30.5 97v393h207v-395q0 -93 -35.5 -165t-108.5 -113t-183 -41t-183 41z" />
    <glyph glyph-name="uni01DA" unicode="&#x1da;" horiz-adv-x="629" 
d="M132 796h137l41 -46l41 46h137l-125 -126h-105zM140 549.5q-22 21.5 -22 52.5t22 53.5t52 22.5q31 0 53.5 -22.5t22.5 -53.5t-22.5 -52.5t-53.5 -21.5q-30 0 -52 21.5zM375 549.5q-22 21.5 -22 52.5t22 53.5t53 22.5q30 0 53 -22.5t23 -53.5t-22.5 -52.5t-53.5 -21.5
t-53 21.5zM85 41q-50 56 -50 148v291h200v-267q0 -73 64 -73q29 0 52 14t37 40v286h201v-480h-194v46q-30 -30 -72 -45.5t-88 -15.5q-100 0 -150 56z" />
    <glyph glyph-name="uni01DB" unicode="&#x1db;" horiz-adv-x="724" 
d="M214 1049h164l58 -144h-140zM196 770.5q-22 21.5 -22 52.5t22 53.5t52 22.5q31 0 53.5 -22.5t22.5 -53.5t-22.5 -52.5t-53.5 -21.5q-30 0 -52 21.5zM431 770.5q-22 21.5 -22 52.5t22 53.5t53 22.5q30 0 53 -22.5t23 -53.5t-22.5 -52.5t-53.5 -21.5t-53 21.5zM179 26
q-73 41 -108.5 113t-35.5 165v395h207v-393q0 -64 30.5 -97t89.5 -33t89.5 33t30.5 97v393h207v-395q0 -93 -35.5 -165t-108.5 -113t-183 -41t-183 41z" />
    <glyph glyph-name="uni01DC" unicode="&#x1dc;" horiz-adv-x="629" 
d="M160 828h164l58 -144h-140zM142 549.5q-22 21.5 -22 52.5t22 53.5t52 22.5q31 0 53.5 -22.5t22.5 -53.5t-22.5 -52.5t-53.5 -21.5q-30 0 -52 21.5zM377 549.5q-22 21.5 -22 52.5t22 53.5t53 22.5q30 0 53 -22.5t23 -53.5t-22.5 -52.5t-53.5 -21.5t-53 21.5zM85 41
q-50 56 -50 148v291h200v-267q0 -73 64 -73q29 0 52 14t37 40v286h201v-480h-194v46q-30 -30 -72 -45.5t-88 -15.5q-100 0 -150 56z" />
    <glyph glyph-name="Gcaron" unicode="&#x1e6;" horiz-adv-x="691" 
d="M119 926h173l58 -71l58 71h172l-148 -172h-165zM201 29q-87 44 -134 126t-47 194t47 194.5t134 126.5t203 44q156 0 244 -58v-191q-44 33 -99 48t-127 15q-94 0 -142.5 -47t-48.5 -132q0 -89 46.5 -134.5t134.5 -45.5q43 0 70 12v89h-96v131h285v-350q-106 -66 -267 -66
q-116 0 -203 44z" />
    <glyph glyph-name="gcaron" unicode="&#x1e7;" horiz-adv-x="669" 
d="M102 710h173l58 -71l58 71h172l-148 -172h-165zM207.5 -221q-49.5 9 -85.5 24v133q79 -34 182 -34q65 0 95 26.5t30 77.5v28q-27 -22 -67.5 -35.5t-85.5 -13.5q-76 0 -134.5 32t-90 90t-31.5 133q0 76 31.5 134t89.5 89.5t134 31.5q47 0 89 -15.5t72 -43.5v44h193v-445
q0 -126 -79 -195.5t-246 -69.5q-47 0 -96.5 9zM389.5 156.5q26.5 16.5 39.5 44.5v78q-13 28 -39.5 44t-60.5 16q-47 0 -74.5 -26t-27.5 -72q0 -48 27.5 -74.5t74.5 -26.5q34 0 60.5 16.5z" />
    <glyph glyph-name="Aringacute" unicode="&#x1fa;" horiz-adv-x="798" 
d="M483 935h-177l69 144h201zM778 0h-212l-52 133h-229l-53 -133h-212l269 673q-18 19 -28.5 44.5t-10.5 54.5q0 41 20 74.5t54.5 53t74.5 19.5q41 0 75.5 -19.5t54.5 -53t20 -74.5q0 -57 -39 -99zM363 809q-15 -15 -15 -37q0 -21 15 -36t36 -15q22 0 37 15t15 36
q0 23 -14.5 37.5t-37.5 14.5q-21 0 -36 -15zM466 290l-67 196l-67 -196h134z" />
    <glyph glyph-name="aringacute" unicode="&#x1fb;" horiz-adv-x="606" 
d="M288 979h201l-93 -144h-177zM244.5 539.5q-34.5 19.5 -54.5 53t-20 73.5q0 41 20 74.5t54.5 53t74.5 19.5q41 0 75.5 -19.5t54.5 -53t20 -74.5q0 -40 -20 -73.5t-54.5 -53t-75.5 -19.5q-40 0 -74.5 19.5zM356 630q15 15 15 36q0 23 -14.5 37.5t-37.5 14.5q-21 0 -36 -15
t-15 -37q0 -21 15 -36t36 -15q22 0 37 15zM45.5 27.5q-55.5 42.5 -55.5 121.5q0 81 54 123.5t157 42.5q37 0 75 -8t64 -20v9q0 33 -32.5 50t-90.5 17q-87 0 -160 -35v132q33 16 86 25.5t113 9.5q139 0 212 -53t73 -150v-292h-189v38q-24 -24 -66 -38.5t-93 -14.5
q-92 0 -147.5 42.5zM305 111q23 10 35 26v37q-37 24 -84 24q-28 0 -43.5 -13t-15.5 -36q0 -22 15 -35t43 -13q27 0 50 10z" />
    <glyph glyph-name="AEacute" unicode="&#x1fc;" horiz-adv-x="918" 
d="M523 917h201l-93 -180h-177zM313 699h585v-174h-280v-96h197v-159h-197v-96h280v-174h-466v133h-141l-55 -133h-216zM432 292v233h-6l-92 -233h98z" />
    <glyph glyph-name="aeacute" unicode="&#x1fd;" horiz-adv-x="955" 
d="M417 703h201l-93 -180h-177zM78 27q-58 42 -58 122t53.5 123t152.5 43q37 0 75 -8t64 -20v9q0 33 -32.5 50t-90.5 17q-87 0 -160 -35v132q33 16 86 25.5t113 9.5q117 0 192 -56q35 26 83 41t102 15q88 0 150.5 -32.5t94.5 -89.5t32 -128v-63h-369q25 -66 144 -66
q48 0 98.5 7.5t85.5 21.5v-125q-38 -16 -92.5 -25.5t-113.5 -9.5q-67 0 -122.5 18t-93.5 51q-45 -33 -101.5 -51t-135.5 -18q-99 0 -157 42zM746 295q-5 32 -28 50t-63 18t-62 -18.5t-27 -49.5h180zM329 110.5q23 9.5 36 25.5v38q-37 24 -84 24q-28 0 -43.5 -13t-15.5 -36
q0 -22 15 -35t43 -13q26 0 49 9.5z" />
    <glyph glyph-name="Oslashacute" unicode="&#x1fe;" horiz-adv-x="794" 
d="M332 921h211l-92 -179h-187zM200 34q-84 46 -132 128t-48 187q0 107 49.5 190t136 129t192.5 46q38 0 72 -6l31 76h137l-47 -117q85 -46 134 -129t49 -189q0 -107 -49.5 -189.5t-135 -128.5t-191.5 -46q-35 0 -79 7l-31 -78h-136zM393 515q-70 -2 -114.5 -47t-44.5 -119
q0 -76 44 -120zM398 182q70 0 116 45t46 122q0 76 -48 122l-116 -289h2z" />
    <glyph glyph-name="oslashacute" unicode="&#x1ff;" horiz-adv-x="647" 
d="M222 703h201l-93 -180h-177zM175 12q-73 30 -114 90t-41 138q0 73 37 131t105.5 91t160.5 33q24 0 45 -3l30 74h111l-40 -98q75 -31 116.5 -91t41.5 -137q0 -74 -37 -132t-106 -90.5t-161 -32.5q-25 0 -48 3l-29 -74h-110zM308 342q-41 -5 -64 -32t-23 -70q0 -39 19 -66z
M401 169q24 27 24 71q0 42 -21 67l-68 -170q41 5 65 32z" />
    <glyph glyph-name="Scommaaccent" unicode="&#x218;" horiz-adv-x="574" 
d="M130 -1.5q-68 13.5 -110 35.5v183q55 -30 115.5 -45t113.5 -15q77 0 77 41q0 17 -11.5 29.5t-34.5 24t-73 33.5q-97 42 -140.5 92t-43.5 124q0 62 34.5 110.5t96.5 75.5t143 27q66 0 117 -10.5t99 -33.5v-177q-87 48 -178 48q-40 0 -64 -11.5t-24 -33.5t21.5 -35.5
t81.5 -37.5l22 -9q71 -29 109.5 -57.5t55.5 -66t17 -94.5q0 -99 -72 -155t-217 -56q-67 0 -135 13.5zM193 -45h206l-107 -214h-183z" />
    <glyph glyph-name="scommaaccent" unicode="&#x219;" horiz-adv-x="518" 
d="M130.5 -4q-65.5 11 -103.5 32v141q41 -24 100.5 -40.5t107.5 -16.5q29 0 42 3.5t13 14.5q0 10 -12.5 15t-46.5 14l-46 13q-61 18 -96.5 38.5t-52 50t-16.5 74.5q0 81 64 120.5t175 39.5q53 0 114.5 -11.5t91.5 -30.5v-139q-31 20 -83 34.5t-95 14.5q-59 0 -59 -20
q0 -9 14.5 -15t50.5 -14l42 -10q65 -17 100 -39t49 -51.5t14 -73.5q0 -71 -62.5 -113t-179.5 -42q-60 0 -125.5 11zM175 -45h206l-107 -214h-183z" />
    <glyph glyph-name="uni021A" unicode="&#x21a;" horiz-adv-x="593" 
d="M193 525h-188v174h583v-174h-188v-525h-207v525zM196 -45h197l-108 -215h-172z" />
    <glyph glyph-name="uni021B" unicode="&#x21b;" horiz-adv-x="395" 
d="M114 37q-48 52 -48 141v167h-66v135h66v144h201v-144h107v-135h-107v-138q0 -36 13.5 -51.5t45.5 -15.5q36 0 69 19v-148q-29 -13 -60.5 -19.5t-79.5 -6.5q-93 0 -141 52zM152 -45h197l-108 -215h-172z" />
    <glyph glyph-name="uni0237" unicode="&#x237;" horiz-adv-x="284" 
d="M-95 -212v159q30 -15 71 -15q31 0 49 16.5t18 50.5v481h201v-506q0 -101 -65.5 -153t-171.5 -52q-62 0 -102 19z" />
    <glyph glyph-name="uni0251" unicode="&#x251;" horiz-adv-x="669" 
d="M141 16.5q-58 31.5 -89.5 89t-31.5 133.5q0 75 31.5 133.5t89.5 90.5t134 32q46 0 86.5 -13.5t67.5 -36.5v35h200v-480h-193v44q-30 -29 -71.5 -44t-89.5 -15q-76 0 -134 31.5zM389.5 156q26.5 16 39.5 44v79q-13 28 -39.5 44t-60.5 16q-47 0 -74.5 -26.5t-27.5 -73.5
t27.5 -73t74.5 -26q34 0 60.5 16z" />
    <glyph glyph-name="uni0259" unicode="&#x259;" horiz-adv-x="600" 
d="M146 17.5q-62 32.5 -94 89.5t-32 128v65h369q-24 64 -145 64q-46 0 -96.5 -8t-87.5 -22v126q39 16 96 25.5t116 9.5q145 0 226.5 -66t81.5 -187q0 -119 -73.5 -188t-210.5 -69q-88 0 -150 32.5zM361.5 135q22.5 18 27.5 48h-180q5 -31 28 -48.5t63 -17.5q39 0 61.5 18z
" />
    <glyph glyph-name="uni02BB" unicode="&#x2bb;" horiz-adv-x="293" 
d="M104 714h169l-63 -202h-190z" />
    <glyph glyph-name="uni02BC" unicode="&#x2bc;" horiz-adv-x="293" 
d="M83 714h190l-84 -202h-169z" />
    <glyph glyph-name="uni02BE" unicode="&#x2be;" 
d="M-93 627q60 0 60 42q0 43 -60 43v132q87 0 136 -44t49 -131q0 -86 -49 -130.5t-136 -44.5v133z" />
    <glyph glyph-name="uni02BF" unicode="&#x2bf;" 
d="M-44 538.5q-49 44.5 -49 130.5q0 87 49 131t136 44v-132q-60 0 -60 -43q0 -42 60 -42v-133q-87 0 -136 44.5z" />
    <glyph glyph-name="circumflex" unicode="&#x2c6;" horiz-adv-x="541" 
d="M188 750h165l148 -172h-172l-58 71l-58 -71h-173z" />
    <glyph glyph-name="caron" unicode="&#x2c7;" horiz-adv-x="540" 
d="M39 750h173l58 -71l58 71h172l-148 -172h-165z" />
    <glyph glyph-name="uni02C8" unicode="&#x2c8;" 
d="M-74 776h145v-209h-145v209z" />
    <glyph glyph-name="uni02C9" unicode="&#x2c9;" horiz-adv-x="589" 
d="M105 692h373v-128h-373v128z" />
    <glyph glyph-name="uni02CA" unicode="&#x2ca;" 
d="M-74 749h201l-93 -179h-177z" />
    <glyph glyph-name="uni02CB" unicode="&#x2cb;" 
d="M-51 749h177l-69 -179h-201z" />
    <glyph glyph-name="uni02CC" unicode="&#x2cc;" 
d="M-74 -54h145v-208h-145v208z" />
    <glyph glyph-name="breve" unicode="&#x2d8;" horiz-adv-x="428" 
d="M70.5 613q-50.5 49 -50.5 135h149q0 -60 45 -60t45 60h149q0 -86 -50.5 -135t-143.5 -49t-143.5 49z" />
    <glyph glyph-name="dotaccent" unicode="&#x2d9;" horiz-adv-x="204" 
d="M44.5 589.5q-24.5 23.5 -24.5 57.5t24.5 58.5t58.5 24.5t57.5 -24t23.5 -59q0 -34 -23.5 -57.5t-57.5 -23.5t-58.5 23.5z" />
    <glyph glyph-name="ring" unicode="&#x2da;" horiz-adv-x="339" 
d="M94.5 521.5q-34.5 19.5 -54.5 53t-20 73.5q0 41 20 74.5t54.5 53t74.5 19.5q41 0 75.5 -19.5t54.5 -53t20 -74.5q0 -40 -20 -73.5t-54.5 -53t-75.5 -19.5q-40 0 -74.5 19.5zM206 612q15 15 15 36q0 23 -14.5 37.5t-37.5 14.5q-21 0 -36 -15t-15 -37q0 -21 15 -36t36 -15
q22 0 37 15z" />
    <glyph glyph-name="ogonek" unicode="&#x2db;" horiz-adv-x="292" 
d="M57.5 -193q-37.5 25 -37.5 75q0 38 18.5 68t51.5 50h182q-42 -21 -60.5 -39t-18.5 -39q0 -13 8 -20.5t22 -7.5q25 0 49 12v-108q-52 -16 -116 -16q-61 0 -98.5 25z" />
    <glyph glyph-name="tilde" unicode="&#x2dc;" horiz-adv-x="455" 
d="M20 712q35 41 107 41q22 0 44.5 -6t58.5 -19q31 -12 53.5 -18.5t44.5 -6.5q65 0 107 49v-140q-34 -41 -107 -41q-25 0 -49.5 6.5t-57.5 19.5q-33 12 -53 18t-41 6q-64 0 -107 -50v141z" />
    <glyph glyph-name="hungarumlaut" unicode="&#x2dd;" horiz-adv-x="567" 
d="M88 749h194l-93 -179h-169zM354 749h193l-92 -179h-169z" />
    <glyph glyph-name="gravecomb" unicode="&#x300;" 
d="M-522 746h201l69 -180h-177z" />
    <glyph glyph-name="acutecomb" unicode="&#x301;" 
d="M-361 746h201l-93 -180h-177z" />
    <glyph glyph-name="uni0302" unicode="&#x302;" 
d="M-83 750h165l148 -172h-172l-58 71l-58 -71h-173z" />
    <glyph glyph-name="tildecomb" unicode="&#x303;" 
d="M-516 712q35 41 107 41q22 0 44.5 -6t58.5 -19q31 -12 53.5 -18.5t44.5 -6.5q65 0 107 49v-140q-34 -41 -107 -41q-25 0 -49.5 6.5t-57.5 19.5q-33 12 -53 18t-41 6q-64 0 -107 -50v141z" />
    <glyph glyph-name="uni0304" unicode="&#x304;" 
d="M-173 692h356v-118h-356v118z" />
    <glyph glyph-name="uni0306" unicode="&#x306;" 
d="M-143.5 613q-50.5 49 -50.5 135h149q0 -60 45 -60t45 60h149q0 -86 -50.5 -135t-143.5 -49t-143.5 49z" />
    <glyph glyph-name="uni0307" unicode="&#x307;" 
d="M-58.5 589.5q-24.5 23.5 -24.5 57.5t24.5 58.5t58.5 24.5t57.5 -24t23.5 -59q0 -34 -23.5 -57.5t-57.5 -23.5t-58.5 23.5z" />
    <glyph glyph-name="uni0308" unicode="&#x308;" 
d="M-176.5 589.5q-24.5 23.5 -24.5 57.5t25 58.5t58 24.5q34 0 58 -24.5t24 -58.5t-24 -57.5t-58 -23.5t-58.5 23.5zM59.5 589.5q-24.5 23.5 -24.5 57.5t24.5 58.5t58.5 24.5q33 0 57 -24.5t24 -58.5t-24 -57.5t-57 -23.5q-34 0 -58.5 23.5z" />
    <glyph glyph-name="hookabovecomb" unicode="&#x309;" 
d="M-452 638q89 0 89 39q0 33 -62 33q-17 0 -35 -3t-27 -7v84q56 18 130 18q82 0 125 -30t43 -80q0 -37 -24.5 -62.5t-72.5 -33.5v-30h-166v72z" />
    <glyph glyph-name="uni030A" unicode="&#x30a;" 
d="M-62.5 521.5q-34.5 19.5 -54.5 53t-20 73.5q0 41 20 74.5t54.5 53t74.5 19.5q41 0 75.5 -19.5t54.5 -53t20 -74.5q0 -40 -20 -73.5t-54.5 -53t-75.5 -19.5q-40 0 -74.5 19.5zM49 612q15 15 15 36q0 23 -14.5 37.5t-37.5 14.5q-21 0 -36 -15t-15 -37q0 -21 15 -36t36 -15
q22 0 37 15z" />
    <glyph glyph-name="uni030B" unicode="&#x30b;" 
d="M-211 749h194l-93 -179h-169zM55 749h193l-92 -179h-169z" />
    <glyph glyph-name="uni030C" unicode="&#x30c;" 
d="M-231 750h173l58 -71l58 71h172l-148 -172h-165z" />
    <glyph glyph-name="uni031B" unicode="&#x31b;" 
d="M-109 636q43 0 60.5 19t17.5 59v33h159v-46q0 -92 -58.5 -147t-178.5 -55v137z" />
    <glyph glyph-name="dotbelowcomb" unicode="&#x323;" 
d="M-58.5 -186q-24.5 24 -24.5 58t24.5 58t58.5 24t57.5 -24t23.5 -58t-23.5 -58t-57.5 -24t-58.5 24z" />
    <glyph glyph-name="uni0324" unicode="&#x324;" 
d="M-173 -186q-25 24 -25 58t25 58t58 24q34 0 58 -24t24 -58t-24 -58t-58 -24q-33 0 -58 24zM56.5 -186q-24.5 24 -24.5 58t24.5 58t58.5 24q33 0 57 -24t24 -58t-24 -58t-57 -24q-34 0 -58.5 24z" />
    <glyph glyph-name="uni0326" unicode="&#x326;" 
d="M-217 -45h197l-108 -215h-172z" />
    <glyph glyph-name="uni0327" unicode="&#x327;" 
d="M-141 -233v80q12 -7 30.5 -11t35.5 -4q32 0 48 8t16 29q0 24 -23 34t-79 10l33 87h131l-18 -46q44 -6 68.5 -31t24.5 -62q0 -50 -40.5 -79.5t-117.5 -29.5q-71 0 -109 15z" />
    <glyph glyph-name="uni0328" unicode="&#x328;" 
d="M-85.5 -193q-37.5 25 -37.5 75q0 38 18.5 68t51.5 50h182q-42 -21 -60.5 -39t-18.5 -39q0 -13 8 -20.5t22 -7.5q25 0 49 12v-108q-52 -16 -116 -16q-61 0 -98.5 25z" />
    <glyph glyph-name="uni032E" unicode="&#x32e;" 
d="M-143.5 -187q-50.5 49 -50.5 135h149q0 -60 45 -60t45 60h149q0 -86 -50.5 -135t-143.5 -49t-143.5 49z" />
    <glyph glyph-name="uni0331" unicode="&#x331;" 
d="M-173 -54h356v-118h-356v118z" />
    <glyph glyph-name="uni0394" unicode="&#x394;" horiz-adv-x="687" 
d="M20 142l242 572h163l242 -572v-142h-647v142zM468 172l-125 293l-125 -293h250z" />
    <glyph glyph-name="uni03A9" unicode="&#x3a9;" horiz-adv-x="799" 
d="M20 171h93q-44 39 -68 93t-24 121q0 99 46.5 173.5t132.5 115t199 40.5q114 0 199.5 -40.5t132.5 -115t47 -173.5q0 -67 -24 -121t-68 -93h93v-171h-345v152q66 38 99.5 87t33.5 113q0 77 -46 122t-122 45t-121.5 -45t-45.5 -122q0 -64 33.5 -113t99.5 -87v-152h-345v171
z" />
    <glyph glyph-name="uni03BC" unicode="&#x3bc;" horiz-adv-x="615" 
d="M40 480h176v-275q0 -83 75 -83q34 0 62 16t46 47v295h176v-480h-170v52q-31 -33 -75 -50t-92 -17q-15 0 -22 1v-205h-176v699z" />
    <glyph glyph-name="pi" unicode="&#x3c0;" horiz-adv-x="669" 
d="M392.5 36.5q-45.5 51.5 -45.5 143.5v120h-70v-300h-201v300h-66v180h604v-180h-66v-100q0 -32 11.5 -45.5t38.5 -13.5q29 0 61 19v-150q-52 -25 -127 -25q-94 0 -139.5 51.5z" />
    <glyph glyph-name="uni0E01" unicode="&#xe01;" horiz-adv-x="662" 
d="M65 305l-50 89q127 156 321 156q137 0 211.5 -60t74.5 -165v-325h-200v310q0 84 -87 84q-63 0 -105 -31l36 -62v-301h-201v305z" />
    <glyph glyph-name="uni0E02" unicode="&#xe02;" horiz-adv-x="631" 
d="M156.5 9.5q-63.5 24.5 -96.5 67.5t-33 99v26q0 38 12.5 66t35.5 60q14 19 20 31t6 23q0 24 -28 24h-53v129h185q48 0 75 -25.5t27 -68.5q0 -29 -10.5 -51.5t-30.5 -53.5q-19 -28 -29 -49.5t-10 -47.5v-20q0 -40 21.5 -59.5t61.5 -19.5q43 0 63 22.5t20 60.5v312h198v-305
q0 -116 -70.5 -180.5t-210.5 -64.5q-90 0 -153.5 24.5z" />
    <glyph glyph-name="uni0E03" unicode="&#xe03;" horiz-adv-x="650" 
d="M176 9.5q-63 24.5 -95.5 67.5t-32.5 99v27q0 33 12.5 63t26.5 48.5t45 57.5q-15 -6 -39 -6q-32 0 -52.5 19.5t-20.5 61.5v88h131v-35q0 -26 24 -26q16 0 26 8v53h139v-79q0 -33 -12.5 -59t-36.5 -60q-22 -30 -32.5 -51.5t-10.5 -45.5v-22q0 -78 81 -78q43 0 63 22t20 60
v313h198v-305q0 -116 -70.5 -180.5t-210.5 -64.5q-90 0 -153 24.5z" />
    <glyph glyph-name="uni0E04" unicode="&#xe04;" horiz-adv-x="667" 
d="M40 316q0 117 79 175.5t214 58.5t214.5 -58.5t79.5 -175.5v-316h-201v307q0 43 -23.5 65t-69.5 22t-69.5 -22t-23.5 -65v-50q11 11 30 17t40 6h70v-137h-80q-29 0 -44.5 -15.5t-15.5 -45.5v-82h-200v316z" />
    <glyph glyph-name="uni0E05" unicode="&#xe05;" horiz-adv-x="667" 
d="M40 374q0 79 45 127.5t131 48.5q83 0 117 -45q35 45 118 45q86 0 131 -48.5t45 -127.5v-374h-201v351q0 22 -6.5 32.5t-23.5 10.5q-15 0 -22.5 -10.5t-11.5 -30.5h-58q-3 20 -10.5 30.5t-22.5 10.5q-17 0 -24 -10.5t-7 -32.5v-94q11 10 29.5 16.5t40.5 6.5h70v-137h-80
q-29 0 -44.5 -16.5t-15.5 -44.5v-82h-200v374z" />
    <glyph glyph-name="uni0E06" unicode="&#xe06;" horiz-adv-x="647" 
d="M307 2q-44 17 -72 48v-50h-187v203q0 33 12.5 63t26.5 48.5t45 57.5q-15 -6 -39 -6q-32 0 -52.5 19.5t-20.5 61.5v88h131v-35q0 -26 24 -26q16 0 26 8v53h137v-79q0 -33 -12.5 -59t-36.5 -60q-22 -30 -32.5 -51.5t-10.5 -45.5v-46q27 -54 86 -54q36 0 55.5 18.5
t19.5 53.5v323h200v-336q0 -61 -24 -109.5t-70.5 -76.5t-112.5 -28q-49 0 -93 17z" />
    <glyph glyph-name="uni0E07" unicode="&#xe07;" horiz-adv-x="651" 
d="M20 468h197l96 -325q52 0 81.5 38.5t29.5 107.5q0 106 -79 106q-30 0 -56 -11v150q20 7 49 11.5t55 4.5q124 0 181 -67t57 -194q0 -90 -40.5 -155.5t-108.5 -99.5t-150 -34h-172z" />
    <glyph glyph-name="uni0E08" unicode="&#xe08;" horiz-adv-x="595" 
d="M25 294h199l38 -151q26 0 50.5 14.5t40 42.5t15.5 66q0 63 -37.5 96t-133.5 33q-44 0 -95 -10t-82 -26v154q42 17 99.5 27t115.5 10q165 0 252.5 -72.5t87.5 -207.5q0 -83 -40.5 -144.5t-109.5 -93.5t-151 -32h-176z" />
    <glyph glyph-name="uni0E09" unicode="&#xe09;" horiz-adv-x="627" 
d="M74.5 42.5q-52.5 57.5 -52.5 155.5v103h201v-90q0 -71 71 -71q30 0 54.5 14.5t38.5 39.5v75q0 64 -35.5 95t-129.5 31q-47 0 -109.5 -10.5t-92.5 -25.5v154q41 16 108.5 26.5t126.5 10.5q179 0 255.5 -69.5t76.5 -203.5v-277h-189v50q-29 -30 -74 -47.5t-98 -17.5
q-99 0 -151.5 57.5z" />
    <glyph glyph-name="uni0E0A" unicode="&#xe0a;" horiz-adv-x="641" 
d="M156.5 9.5q-63.5 24.5 -96.5 67.5t-33 99v26q0 38 12 66t33 60q12 19 18 31t6 23q0 24 -28 24h-48v129h180q48 0 75 -25.5t27 -68.5q0 -30 -10 -53t-29 -52q-18 -29 -27 -50t-9 -47v-20q0 -40 21.5 -59.5t61.5 -19.5q85 0 85 94q0 53 -18.5 78.5t-54.5 25.5v86l88 126
h211l-108 -153q42 -27 61 -67t19 -100q0 -111 -72 -178t-211 -67q-90 0 -153.5 24.5z" />
    <glyph glyph-name="uni0E0B" unicode="&#xe0b;" horiz-adv-x="662" 
d="M177.5 9.5q-63.5 24.5 -96 67.5t-32.5 99v27q0 43 19 78t39 60t25 31q-15 -6 -40 -6q-32 0 -52 20t-20 59v90h130v-35q0 -26 24 -26q16 0 26 8v53h134v-79q0 -33 -11.5 -59t-33.5 -60q-20 -30 -29.5 -51.5t-9.5 -45.5v-21q0 -79 81 -79q43 0 64 24t21 67q0 55 -16 81
t-50 26v86l81 126h211l-101 -153q40 -28 56.5 -66.5t16.5 -100.5q0 -114 -72 -179.5t-211 -65.5q-90 0 -153.5 24.5z" />
    <glyph glyph-name="uni0E0C" unicode="&#xe0c;" horiz-adv-x="999" 
d="M595 50v-50h-188v310q0 43 -19.5 63.5t-59.5 20.5q-56 0 -98 -31l36 -62v-125q0 -21 9.5 -30t30.5 -9h42v-137h-154q-62 0 -95.5 35.5t-33.5 97.5v172l-50 89q127 156 313 156q134 0 204.5 -60t70.5 -165v-131q29 -54 86 -54q33 0 51 18.5t18 53.5v323h201v-336
q0 -95 -51.5 -154.5t-148.5 -59.5q-99 0 -164 65z" />
    <glyph glyph-name="uni0E0D" unicode="&#xe0d;" horiz-adv-x="1014" 
d="M573 -88.5q-56 9.5 -95 27.5v139q53 -26 105 -37t109 -11q59 0 94.5 12.5t35.5 37.5q0 17 -5 25q-54 -32 -130 -32q-280 0 -280 221v16q0 43 -19.5 63.5t-59.5 20.5q-56 0 -98 -31l36 -62v-125q0 -21 9.5 -30t30.5 -9h42v-137h-154q-62 0 -95.5 35.5t-33.5 97.5v172
l-50 89q127 156 313 156q133 0 204 -59t71 -161v-12q0 -50 19 -74.5t65 -24.5q45 0 64.5 23.5t19.5 72.5v220h201v-241q0 -64 -33 -114q45 -45 45 -111q0 -81 -77.5 -124t-214.5 -43q-63 0 -119 9.5z" />
    <glyph glyph-name="uni0E0E" unicode="&#xe0e;" horiz-adv-x="673" 
d="M146 -82q33 25 79 37.5t96 12.5q30 0 60 -6t52 -16v364q0 84 -87 84q-56 0 -100 -30l50 -63v-167q0 -62 -33.5 -98t-95.5 -36h-147v137h38q22 0 29.5 8t7.5 29v131l-70 89q56 74 138.5 115t183.5 41q137 0 211.5 -60t74.5 -165v-546h-166q-26 23 -64.5 35t-81.5 12
q-48 0 -94.5 -14.5t-80.5 -40.5v147z" />
    <glyph glyph-name="uni0E0F" unicode="&#xe0f;" horiz-adv-x="673" 
d="M144 -215q-33 9 -55 27v142q45 -31 103 -31q29 0 50 14.5t29 42.5h89l73 -42v372q0 84 -87 84q-56 0 -100 -30l50 -63v-167q0 -62 -33.5 -98t-95.5 -36h-147v137h38q22 0 29.5 8t7.5 29v131l-70 89q56 74 138.5 115t183.5 41q137 0 211.5 -60t74.5 -165v-546h-175
l-104 61q-24 -33 -58 -48.5t-83 -15.5q-36 0 -69 9z" />
    <glyph glyph-name="uni0E10" unicode="&#xe10;" horiz-adv-x="632" 
d="M25 294h199l38 -151q26 0 50.5 14.5t40 42.5t15.5 66q0 63 -37.5 96t-133.5 33q-44 0 -95 -10t-82 -26v154q42 17 99.5 27t115.5 10q87 0 154 -23l39 48h214l-119 -139q52 -62 52 -166q0 -83 -40.5 -144.5t-109.5 -93.5t-151 -32h-176zM77 -215q-33 9 -55 27v132
q24 -16 48.5 -23.5t54.5 -7.5q29 0 49.5 15t29.5 44h87l75 -44v61h199v-210h-173l-105 62q-24 -34 -57.5 -49.5t-83.5 -15.5q-36 0 -69 9z" />
    <glyph glyph-name="uni0E11" unicode="&#xe11;" horiz-adv-x="654" 
d="M53 196q0 51 21 91.5t57 84.5q-15 -6 -39 -6q-32 0 -52 19.5t-20 61.5v88h134v-35q0 -26 23 -26q16 0 26 8v53h135v-34q24 22 60 35.5t72 13.5q76 0 110 -41t34 -122v-387h-200v351q0 42 -36 42q-37 0 -64 -30q-11 -23 -22 -40q-19 -32 -28.5 -58t-9.5 -67v-198h-201v196
z" />
    <glyph glyph-name="uni0E12" unicode="&#xe12;" horiz-adv-x="1052" 
d="M158 16.5q-63 31.5 -100.5 94t-37.5 151.5q0 91 29 156t79.5 98.5t114.5 33.5q35 0 63.5 -12.5t46.5 -32.5q17 23 49 34t72 11q85 0 134 -48t49 -125v-183q13 -25 34.5 -39.5t50.5 -14.5q34 0 52 18.5t18 53.5v323h200v-336q0 -95 -51 -154.5t-149 -59.5q-50 0 -91.5 17
t-72.5 48v-50h-185v351q0 43 -32 43q-19 0 -27.5 -11t-13.5 -34h-71q-3 22 -11 33.5t-23 11.5q-26 0 -42 -32.5t-16 -99.5q0 -59 29 -90.5t81 -31.5q35 0 66 13v-153q-45 -15 -105 -15q-77 0 -140 31.5z" />
    <glyph glyph-name="uni0E13" unicode="&#xe13;" horiz-adv-x="997" 
d="M457.5 44.5q-50.5 59.5 -50.5 154.5v111q0 43 -19.5 63.5t-59.5 20.5q-56 0 -98 -31l36 -62v-125q0 -21 9.5 -30t30.5 -9h42v-137h-154q-62 0 -95.5 35.5t-33.5 97.5v172l-50 89q127 156 313 156q134 0 204.5 -60t70.5 -165v-113q0 -35 18 -53.5t52 -18.5q55 0 84 54v341
h200v-535h-188v50q-65 -65 -164 -65q-97 0 -147.5 59.5z" />
    <glyph glyph-name="uni0E14" unicode="&#xe14;" horiz-adv-x="706" 
d="M157 14.5q-63 29.5 -100 89.5t-37 149q0 93 40 160t114 102t175 35q161 0 239 -73t78 -199v-278h-201v279q0 57 -26.5 86t-88.5 29q-56 0 -89.5 -36t-33.5 -105q0 -58 30 -85.5t80 -27.5q35 0 66 13v-153q-45 -15 -105 -15q-78 0 -141 29.5z" />
    <glyph glyph-name="uni0E15" unicode="&#xe15;" horiz-adv-x="706" 
d="M155.5 16.5q-62.5 31.5 -99 94t-36.5 151.5q0 91 29 156t79.5 98.5t114.5 33.5q36 0 65 -12.5t46 -32.5q18 23 50 34t72 11q57 0 100 -22t66.5 -61.5t23.5 -89.5v-377h-201v351q0 43 -32 43q-19 0 -28 -11.5t-14 -33.5h-71q-7 45 -37 45q-26 0 -41 -32t-15 -100
q0 -60 27.5 -91t82.5 -31q35 0 66 13v-153q-45 -15 -105 -15q-80 0 -142.5 31.5z" />
    <glyph glyph-name="uni0E16" unicode="&#xe16;" horiz-adv-x="662" 
d="M98.5 35.5q-33.5 35.5 -33.5 97.5v172l-50 89q127 156 321 156q137 0 211.5 -60t74.5 -165v-325h-200v310q0 84 -87 84q-63 0 -105 -31l36 -62v-125q0 -21 9.5 -30t30.5 -9h44v-137h-156q-62 0 -95.5 35.5z" />
    <glyph glyph-name="uni0E17" unicode="&#xe17;" horiz-adv-x="646" 
d="M40 535h189v-51q32 31 78 48.5t93 17.5q104 0 155 -53.5t51 -144.5v-352h-201v325q0 69 -68 69q-31 0 -56 -13.5t-41 -40.5v-340h-200v535z" />
    <glyph glyph-name="uni0E18" unicode="&#xe18;" horiz-adv-x="572" 
d="M90 30q-69 45 -69 120v62h198v-41q0 -26 18.5 -38.5t48.5 -12.5q27 0 43 12.5t16 30.5q0 20 -10.5 32t-36 20.5t-79.5 19.5q-103 20 -151 53.5t-48 98.5q0 81 72 122t186 41q66 0 136 -12.5t104 -31.5v-146q-32 22 -91.5 36.5t-113.5 14.5q-44 0 -65.5 -5t-21.5 -19
q0 -12 16.5 -18t57.5 -14q42 -8 74 -16q69 -17 108 -40.5t54.5 -56t15.5 -79.5q0 -50 -31 -90.5t-91 -64t-144 -23.5q-127 0 -196 45z" />
    <glyph glyph-name="uni0E19" unicode="&#xe19;" horiz-adv-x="646" 
d="M134.5 13q-46.5 28 -70.5 76.5t-24 109.5v336h200v-323q0 -35 19.5 -53.5t55.5 -18.5q33 0 54 13t36 41v341h201v-535h-190v50q-30 -30 -75 -47.5t-94 -17.5q-66 0 -112.5 28z" />
    <glyph glyph-name="uni0E1A" unicode="&#xe1a;" horiz-adv-x="663" 
d="M178 15q-66 30 -102 83t-36 121v316h200v-295q0 -50 21 -75t70 -25q48 0 69.5 25t21.5 75v295h201v-316q0 -68 -36 -121t-102.5 -83t-153.5 -30t-153 30z" />
    <glyph glyph-name="uni0E1B" unicode="&#xe1b;" horiz-adv-x="663" 
d="M178 15q-66 30 -102 83t-36 121v316h200v-295q0 -50 21 -75t70 -25q48 0 69.5 25t21.5 75v474h201v-495q0 -68 -36 -121t-102.5 -83t-153.5 -30t-153 30z" />
    <glyph glyph-name="uni0E1C" unicode="&#xe1c;" horiz-adv-x="680" 
d="M40 400q0 63 34 99t97 36h142v-138h-36q-21 0 -30.5 -9t-9.5 -30v-122l73 102h60l72 -102v299h198v-535h-178l-122 168l-122 -168h-178v400z" />
    <glyph glyph-name="uni0E1D" unicode="&#xe1d;" horiz-adv-x="680" 
d="M40 400q0 63 34 99t97 36h142v-138h-36q-21 0 -30.5 -9t-9.5 -30v-122l73 102h60l72 -102v478h198v-714h-178l-122 168l-122 -168h-178v400z" />
    <glyph glyph-name="uni0E1E" unicode="&#xe1e;" horiz-adv-x="806" 
d="M10 535h200l53 -263l69 263h141l69 -263l53 263h201l-149 -535h-171l-74 264l-72 -264h-171z" />
    <glyph glyph-name="uni0E1F" unicode="&#xe1f;" horiz-adv-x="785" 
d="M10 535h200l53 -263l69 263h141l69 -263l93 442h190l-178 -714h-171l-74 264l-72 -264h-171z" />
    <glyph glyph-name="uni0E20" unicode="&#xe20;" horiz-adv-x="668" 
d="M15 137h38q22 0 29.5 8t7.5 29v131l-70 89q56 74 138.5 115t183.5 41q137 0 211.5 -60t74.5 -165v-325h-200v310q0 84 -87 84q-56 0 -100 -30l50 -63v-167q0 -62 -33.5 -98t-95.5 -36h-147v137z" />
    <glyph glyph-name="uni0E21" unicode="&#xe21;" horiz-adv-x="646" 
d="M304 2.5q-45 17.5 -75 47.5v-50h-189v535h200v-341q15 -28 36.5 -41t54.5 -13q36 0 55 18.5t19 53.5v323h201v-336q0 -94 -54.5 -154t-153.5 -60q-49 0 -94 17.5z" />
    <glyph glyph-name="uni0E22" unicode="&#xe22;" horiz-adv-x="662" 
d="M100 29q-80 44 -80 132q0 75 63 109q-27 18 -43.5 49t-16.5 66q0 75 53.5 120t162.5 45q29 0 63 -5t50 -10v-142q-15 7 -34 11.5t-34 4.5q-54 0 -54 -40t54 -40h68v-117h-63q-62 0 -62 -42q0 -48 90 -48q54 0 79 22.5t25 68.5v323h201v-322q0 -58 -31 -110t-99.5 -85.5
t-174.5 -33.5q-137 0 -217 44z" />
    <glyph glyph-name="uni0E23" unicode="&#xe23;" horiz-adv-x="531" 
d="M130 -4q-65 11 -103 33v148q42 -25 98.5 -41t99.5 -16q79 0 79 29q0 14 -20 23.5t-72 25.5q-26 8 -32 10q-85 28 -122.5 66t-37.5 104q0 83 65 127.5t176 44.5q64 0 123 -12t93 -31v-149q-31 22 -80.5 36.5t-92.5 14.5q-78 0 -78 -31q0 -15 20.5 -24.5t66.5 -22.5l41 -12
q63 -20 97 -44t47 -55t13 -75q0 -75 -63.5 -117.5t-190.5 -42.5q-62 0 -127 11z" />
    <glyph glyph-name="uni0E24" unicode="&#xe24;" horiz-adv-x="662" 
d="M422 310q0 84 -87 84q-63 0 -105 -31l36 -62v-125q0 -21 9.5 -30t30.5 -9h44v-137h-156q-62 0 -95.5 35.5t-33.5 97.5v172l-50 89q127 156 321 156q137 0 211.5 -60t74.5 -165v-521h-200v506z" />
    <glyph glyph-name="uni0E25" unicode="&#xe25;" horiz-adv-x="642" 
d="M74 28.5q-54 43.5 -54 131.5t58.5 136.5t162.5 48.5q41 0 85.5 -7.5t74.5 -20.5v13q0 37 -35.5 56.5t-106.5 19.5q-49 0 -95.5 -10.5t-84.5 -28.5v143q35 18 95.5 29t128.5 11q153 0 226 -56t73 -167v-327h-201v185q-21 11 -48.5 17.5t-54.5 6.5q-71 0 -71 -50
q0 -48 64 -48q27 0 50 10v-121q-45 -15 -115 -15q-98 0 -152 43.5z" />
    <glyph glyph-name="uni0E26" unicode="&#xe26;" horiz-adv-x="668" 
d="M428 310q0 84 -87 84q-56 0 -100 -30l50 -63v-167q0 -62 -33.5 -98t-95.5 -36h-147v137h38q22 0 29.5 8t7.5 29v131l-70 89q56 74 138.5 115t183.5 41q137 0 211.5 -60t74.5 -165v-521h-200v506z" />
    <glyph glyph-name="uni0E27" unicode="&#xe27;" horiz-adv-x="556" 
d="M110 -3.5q-54 11.5 -90 33.5v154q65 -44 164 -44q68 0 106.5 31t38.5 96q0 64 -38.5 95.5t-106.5 31.5q-100 0 -160 -42v154q36 21 90.5 32.5t114.5 11.5q146 0 226.5 -74t80.5 -209q0 -134 -80.5 -208t-226.5 -74q-65 0 -119 11.5z" />
    <glyph glyph-name="uni0E28" unicode="&#xe28;" horiz-adv-x="683" 
d="M40 316q0 117 79 175.5t214 58.5q54 0 96 -12l29 37h215l-97 -113q51 -51 51 -154v-308h-201v307q0 43 -23.5 65t-69.5 22t-69.5 -22t-23.5 -65v-50q11 11 30 17t40 6h70v-137h-80q-29 0 -44.5 -15.5t-15.5 -45.5v-82h-200v316z" />
    <glyph glyph-name="uni0E29" unicode="&#xe29;" horiz-adv-x="677" 
d="M178 15q-66 30 -102 83t-36 121v316h200v-295q0 -50 21 -75t70 -25q48 0 69.5 25t21.5 75v16h-88v137h88v142h201v-142h44v-137h-44v-37q0 -68 -36 -121t-102.5 -83t-153.5 -30t-153 30z" />
    <glyph glyph-name="uni0E2A" unicode="&#xe2a;" horiz-adv-x="659" 
d="M74 28.5q-54 43.5 -54 131.5t58.5 136.5t162.5 48.5q41 0 85.5 -7.5t74.5 -20.5v13q0 37 -35.5 56.5t-106.5 19.5q-49 0 -95.5 -10.5t-84.5 -28.5v143q35 18 95.5 29t128.5 11q57 0 102 -13l30 38h214l-97 -113q50 -56 50 -146v-316h-201v185q-21 11 -48.5 17.5
t-54.5 6.5q-71 0 -71 -50q0 -48 64 -48q27 0 50 10v-121q-45 -15 -115 -15q-98 0 -152 43.5z" />
    <glyph glyph-name="uni0E2B" unicode="&#xe2b;" horiz-adv-x="647" 
d="M40 535h200v-149l147 149h227l-137 -141q73 -24 101.5 -67t28.5 -117v-210h-201v189q0 38 -11 55.5t-43 26.5l-112 -106v-165h-200v535z" />
    <glyph glyph-name="uni0E2C" unicode="&#xe2c;" horiz-adv-x="681" 
d="M40 535h197v-296l74 106h61l73 -106v144q0 46 -19.5 68t-69.5 22v92l100 149h225l-115 -163q45 -22 60.5 -56.5t15.5 -97.5v-397h-178l-123 174l-123 -174h-178v535z" />
    <glyph glyph-name="uni0E2D" unicode="&#xe2d;" horiz-adv-x="629" 
d="M136.5 -2q-71.5 13 -116.5 34v283h278v-121h-87v-45q10 -5 29.5 -8t39.5 -3q60 0 91 35t31 99q0 66 -41.5 94.5t-140.5 28.5q-51 0 -103 -9.5t-89 -27.5v154q43 17 105 27.5t129 10.5q167 0 257 -72.5t90 -205.5q0 -88 -39 -152.5t-113 -99.5t-177 -35q-72 0 -143.5 13z
" />
    <glyph glyph-name="uni0E2E" unicode="&#xe2e;" horiz-adv-x="650" 
d="M136.5 -2q-71.5 13 -116.5 34v283h278v-121h-87v-45q10 -5 29.5 -8t39.5 -3q61 0 91.5 34t30.5 98q0 66 -41.5 95.5t-140.5 29.5q-51 0 -103 -9.5t-89 -27.5v154q43 17 105 27.5t129 10.5q74 0 128 -18l35 43h215l-105 -123q74 -71 74 -182q0 -88 -39 -152t-113 -98.5
t-177 -34.5q-72 0 -143.5 13z" />
    <glyph glyph-name="uni0E2F" unicode="&#xe2f;" horiz-adv-x="619" 
d="M378 221q-29 -13 -69 -21t-80 -8q-95 0 -152 47t-57 132q0 86 54.5 132.5t142.5 46.5q72 0 115 -16v-120q-23 9 -50 9q-26 0 -40.5 -12t-14.5 -35q0 -25 15 -36t47 -11q48 0 89 24v182h201v-535h-201v221z" />
    <glyph glyph-name="uni0E30" unicode="&#xe30;" horiz-adv-x="359" 
d="M20 396v106h178v-48q0 -21 23 -21h118v-132h-211q-108 0 -108 95zM20 130v106h178v-48q0 -21 23 -21h118v-132h-211q-108 0 -108 95z" />
    <glyph glyph-name="uni0E31" unicode="&#xe31;" 
d="M-332.5 613.5q-27.5 24.5 -27.5 72.5v104h179v-56q0 -21 22 -21h208v-124h-300q-54 0 -81.5 24.5z" />
    <glyph glyph-name="uni0E32" unicode="&#xe32;" horiz-adv-x="414" 
d="M173 315q0 38 -19 58.5t-63 20.5q-47 0 -91 -23v149q23 12 65.5 21t79.5 9q111 0 170 -56.5t59 -165.5v-328h-201v315z" />
    <glyph glyph-name="uni0E33" unicode="&#xe33;" horiz-adv-x="416" 
d="M-209 587q-30 17 -47.5 47t-17.5 65q0 36 17.5 66t47.5 47.5t65 17.5t65 -17.5t47.5 -47.5t17.5 -66q0 -35 -17.5 -65t-47.5 -47t-65 -17t-65 17zM-119.5 673q10.5 11 10.5 25q0 15 -10 25.5t-25 10.5t-25 -10.5t-10 -25.5t10 -25.5t25 -10.5q14 0 24.5 11zM176 315
q0 38 -19 58.5t-63 20.5q-46 0 -92 -23v149q23 12 66 21t80 9q110 0 169 -56.5t59 -165.5v-328h-200v315z" />
    <glyph glyph-name="uni0E34" unicode="&#xe34;" 
d="M-534 713h493v-124h-493v124z" />
    <glyph glyph-name="uni0E35" unicode="&#xe35;" 
d="M-534 713h311v103h182v-227h-493v124z" />
    <glyph glyph-name="uni0E36" unicode="&#xe36;" 
d="M-534 713h272q2 49 35.5 83.5t84.5 34.5q54 0 87.5 -35t33.5 -86q0 -52 -36 -86.5t-91 -34.5h-386v124zM-116 684q11 11 11 26t-11 26t-26 11t-26 -11t-11 -26t11 -26t26 -11t26 11z" />
    <glyph glyph-name="uni0E37" unicode="&#xe37;" 
d="M-534 713h170v103h137v-103h49v103h137v-227h-493v124z" />
    <glyph glyph-name="uni0E38" unicode="&#xe38;" 
d="M-219 -196q0 19 -8 27t-27 8h-28v124h127q61 0 88 -29.5t27 -90.5v-128h-179v89z" />
    <glyph glyph-name="uni0E39" unicode="&#xe39;" 
d="M-336 -258q-47 32 -47 85v17q0 13 -4.5 18t-16.5 5h-32v96h139q33 0 46 -14.5t13 -46.5v-53q0 -13 7.5 -20t20.5 -7q26 0 26 27v114h144v-131q0 -53 -42.5 -87.5t-120.5 -34.5q-86 0 -133 32z" />
    <glyph glyph-name="uni0E3A" unicode="&#xe3a;" 
d="M-201 -202q-28 28 -28 69q0 40 28.5 68.5t68.5 28.5t69 -28.5t29 -68.5t-29 -68.5t-69 -28.5q-41 0 -69 28z" />
    <glyph glyph-name="uni0E3F" unicode="&#xe3f;" horiz-adv-x="672" 
d="M213 0h-173v699h173v103h144v-103h48q102 0 163.5 -50.5t61.5 -144.5q0 -42 -18.5 -79t-53.5 -60q49 -22 71.5 -58t22.5 -94q0 -65 -31 -113.5t-83.5 -74t-116.5 -25.5h-64v-103h-144v103zM351 428q34 0 51.5 15t17.5 48q0 34 -17 47.5t-53 13.5h-103v-124h104zM363 147
q41 0 60 15t19 52q0 36 -19.5 53t-61.5 17h-114v-137h116z" />
    <glyph glyph-name="uni0E40" unicode="&#xe40;" horiz-adv-x="327" 
d="M73 35.5q-33 35.5 -33 97.5v402h200v-359q0 -22 9 -30.5t30 -8.5h33v-137h-144q-62 0 -95 35.5z" />
    <glyph glyph-name="uni0E41" unicode="&#xe41;" horiz-adv-x="628" 
d="M73 35.5q-33 35.5 -33 97.5v402h200v-359q0 -22 9 -30.5t30 -8.5h31v-137h-142q-62 0 -95 35.5zM376 35.5q-33 35.5 -33 97.5v402h200v-359q0 -22 9 -30.5t30 -8.5h31v-137h-142q-62 0 -95 35.5z" />
    <glyph glyph-name="uni0E42" unicode="&#xe42;" horiz-adv-x="362" 
d="M113.5 35.5q-33.5 35.5 -33.5 97.5v349q0 61 -24.5 95t-80.5 53v122h397v-138h-142q28 -26 39.5 -57.5t11.5 -77.5v-303q0 -21 9 -30t29 -9h38v-137h-149q-61 0 -94.5 35.5z" />
    <glyph glyph-name="uni0E43" unicode="&#xe43;" horiz-adv-x="326" 
d="M57 35.5q-33 35.5 -33 97.5v215q0 46 17.5 77t49.5 69q19 21 28.5 35.5t9.5 29.5q0 24 -12.5 36t-42.5 12q-29 0 -56 -11.5t-48 -30.5v155q33 20 79 31t96 11q97 0 144 -41t47 -110q0 -38 -14.5 -67.5t-42.5 -70.5q-28 -38 -41.5 -66t-13.5 -63v-168q0 -22 9 -30.5
t30 -8.5h38v-137h-149q-62 0 -95 35.5z" />
    <glyph glyph-name="uni0E44" unicode="&#xe44;" horiz-adv-x="362" 
d="M100 35.5q-33 35.5 -33 97.5v314q0 115 61 167h-153v138h397v-122q-56 -22 -80.5 -67t-24.5 -114v-273q0 -22 9 -30.5t30 -8.5h38v-137h-149q-62 0 -95 35.5z" />
    <glyph glyph-name="uni0E45" unicode="&#xe45;" horiz-adv-x="414" 
d="M173 315q0 38 -19 58.5t-63 20.5q-47 0 -91 -23v149q23 12 65.5 21t79.5 9q111 0 170 -56.5t59 -165.5v-524h-201v511z" />
    <glyph glyph-name="uni0E46" unicode="&#xe46;" horiz-adv-x="672" 
d="M431 353q0 21 -7.5 31t-24.5 10q-18 0 -27 -11.5t-13 -33.5h-71q-3 22 -10.5 33.5t-23.5 11.5q-34 0 -34 -49q0 -28 16.5 -41t51.5 -13q33 0 66 13v-151q-47 -15 -106 -15q-104 0 -166 51t-62 150q0 97 51 154t145 57q35 0 63.5 -12.5t46.5 -32.5q35 45 116 45
q88 0 139 -49.5t51 -127.5v-373h-201v353z" />
    <glyph glyph-name="uni0E47" unicode="&#xe47;" 
d="M-476.5 619q-38.5 34 -38.5 90q0 73 42.5 110.5t114.5 37.5h268v-100h-254q-43 0 -43 -33q0 -16 9.5 -24.5t25.5 -8.5q37 0 37 40h99q0 -20 11.5 -28t32.5 -8h65v-106h-62q-35 0 -62.5 11t-36.5 30q-10 -19 -39.5 -32t-66.5 -13q-64 0 -102.5 34z" />
    <glyph glyph-name="uni0E48" unicode="&#xe48;" 
d="M-241 778h200v-189h-200v189z" />
    <glyph glyph-name="uni0E49" unicode="&#xe49;" 
d="M-315 655q0 9 -4 13.5t-14 4.5h-49v133h114q76 0 76 -66v-27h195v-124h-318v66z" />
    <glyph glyph-name="uni0E4A" unicode="&#xe4a;" 
d="M-529 687q0 59 31.5 97t82.5 38q31 0 49.5 -10t30.5 -29q27 36 79 36q90 0 90 -96v-30h6q12 0 15.5 5.5t3.5 18.5v95h100v-115q0 -48 -31.5 -78t-82.5 -30h-100v81q0 27 -19 27q-22 0 -22 -26v-19h-74v18q0 27 -19 27q-24 0 -24 -43q0 -15 6.5 -33.5t15.5 -31.5h-115
q-23 39 -23 98z" />
    <glyph glyph-name="uni0E4B" unicode="&#xe4b;" 
d="M-238 634h-46v110h46v44h192v-44h47v-110h-47v-45h-192v45z" />
    <glyph glyph-name="uni0E4C" unicode="&#xe4c;" 
d="M-343 687q0 94 110 94h231v-123h-139q-23 0 -23 -22v-47h-179v98z" />
    <glyph glyph-name="uni0E4D" unicode="&#xe4d;" 
d="M-209 597q-30 17 -47.5 47t-17.5 65q0 36 17.5 66t47.5 47.5t65 17.5t65 -17.5t47.5 -47.5t17.5 -66q0 -35 -17.5 -65t-47.5 -47t-65 -17t-65 17zM-119.5 683q10.5 11 10.5 25q0 15 -10 25.5t-25 10.5t-25 -10.5t-10 -25.5t10 -25.5t25 -10.5q14 0 24.5 11z" />
    <glyph glyph-name="uni0E4E" unicode="&#xe4e;" 
d="M-285 614q-32 25 -32 67q0 40 21 63.5t59 27.5q-11 15 -11 41q0 36 28.5 56t72.5 20q46 0 72 -15v-72q-20 18 -43 18q-24 0 -24 -18q0 -16 27 -24v-70q-26 9 -47 9q-35 0 -35 -28q0 -27 36 -27q31 0 54 17v-72q-15 -10 -40 -14t-50 -4q-56 0 -88 25z" />
    <glyph glyph-name="uni0E4F" unicode="&#xe4f;" horiz-adv-x="549" 
d="M146.5 19q-58.5 34 -92.5 92.5t-34 128.5t34 128.5t92.5 92.5t128.5 34q69 0 127.5 -34t92.5 -92.5t34 -128.5t-34 -128.5t-92.5 -92.5t-127.5 -34q-70 0 -128.5 34zM375 139.5q40 40.5 40 100.5t-40.5 100t-99.5 40q-60 0 -100 -40t-40 -100q0 -61 40 -101t100 -40
t100 40.5zM192.5 156.5q-33.5 32.5 -33.5 83.5q0 50 34 83t83 33t82.5 -33t33.5 -83q0 -51 -33.5 -83.5t-82.5 -32.5q-50 0 -83.5 32.5zM300.5 215q9.5 10 9.5 25t-10 24.5t-24 9.5q-15 0 -25 -9.5t-10 -24.5t10 -25t25 -10t24.5 10z" />
    <glyph glyph-name="uni0E50" unicode="&#xe50;" horiz-adv-x="583" 
d="M152 17q-62 32 -97 90t-35 133t35 133t97 90t140 32t139.5 -32t96.5 -90t35 -133t-35 -133t-96.5 -90t-139.5 -32t-140 32zM364.5 164.5q28.5 27.5 28.5 75.5q0 46 -28.5 74t-72.5 28t-72.5 -28t-28.5 -74q0 -48 28 -75.5t73 -27.5q44 0 72.5 27.5z" />
    <glyph glyph-name="uni0E51" unicode="&#xe51;" horiz-adv-x="589" 
d="M234 63q65 14 98 38t43.5 56.5t10.5 82.5q0 52 -26 80t-76 28q-39 0 -62 -14.5t-23 -44.5q0 -27 15.5 -42.5t45.5 -15.5q31 0 59 13v-128q-19 -12 -47.5 -18.5t-60.5 -6.5q-86 0 -138.5 49t-52.5 136q0 66 33.5 115.5t94 76.5t137.5 27q140 0 212 -68t72 -184
q0 -259 -335 -334v154z" />
    <glyph glyph-name="uni0E52" unicode="&#xe52;" horiz-adv-x="718" 
d="M205.5 13q-74.5 28 -120 86.5t-45.5 145.5v305h143v-301q0 -65 51.5 -104t131.5 -39q82 0 124 27.5t42 79.5v105q0 36 -27 36q-18 0 -23 -13.5t-6 -43.5h-67l-21 11q-1 23 -7 35t-19 12q-30 0 -30 -50q0 -28 17.5 -42t47.5 -14q39 0 65 10v-111q-19 -7 -37.5 -10
t-47.5 -3q-84 0 -130.5 47t-46.5 132q0 86 39 133.5t105 47.5q59 0 89 -52q14 22 42.5 37t64.5 15q71 0 104.5 -43.5t33.5 -120.5v-119q0 -71 -43.5 -122.5t-115 -78t-153.5 -26.5q-86 0 -160.5 28z" />
    <glyph glyph-name="uni0E53" unicode="&#xe53;" horiz-adv-x="648" 
d="M84 49.5q-64 64.5 -64 185.5q0 84 25.5 142.5t70.5 88t103 29.5q34 0 59.5 -12t41.5 -30q18 20 48 31t66 11q84 0 129 -45.5t45 -116.5v-333h-170v310q0 36 -30 36q-18 0 -25 -10t-7 -31v-115h-118v115q0 41 -28 41q-23 0 -33.5 -27t-10.5 -89q0 -52 22.5 -77t69.5 -25
q20 0 48 3.5t41 8.5v-142q-21 -5 -52.5 -9t-59.5 -4q-107 0 -171 64.5z" />
    <glyph glyph-name="uni0E54" unicode="&#xe54;" horiz-adv-x="617" 
d="M88.5 60q-68.5 60 -68.5 180q0 81 36.5 142.5t105.5 95.5t164 34q48 0 72.5 3.5t37.5 14.5t20 34h161q-15 -63 -39.5 -102.5t-72 -60.5t-125.5 -21q-87 0 -134.5 -39.5t-47.5 -111.5q0 -51 20 -78t51 -27h11q-10 12 -16 31t-6 39q0 72 44 110.5t127 38.5q85 0 130 -22
v-115q-34 20 -73 20q-29 0 -44.5 -13.5t-15.5 -37.5q0 -51 65 -51h87v-124h-295q-126 0 -194.5 60z" />
    <glyph glyph-name="uni0E55" unicode="&#xe55;" horiz-adv-x="617" 
d="M88.5 60q-68.5 60 -68.5 180q0 93 45.5 158.5t129.5 92.5q-3 12 -3 25q0 51 31.5 82t82.5 31q55 0 84 -31t29 -80q21 4 29 14t10 32h159q-14 -62 -40 -102t-73.5 -61t-125.5 -21q-84 0 -132 -39.5t-48 -111.5q0 -51 20 -78t51 -27h11q-10 12 -16 31t-6 39q0 72 43 110.5
t128 38.5t130 -22v-115q-34 20 -73 20q-29 0 -44.5 -13.5t-15.5 -37.5q0 -51 65 -51h87v-124h-295q-126 0 -194.5 60zM328 499q8 8 8 19q0 12 -8 20t-20 8q-11 0 -19 -8t-8 -20q0 -11 8 -19t19 -8q12 0 20 8z" />
    <glyph glyph-name="uni0E56" unicode="&#xe56;" horiz-adv-x="622" 
d="M190.5 -0.5q-52.5 14.5 -86.5 43.5v148q40 -35 90 -52.5t102 -17.5q61 0 92.5 30.5t31.5 85.5q0 57 -28.5 85.5t-82.5 28.5q-43 0 -74.5 -22t-46.5 -67h-118l-70 289h143l27 -123q28 31 72.5 49t98.5 18q137 0 199 -70t62 -188q0 -72 -33 -129t-100.5 -90t-165.5 -33
q-60 0 -112.5 14.5z" />
    <glyph glyph-name="uni0E57" unicode="&#xe57;" horiz-adv-x="803" 
d="M80.5 49.5q-60.5 64.5 -60.5 185.5q0 125 50 192.5t137 67.5q63 0 101 -42q18 20 48 31t66 11q152 0 152 -162v-191q23 0 33 11t10 35v362h146v-351q0 -107 -63 -153t-162 -46h-112v312q0 18 -7 27t-24 9t-24 -10t-7 -31v-117h-115v117q0 20 -6 30.5t-22 10.5
q-23 0 -33.5 -28t-10.5 -90q0 -54 23 -80.5t70 -26.5q20 0 46 3.5t39 9.5v-138q-21 -5 -53 -9t-60 -4q-101 0 -161.5 64.5z" />
    <glyph glyph-name="uni0E58" unicode="&#xe58;" horiz-adv-x="646" 
d="M75.5 48.5q-55.5 63.5 -55.5 185.5q0 81 37 144.5t106.5 98.5t162.5 35q50 0 74 3.5t37 14t19 34.5h161q-15 -63 -39.5 -102.5t-72 -60.5t-125.5 -21q-98 0 -141.5 -39t-43.5 -121q0 -63 11.5 -86.5t32.5 -23.5q33 0 33 41v42h126v-41q0 -20 6.5 -31t23.5 -11
q19 0 27.5 15t8.5 53q0 55 -43 55q-27 0 -50 -11v115q16 6 40.5 9.5t48.5 3.5q81 0 123.5 -43.5t42.5 -128.5q0 -93 -48 -143t-129 -50q-31 0 -62.5 12t-51.5 33q-19 -22 -48.5 -33.5t-66.5 -11.5q-89 0 -144.5 63.5z" />
    <glyph glyph-name="uni0E59" unicode="&#xe59;" horiz-adv-x="748" 
d="M72.5 49.5q-52.5 64.5 -52.5 184.5q0 83 26 142t71.5 89t103.5 30q33 0 59 -13t43 -31q42 44 105 44q70 0 104 -49l41 104h175l-132 -318h-104l2 67q-3 20 -12 31t-26 11q-13 0 -20.5 -7.5t-7.5 -20.5q0 -11 4 -20l98 -293h-165l-98 296q-9 26 -17.5 35.5t-27.5 9.5
q-25 0 -40.5 -26.5t-15.5 -83.5q0 -54 15 -78.5t49 -24.5q18 0 29.5 2.5t26.5 9.5v-142q-50 -13 -95 -13q-86 0 -138.5 64.5z" />
    <glyph glyph-name="uni0E5A" unicode="&#xe5a;" horiz-adv-x="949" 
d="M378 221q-29 -13 -69 -21t-80 -8q-95 0 -152 47t-57 132q0 86 54.5 132.5t142.5 46.5q72 0 115 -16v-120q-23 9 -50 9q-26 0 -40.5 -12t-14.5 -35q0 -25 15 -36t47 -11q48 0 89 24v182h201v-181q13 -25 47 -25q45 0 82 24v182h201v-535h-201v221q-35 -22 -81 -25
q-18 -2 -27 -2q-7 0 -21 2v-196h-201v221z" />
    <glyph glyph-name="uni0E5B" unicode="&#xe5b;" horiz-adv-x="1135" 
d="M95.5 50.5q-75.5 65.5 -75.5 187.5q0 74 29 132t83 91.5t126 33.5q105 0 165.5 -51t60.5 -145q0 -91 -51 -133.5t-128 -42.5q-53 0 -90 22v103q13 -10 33 -15.5t40 -5.5q35 0 54.5 14.5t19.5 57.5q0 77 -101 77q-53 0 -84.5 -35t-31.5 -103q0 -142 152 -142
q110 0 161.5 46.5t51.5 153.5v115h134l47 -134h2l23 120h96l29 -104h2l18 84h86l32 -82h2l22 37h112v-115h-73l-26 -71h-75l-29 52h-2l-22 -77h-90l-31 94h-2l-26 -115h-92l-35 119h-2q-13 -115 -98 -174.5t-215 -59.5q-126 0 -201.5 65.5z" />
    <glyph glyph-name="uni1E0C" unicode="&#x1e0c;" horiz-adv-x="703" 
d="M40 699h259q116 0 202.5 -42t134 -120.5t47.5 -183.5q0 -174 -103 -263.5t-283 -89.5h-257v699zM312 174q77 0 118.5 48t41.5 131q0 74 -42 123t-115 49h-68v-351h65zM255.5 -186q-24.5 24 -24.5 58t24.5 58t58.5 24t57.5 -24t23.5 -58t-23.5 -58t-57.5 -24t-58.5 24z
" />
    <glyph glyph-name="uni1E0D" unicode="&#x1e0d;" horiz-adv-x="669" 
d="M141 16.5q-58 31.5 -89.5 89t-31.5 133.5q0 75 31.5 133.5t89.5 90.5t134 32q46 0 86.5 -13.5t67.5 -36.5v294h200v-739h-193v44q-30 -29 -71.5 -44t-89.5 -15q-76 0 -134 31.5zM389.5 156q26.5 16 39.5 44v79q-13 28 -39.5 44t-60.5 16q-47 0 -74.5 -26.5t-27.5 -73.5
t27.5 -73t74.5 -26q34 0 60.5 16zM292.5 -186q-24.5 24 -24.5 58t24.5 58t58.5 24t57.5 -24t23.5 -58t-23.5 -58t-57.5 -24t-58.5 24z" />
    <glyph glyph-name="uni1E0E" unicode="&#x1e0e;" horiz-adv-x="703" 
d="M40 699h259q116 0 202.5 -42t134 -120.5t47.5 -183.5q0 -174 -103 -263.5t-283 -89.5h-257v699zM312 174q77 0 118.5 48t41.5 131q0 74 -42 123t-115 49h-68v-351h65zM134 -54h356v-118h-356v118z" />
    <glyph glyph-name="uni1E0F" unicode="&#x1e0f;" horiz-adv-x="669" 
d="M141 16.5q-58 31.5 -89.5 89t-31.5 133.5q0 75 31.5 133.5t89.5 90.5t134 32q46 0 86.5 -13.5t67.5 -36.5v294h200v-739h-193v44q-30 -29 -71.5 -44t-89.5 -15q-76 0 -134 31.5zM389.5 156q26.5 16 39.5 44v79q-13 28 -39.5 44t-60.5 16q-47 0 -74.5 -26.5t-27.5 -73.5
t27.5 -73t74.5 -26q34 0 60.5 16zM187 -54h356v-118h-356v118z" />
    <glyph glyph-name="uni1E20" unicode="&#x1e20;" horiz-adv-x="691" 
d="M224 875h356v-118h-356v118zM201 29q-87 44 -134 126t-47 194t47 194.5t134 126.5t203 44q156 0 244 -58v-191q-44 33 -99 48t-127 15q-94 0 -142.5 -47t-48.5 -132q0 -89 46.5 -134.5t134.5 -45.5q43 0 70 12v89h-96v131h285v-350q-106 -66 -267 -66q-116 0 -203 44z
" />
    <glyph glyph-name="uni1E21" unicode="&#x1e21;" horiz-adv-x="669" 
d="M175 654h356v-118h-356v118zM207.5 -221q-49.5 9 -85.5 24v133q79 -34 182 -34q65 0 95 26.5t30 77.5v28q-27 -22 -67.5 -35.5t-85.5 -13.5q-76 0 -134.5 32t-90 90t-31.5 133q0 76 31.5 134t89.5 89.5t134 31.5q47 0 89 -15.5t72 -43.5v44h193v-445q0 -126 -79 -195.5
t-246 -69.5q-47 0 -96.5 9zM389.5 156.5q26.5 16.5 39.5 44.5v78q-13 28 -39.5 44t-60.5 16q-47 0 -74.5 -26t-27.5 -72q0 -48 27.5 -74.5t74.5 -26.5q34 0 60.5 16.5z" />
    <glyph glyph-name="uni1E24" unicode="&#x1e24;" horiz-adv-x="727" 
d="M40 699h207v-257h233v257h207v-699h-207v268h-233v-268h-207v699zM305.5 -186q-24.5 24 -24.5 58t24.5 58t58.5 24t57.5 -24t23.5 -58t-23.5 -58t-57.5 -24t-58.5 24z" />
    <glyph glyph-name="uni1E25" unicode="&#x1e25;" horiz-adv-x="629" 
d="M40 739h200v-302q66 58 154 58q103 0 151.5 -52.5t48.5 -144.5v-298h-201v270q0 34 -14.5 51.5t-46.5 17.5q-60 0 -92 -54v-285h-200v739zM262.5 -186q-24.5 24 -24.5 58t24.5 58t58.5 24t57.5 -24t23.5 -58t-23.5 -58t-57.5 -24t-58.5 24z" />
    <glyph glyph-name="uni1E2A" unicode="&#x1e2a;" horiz-adv-x="727" 
d="M40 699h207v-257h233v257h207v-699h-207v268h-233v-268h-207v699zM219.5 -187q-50.5 49 -50.5 135h149q0 -60 45 -60t45 60h149q0 -86 -50.5 -135t-143.5 -49t-143.5 49z" />
    <glyph glyph-name="uni1E2B" unicode="&#x1e2b;" horiz-adv-x="629" 
d="M40 739h200v-302q66 58 154 58q103 0 151.5 -52.5t48.5 -144.5v-298h-201v270q0 34 -14.5 51.5t-46.5 17.5q-60 0 -92 -54v-285h-200v739zM173.5 -187q-50.5 49 -50.5 135h149q0 -60 45 -60t45 60h149q0 -86 -50.5 -135t-143.5 -49t-143.5 49z" />
    <glyph glyph-name="uni1E36" unicode="&#x1e36;" horiz-adv-x="529" 
d="M40 699h207v-525h282v-174h-489v699zM217.5 -186q-24.5 24 -24.5 58t24.5 58t58.5 24t57.5 -24t23.5 -58t-23.5 -58t-57.5 -24t-58.5 24z" />
    <glyph glyph-name="uni1E37" unicode="&#x1e37;" horiz-adv-x="280" 
d="M40 739h200v-739h-200v739zM83.5 -186q-24.5 24 -24.5 58t24.5 58t58.5 24t57.5 -24t23.5 -58t-23.5 -58t-57.5 -24t-58.5 24z" />
    <glyph glyph-name="uni1E38" unicode="&#x1e38;" horiz-adv-x="530" 
d="M-1 882h356v-118h-356v118zM41 699h207v-525h282v-174h-489v699zM223.5 -186q-24.5 24 -24.5 58t24.5 58t58.5 24t57.5 -24t23.5 -58t-23.5 -58t-57.5 -24t-58.5 24z" />
    <glyph glyph-name="uni1E39" unicode="&#x1e39;" horiz-adv-x="280" 
d="M-37 895h356v-118h-356v118zM40 739h200v-739h-200v739zM83.5 -186q-24.5 24 -24.5 58t24.5 58t58.5 24t57.5 -24t23.5 -58t-23.5 -58t-57.5 -24t-58.5 24z" />
    <glyph glyph-name="uni1E3A" unicode="&#x1e3a;" horiz-adv-x="529" 
d="M40 699h207v-525h282v-174h-489v699zM110 -54h356v-118h-356v118z" />
    <glyph glyph-name="uni1E3B" unicode="&#x1e3b;" horiz-adv-x="280" 
d="M40 739h200v-739h-200v739zM-37 -54h356v-118h-356v118z" />
    <glyph glyph-name="uni1E42" unicode="&#x1e42;" horiz-adv-x="838" 
d="M40 699h189l190 -411l190 411h189v-699h-193v310l-143 -310h-86l-143 310v-310h-193v699zM367.5 -186q-24.5 24 -24.5 58t24.5 58t58.5 24t57.5 -24t23.5 -58t-23.5 -58t-57.5 -24t-58.5 24z" />
    <glyph glyph-name="uni1E43" unicode="&#x1e43;" horiz-adv-x="879" 
d="M40 480h185v-46q28 29 65.5 45t81.5 16q53 0 84.5 -14.5t53.5 -44.5q30 28 71.5 43.5t84.5 15.5q97 0 137.5 -49.5t40.5 -143.5v-302h-191v273q0 35 -12.5 50.5t-42.5 15.5q-34 0 -55 -21v-318h-191v282q0 30 -11 43.5t-38 13.5q-43 0 -71 -47v-292h-192v480zM396.5 -186
q-24.5 24 -24.5 58t24.5 58t58.5 24t57.5 -24t23.5 -58t-23.5 -58t-57.5 -24t-58.5 24z" />
    <glyph glyph-name="uni1E44" unicode="&#x1e44;" horiz-adv-x="706" 
d="M302.5 765.5q-24.5 23.5 -24.5 57.5t24.5 58.5t58.5 24.5t57.5 -24t23.5 -59q0 -34 -23.5 -57.5t-57.5 -23.5t-58.5 23.5zM40 699h201l218 -366v366h207v-699h-200l-219 366v-366h-207v699z" />
    <glyph glyph-name="uni1E45" unicode="&#x1e45;" horiz-adv-x="629" 
d="M263.5 544.5q-24.5 23.5 -24.5 57.5t24.5 58.5t58.5 24.5t57.5 -24t23.5 -59q0 -34 -23.5 -57.5t-57.5 -23.5t-58.5 23.5zM40 480h193v-47q31 30 73 46t88 16q103 0 151.5 -52.5t48.5 -144.5v-298h-201v270q0 34 -14.5 51.5t-46.5 17.5q-60 0 -92 -54v-285h-200v480z" />
    <glyph glyph-name="uni1E46" unicode="&#x1e46;" horiz-adv-x="706" 
d="M40 699h201l218 -366v366h207v-699h-200l-219 366v-366h-207v699zM301.5 -186q-24.5 24 -24.5 58t24.5 58t58.5 24t57.5 -24t23.5 -58t-23.5 -58t-57.5 -24t-58.5 24z" />
    <glyph glyph-name="uni1E47" unicode="&#x1e47;" horiz-adv-x="629" 
d="M40 480h193v-47q31 30 73 46t88 16q103 0 151.5 -52.5t48.5 -144.5v-298h-201v270q0 34 -14.5 51.5t-46.5 17.5q-60 0 -92 -54v-285h-200v480zM270.5 -186q-24.5 24 -24.5 58t24.5 58t58.5 24t57.5 -24t23.5 -58t-23.5 -58t-57.5 -24t-58.5 24z" />
    <glyph glyph-name="uni1E48" unicode="&#x1e48;" horiz-adv-x="706" 
d="M40 699h201l218 -366v366h207v-699h-200l-219 366v-366h-207v699zM183 -54h356v-118h-356v118z" />
    <glyph glyph-name="uni1E49" unicode="&#x1e49;" horiz-adv-x="629" 
d="M40 480h193v-47q31 30 73 46t88 16q103 0 151.5 -52.5t48.5 -144.5v-298h-201v270q0 34 -14.5 51.5t-46.5 17.5q-60 0 -92 -54v-285h-200v480zM156 -54h356v-118h-356v118z" />
    <glyph glyph-name="uni1E5A" unicode="&#x1e5a;" horiz-adv-x="657" 
d="M40 699h325q126 0 199 -63.5t73 -183.5q0 -78 -32.5 -133t-92.5 -84l117 -235h-212l-102 205h-68v-205h-207v699zM324 369q48 0 74.5 18.5t26.5 64.5t-26.5 64.5t-74.5 18.5h-77v-166h77zM264.5 -186q-24.5 24 -24.5 58t24.5 58t58.5 24t57.5 -24t23.5 -58t-23.5 -58
t-57.5 -24t-58.5 24z" />
    <glyph glyph-name="uni1E5B" unicode="&#x1e5b;" horiz-adv-x="419" 
d="M40 480h193v-52q28 29 77.5 46t108.5 17v-155q-63 0 -112 -17t-67 -50v-269h-200v480zM82.5 -186q-24.5 24 -24.5 58t24.5 58t58.5 24t57.5 -24t23.5 -58t-23.5 -58t-57.5 -24t-58.5 24z" />
    <glyph glyph-name="uni1E5C" unicode="&#x1e5c;" horiz-adv-x="657" 
d="M129 875h356v-118h-356v118zM40 699h325q126 0 199 -63.5t73 -183.5q0 -78 -32.5 -133t-92.5 -84l117 -235h-212l-102 205h-68v-205h-207v699zM324 369q48 0 74.5 18.5t26.5 64.5t-26.5 64.5t-74.5 18.5h-77v-166h77zM249.5 -186q-24.5 24 -24.5 58t24.5 58t58.5 24
t57.5 -24t23.5 -58t-23.5 -58t-57.5 -24t-58.5 24z" />
    <glyph glyph-name="uni1E5D" unicode="&#x1e5d;" horiz-adv-x="419" 
d="M41 654h356v-118h-356v118zM40 480h193v-52q28 29 77.5 46t108.5 17v-155q-63 0 -112 -17t-67 -50v-269h-200v480zM83.5 -186q-24.5 24 -24.5 58t24.5 58t58.5 24t57.5 -24t23.5 -58t-23.5 -58t-57.5 -24t-58.5 24z" />
    <glyph glyph-name="uni1E5E" unicode="&#x1e5e;" horiz-adv-x="657" 
d="M40 699h325q126 0 199 -63.5t73 -183.5q0 -78 -32.5 -133t-92.5 -84l117 -235h-212l-102 205h-68v-205h-207v699zM324 369q48 0 74.5 18.5t26.5 64.5t-26.5 64.5t-74.5 18.5h-77v-166h77zM145 -54h356v-118h-356v118z" />
    <glyph glyph-name="uni1E5F" unicode="&#x1e5f;" horiz-adv-x="419" 
d="M40 480h193v-52q28 29 77.5 46t108.5 17v-155q-63 0 -112 -17t-67 -50v-269h-200v480zM39 -54h356v-118h-356v118z" />
    <glyph glyph-name="uni1E60" unicode="&#x1e60;" horiz-adv-x="574" 
d="M235.5 765.5q-24.5 23.5 -24.5 57.5t24.5 58.5t58.5 24.5t57.5 -24t23.5 -59q0 -34 -23.5 -57.5t-57.5 -23.5t-58.5 23.5zM130 -1.5q-68 13.5 -110 35.5v183q55 -30 115.5 -45t113.5 -15q77 0 77 41q0 17 -11.5 29.5t-34.5 24t-73 33.5q-97 42 -140.5 92t-43.5 124
q0 62 34.5 110.5t96.5 75.5t143 27q66 0 117 -10.5t99 -33.5v-177q-87 48 -178 48q-40 0 -64 -11.5t-24 -33.5t21.5 -35.5t81.5 -37.5l22 -9q71 -29 109.5 -57.5t55.5 -66t17 -94.5q0 -99 -72 -155t-217 -56q-67 0 -135 13.5z" />
    <glyph glyph-name="uni1E61" unicode="&#x1e61;" horiz-adv-x="518" 
d="M199.5 544.5q-24.5 23.5 -24.5 57.5t24.5 58.5t58.5 24.5t57.5 -24t23.5 -59q0 -34 -23.5 -57.5t-57.5 -23.5t-58.5 23.5zM130.5 -4q-65.5 11 -103.5 32v141q41 -24 100.5 -40.5t107.5 -16.5q29 0 42 3.5t13 14.5q0 10 -12.5 15t-46.5 14l-46 13q-61 18 -96.5 38.5
t-52 50t-16.5 74.5q0 81 64 120.5t175 39.5q53 0 114.5 -11.5t91.5 -30.5v-139q-31 20 -83 34.5t-95 14.5q-59 0 -59 -20q0 -9 14.5 -15t50.5 -14l42 -10q65 -17 100 -39t49 -51.5t14 -73.5q0 -71 -62.5 -113t-179.5 -42q-60 0 -125.5 11z" />
    <glyph glyph-name="uni1E62" unicode="&#x1e62;" horiz-adv-x="574" 
d="M130 -1.5q-68 13.5 -110 35.5v183q55 -30 115.5 -45t113.5 -15q77 0 77 41q0 17 -11.5 29.5t-34.5 24t-73 33.5q-97 42 -140.5 92t-43.5 124q0 62 34.5 110.5t96.5 75.5t143 27q66 0 117 -10.5t99 -33.5v-177q-87 48 -178 48q-40 0 -64 -11.5t-24 -33.5t21.5 -35.5
t81.5 -37.5l22 -9q71 -29 109.5 -57.5t55.5 -66t17 -94.5q0 -99 -72 -155t-217 -56q-67 0 -135 13.5zM225.5 -186q-24.5 24 -24.5 58t24.5 58t58.5 24t57.5 -24t23.5 -58t-23.5 -58t-57.5 -24t-58.5 24z" />
    <glyph glyph-name="uni1E63" unicode="&#x1e63;" horiz-adv-x="518" 
d="M130.5 -4q-65.5 11 -103.5 32v141q41 -24 100.5 -40.5t107.5 -16.5q29 0 42 3.5t13 14.5q0 10 -12.5 15t-46.5 14l-46 13q-61 18 -96.5 38.5t-52 50t-16.5 74.5q0 81 64 120.5t175 39.5q53 0 114.5 -11.5t91.5 -30.5v-139q-31 20 -83 34.5t-95 14.5q-59 0 -59 -20
q0 -9 14.5 -15t50.5 -14l42 -10q65 -17 100 -39t49 -51.5t14 -73.5q0 -71 -62.5 -113t-179.5 -42q-60 0 -125.5 11zM210.5 -186q-24.5 24 -24.5 58t24.5 58t58.5 24t57.5 -24t23.5 -58t-23.5 -58t-57.5 -24t-58.5 24z" />
    <glyph glyph-name="uni1E6C" unicode="&#x1e6c;" horiz-adv-x="593" 
d="M193 525h-188v174h583v-174h-188v-525h-207v525zM243.5 -186q-24.5 24 -24.5 58t24.5 58t58.5 24t57.5 -24t23.5 -58t-23.5 -58t-57.5 -24t-58.5 24z" />
    <glyph glyph-name="uni1E6D" unicode="&#x1e6d;" horiz-adv-x="395" 
d="M114 37q-48 52 -48 141v167h-66v135h66v144h201v-144h107v-135h-107v-138q0 -36 13.5 -51.5t45.5 -15.5q36 0 69 19v-148q-29 -13 -60.5 -19.5t-79.5 -6.5q-93 0 -141 52zM182.5 -186q-24.5 24 -24.5 58t24.5 58t58.5 24t57.5 -24t23.5 -58t-23.5 -58t-57.5 -24t-58.5 24
z" />
    <glyph glyph-name="uni1E6E" unicode="&#x1e6e;" horiz-adv-x="593" 
d="M193 525h-188v174h583v-174h-188v-525h-207v525zM109 -54h356v-118h-356v118z" />
    <glyph glyph-name="uni1E6F" unicode="&#x1e6f;" horiz-adv-x="395" 
d="M114 37q-48 52 -48 141v167h-66v135h66v144h201v-144h107v-135h-107v-138q0 -36 13.5 -51.5t45.5 -15.5q36 0 69 19v-148q-29 -13 -60.5 -19.5t-79.5 -6.5q-93 0 -141 52zM33 -54h356v-118h-356v118z" />
    <glyph glyph-name="Wgrave" unicode="&#x1e80;" horiz-adv-x="990" 
d="M320 917h201l69 -180h-177zM20 699h214l97 -366l93 366h150l85 -367l96 367h215l-186 -699h-194l-95 371l-95 -371h-194z" />
    <glyph glyph-name="wgrave" unicode="&#x1e81;" horiz-adv-x="867" 
d="M258 697h201l69 -180h-177zM20 480h200l67 -250l67 250h159l67 -250l67 250h200l-162 -480h-180l-72 242l-71 -242h-180z" />
    <glyph glyph-name="Wacute" unicode="&#x1e82;" horiz-adv-x="990" 
d="M484 917h201l-93 -180h-177zM20 699h214l97 -366l93 366h150l85 -367l96 367h215l-186 -699h-194l-95 371l-95 -371h-194z" />
    <glyph glyph-name="wacute" unicode="&#x1e83;" horiz-adv-x="867" 
d="M422 697h201l-93 -180h-177zM20 480h200l67 -250l67 250h159l67 -250l67 250h200l-162 -480h-180l-72 242l-71 -242h-180z" />
    <glyph glyph-name="Wdieresis" unicode="&#x1e84;" horiz-adv-x="990" 
d="M325.5 765.5q-24.5 23.5 -24.5 57.5t25 58.5t58 24.5q34 0 58 -24.5t24 -58.5t-24 -57.5t-58 -23.5t-58.5 23.5zM561.5 765.5q-24.5 23.5 -24.5 57.5t24.5 58.5t58.5 24.5q33 0 57 -24.5t24 -58.5t-24 -57.5t-57 -23.5q-34 0 -58.5 23.5zM20 699h214l97 -366l93 366h150
l85 -367l96 367h215l-186 -699h-194l-95 371l-95 -371h-194z" />
    <glyph glyph-name="wdieresis" unicode="&#x1e85;" horiz-adv-x="867" 
d="M263.5 544.5q-24.5 23.5 -24.5 57.5t25 58.5t58 24.5q34 0 58 -24.5t24 -58.5t-24 -57.5t-58 -23.5t-58.5 23.5zM499.5 544.5q-24.5 23.5 -24.5 57.5t24.5 58.5t58.5 24.5q33 0 57 -24.5t24 -58.5t-24 -57.5t-57 -23.5q-34 0 -58.5 23.5zM20 480h200l67 -250l67 250h159
l67 -250l67 250h200l-162 -480h-180l-72 242l-71 -242h-180z" />
    <glyph glyph-name="uni1E8E" unicode="&#x1e8e;" horiz-adv-x="766" 
d="M322.5 765.5q-24.5 23.5 -24.5 57.5t24.5 58.5t58.5 24.5t57.5 -24t23.5 -59q0 -34 -23.5 -57.5t-57.5 -23.5t-58.5 23.5zM275 266l-255 433h221l138 -241l147 241h220l-264 -433v-266h-207v266z" />
    <glyph glyph-name="uni1E8F" unicode="&#x1e8f;" horiz-adv-x="642" 
d="M276.5 544.5q-24.5 23.5 -24.5 57.5t24.5 58.5t58.5 24.5t57.5 -24t23.5 -59q0 -34 -23.5 -57.5t-57.5 -23.5t-58.5 23.5zM131 -193q-38 5 -56 14v148q31 -12 68 -12q32 0 49 13.5t27 40.5l9 23l-208 446h200l114 -293l107 293h201l-192 -491q-38 -96 -96 -141.5
t-150 -45.5q-35 0 -73 5z" />
    <glyph glyph-name="uni1E92" unicode="&#x1e92;" horiz-adv-x="611" 
d="M20 136l292 389h-285v174h541v-137l-291 -388h314v-174h-571v136zM238.5 -186q-24.5 24 -24.5 58t24.5 58t58.5 24t57.5 -24t23.5 -58t-23.5 -58t-57.5 -24t-58.5 24z" />
    <glyph glyph-name="uni1E93" unicode="&#x1e93;" horiz-adv-x="531" 
d="M20 104l214 241h-209v135h478v-104l-212 -241h220v-135h-491v104zM208.5 -186q-24.5 24 -24.5 58t24.5 58t58.5 24t57.5 -24t23.5 -58t-23.5 -58t-57.5 -24t-58.5 24z" />
    <glyph glyph-name="uni1E97" unicode="&#x1e97;" horiz-adv-x="401" 
d="M-0.5 681.5q-24.5 23.5 -24.5 57.5t25 58.5t58 24.5q34 0 58 -24.5t24 -58.5t-24 -57.5t-58 -23.5t-58.5 23.5zM235.5 681.5q-24.5 23.5 -24.5 57.5t24.5 58.5t58.5 24.5q33 0 57 -24.5t24 -58.5t-24 -57.5t-57 -23.5q-34 0 -58.5 23.5zM120 37q-48 52 -48 141v167h-66
v135h66v144h201v-144h107v-135h-107v-138q0 -36 13.5 -51.5t45.5 -15.5q36 0 69 19v-148q-29 -13 -60.5 -19.5t-79.5 -6.5q-93 0 -141 52z" />
    <glyph glyph-name="uni1E9E" unicode="&#x1e9e;" horiz-adv-x="663" 
d="M333 -10.5q-34 4.5 -55 13.5v162q28 -19 72 -19q83 0 83 69q0 37 -21.5 54t-68.5 17h-56v98l99 113q-2 28 -19 46t-49 18q-77 0 -77 -84v-477h-206v452q0 125 72 193.5t209 68.5q92 0 154.5 -31.5t94.5 -82t38 -111.5l-95 -108q135 -42 135 -186q0 -100 -63 -155
t-178 -55q-35 0 -69 4.5z" />
    <glyph glyph-name="uni1EA0" unicode="&#x1ea0;" horiz-adv-x="798" 
d="M300 699h199l279 -699h-212l-52 133h-229l-53 -133h-212zM466 290l-67 196l-67 -196h134zM341.5 -186q-24.5 24 -24.5 58t24.5 58t58.5 24t57.5 -24t23.5 -58t-23.5 -58t-57.5 -24t-58.5 24z" />
    <glyph glyph-name="uni1EA1" unicode="&#x1ea1;" horiz-adv-x="606" 
d="M45.5 27.5q-55.5 42.5 -55.5 121.5q0 81 54 123.5t157 42.5q37 0 75 -8t64 -20v9q0 33 -32.5 50t-90.5 17q-87 0 -160 -35v132q33 16 86 25.5t113 9.5q139 0 212 -53t73 -150v-292h-189v38q-24 -24 -66 -38.5t-93 -14.5q-92 0 -147.5 42.5zM305 111q23 10 35 26v37
q-37 24 -84 24q-28 0 -43.5 -13t-15.5 -36q0 -22 15 -35t43 -13q27 0 50 10zM254.5 -186q-24.5 24 -24.5 58t24.5 58t58.5 24t57.5 -24t23.5 -58t-23.5 -58t-57.5 -24t-58.5 24z" />
    <glyph glyph-name="uni1EA2" unicode="&#x1ea2;" horiz-adv-x="798" 
d="M308 814q89 0 89 39q0 33 -62 33q-17 0 -35 -3t-27 -7v84q56 18 130 18q82 0 125 -30t43 -80q0 -37 -24.5 -62.5t-72.5 -33.5v-30h-166v72zM300 699h199l279 -699h-212l-52 133h-229l-53 -133h-212zM466 290l-67 196l-67 -196h134z" />
    <glyph glyph-name="uni1EA3" unicode="&#x1ea3;" horiz-adv-x="606" 
d="M217 593q89 0 89 39q0 33 -62 33q-17 0 -35 -3t-27 -7v84q56 18 130 18q82 0 125 -30t43 -80q0 -37 -24.5 -62.5t-72.5 -33.5v-30h-166v72zM45.5 27.5q-55.5 42.5 -55.5 121.5q0 81 54 123.5t157 42.5q37 0 75 -8t64 -20v9q0 33 -32.5 50t-90.5 17q-87 0 -160 -35v132
q33 16 86 25.5t113 9.5q139 0 212 -53t73 -150v-292h-189v38q-24 -24 -66 -38.5t-93 -14.5q-92 0 -147.5 42.5zM305 111q23 10 35 26v37q-37 24 -84 24q-28 0 -43.5 -13t-15.5 -36q0 -22 15 -35t43 -13q27 0 50 10z" />
    <glyph glyph-name="uni1EA4" unicode="&#x1ea4;" horiz-adv-x="797" 
d="M590 1012h164l-82 -144h-140zM330 903h133l159 -159h-164l-61 68l-61 -68h-164zM300 699h199l279 -699h-212l-52 133h-229l-53 -133h-212zM466 290l-67 196l-67 -196h134z" />
    <glyph glyph-name="uni1EA5" unicode="&#x1ea5;" horiz-adv-x="606" 
d="M500 789h164l-82 -144h-140zM240 680h133l159 -159h-164l-61 68l-61 -68h-164zM45.5 27.5q-55.5 42.5 -55.5 121.5q0 81 54 123.5t157 42.5q37 0 75 -8t64 -20v9q0 33 -32.5 50t-90.5 17q-87 0 -160 -35v132q33 16 86 25.5t113 9.5q139 0 212 -53t73 -150v-292h-189v38
q-24 -24 -66 -38.5t-93 -14.5q-92 0 -147.5 42.5zM305 111q23 10 35 26v37q-37 24 -84 24q-28 0 -43.5 -13t-15.5 -36q0 -22 15 -35t43 -13q27 0 50 10z" />
    <glyph glyph-name="uni1EA6" unicode="&#x1ea6;" horiz-adv-x="795" 
d="M39 1009h164l58 -144h-140zM330 900h133l158 -159h-164l-61 68l-61 -68h-164zM296 699h199l279 -699h-212l-52 133h-229l-53 -133h-212zM462 290l-67 196l-67 -196h134z" />
    <glyph glyph-name="uni1EA7" unicode="&#x1ea7;" horiz-adv-x="606" 
d="M-40 789h164l58 -144h-140zM251 680h133l158 -159h-164l-61 68l-61 -68h-164zM45.5 27.5q-55.5 42.5 -55.5 121.5q0 81 54 123.5t157 42.5q37 0 75 -8t64 -20v9q0 33 -32.5 50t-90.5 17q-87 0 -160 -35v132q33 16 86 25.5t113 9.5q139 0 212 -53t73 -150v-292h-189v38
q-24 -24 -66 -38.5t-93 -14.5q-92 0 -147.5 42.5zM305 111q23 10 35 26v37q-37 24 -84 24q-28 0 -43.5 -13t-15.5 -36q0 -22 15 -35t43 -13q27 0 50 10z" />
    <glyph glyph-name="uni1EA8" unicode="&#x1ea8;" horiz-adv-x="798" 
d="M533 908q49 0 49 24q0 21 -39 21q-21 0 -35 -6v64q18 5 45 8.5t48 3.5q55 0 84.5 -20t29.5 -55q0 -24 -15.5 -41t-44.5 -25v-25h-122v51zM336 903h133l159 -159h-164l-61 68l-61 -68h-164zM300 699h199l279 -699h-212l-52 133h-229l-53 -133h-212zM466 290l-67 196
l-67 -196h134z" />
    <glyph glyph-name="uni1EA9" unicode="&#x1ea9;" horiz-adv-x="606" 
d="M441 685q49 0 49 24q0 21 -39 21q-21 0 -35 -6v64q18 5 45 8.5t48 3.5q55 0 84.5 -20t29.5 -55q0 -24 -15.5 -41t-44.5 -25v-25h-122v51zM244 680h133l159 -159h-164l-61 68l-61 -68h-164zM45.5 27.5q-55.5 42.5 -55.5 121.5q0 81 54 123.5t157 42.5q37 0 75 -8t64 -20v9
q0 33 -32.5 50t-90.5 17q-87 0 -160 -35v132q33 16 86 25.5t113 9.5q139 0 212 -53t73 -150v-292h-189v38q-24 -24 -66 -38.5t-93 -14.5q-92 0 -147.5 42.5zM305 111q23 10 35 26v37q-37 24 -84 24q-28 0 -43.5 -13t-15.5 -36q0 -22 15 -35t43 -13q27 0 50 10z" />
    <glyph glyph-name="uni1EAA" unicode="&#x1eaa;" horiz-adv-x="798" 
d="M451.5 916q-18.5 5 -48.5 16q-27 10 -43 15t-33 5q-51 0 -85 -40v107q29 33 85 33q18 0 36.5 -5.5t46.5 -15.5q27 -10 44.5 -15t34.5 -5q52 0 86 40v-108q-28 -32 -86 -32q-19 0 -37.5 5zM332 900h133l159 -159h-164l-61 68l-61 -68h-164zM300 699h199l279 -699h-212
l-52 133h-229l-53 -133h-212zM466 290l-67 196l-67 -196h134z" />
    <glyph glyph-name="uni1EAB" unicode="&#x1eab;" horiz-adv-x="606" 
d="M368.5 696q-18.5 5 -48.5 16q-27 10 -43 15t-33 5q-51 0 -85 -40v107q29 33 85 33q18 0 36.5 -5.5t46.5 -15.5q27 -10 44.5 -15t34.5 -5q52 0 86 40v-108q-28 -32 -86 -32q-19 0 -37.5 5zM249 680h133l159 -159h-164l-61 68l-61 -68h-164zM45.5 27.5
q-55.5 42.5 -55.5 121.5q0 81 54 123.5t157 42.5q37 0 75 -8t64 -20v9q0 33 -32.5 50t-90.5 17q-87 0 -160 -35v132q33 16 86 25.5t113 9.5q139 0 212 -53t73 -150v-292h-189v38q-24 -24 -66 -38.5t-93 -14.5q-92 0 -147.5 42.5zM305 111q23 10 35 26v37q-37 24 -84 24
q-28 0 -43.5 -13t-15.5 -36q0 -22 15 -35t43 -13q27 0 50 10z" />
    <glyph glyph-name="uni1EAC" unicode="&#x1eac;" horiz-adv-x="798" 
d="M317 920h165l148 -172h-172l-58 71l-58 -71h-173zM300 699h199l279 -699h-212l-52 133h-229l-53 -133h-212zM466 290l-67 196l-67 -196h134zM341.5 -186q-24.5 24 -24.5 58t24.5 58t58.5 24t57.5 -24t23.5 -58t-23.5 -58t-57.5 -24t-58.5 24z" />
    <glyph glyph-name="uni1EAD" unicode="&#x1ead;" horiz-adv-x="606" 
d="M227 700h165l148 -172h-172l-58 71l-58 -71h-173zM45.5 27.5q-55.5 42.5 -55.5 121.5q0 81 54 123.5t157 42.5q37 0 75 -8t64 -20v9q0 33 -32.5 50t-90.5 17q-87 0 -160 -35v132q33 16 86 25.5t113 9.5q139 0 212 -53t73 -150v-292h-189v38q-24 -24 -66 -38.5t-93 -14.5
q-92 0 -147.5 42.5zM305 111q23 10 35 26v37q-37 24 -84 24q-28 0 -43.5 -13t-15.5 -36q0 -22 15 -35t43 -13q27 0 50 10zM253.5 -186q-24.5 24 -24.5 58t24.5 58t58.5 24t57.5 -24t23.5 -58t-23.5 -58t-57.5 -24t-58.5 24z" />
    <glyph glyph-name="uni1EAE" unicode="&#x1eae;" horiz-adv-x="798" 
d="M380 1051h165l-75 -134h-142zM268.5 783q-50.5 42 -50.5 114h127q0 -53 55 -53q54 0 54 53h127q0 -72 -50 -114t-131 -42t-131.5 42zM300 699h199l279 -699h-212l-52 133h-229l-53 -133h-212zM466 290l-67 196l-67 -196h134z" />
    <glyph glyph-name="uni1EAF" unicode="&#x1eaf;" horiz-adv-x="606" 
d="M299 830h165l-75 -134h-142zM187.5 562q-50.5 42 -50.5 114h127q0 -53 55 -53q54 0 54 53h127q0 -72 -50 -114t-131 -42t-131.5 42zM45.5 27.5q-55.5 42.5 -55.5 121.5q0 81 54 123.5t157 42.5q37 0 75 -8t64 -20v9q0 33 -32.5 50t-90.5 17q-87 0 -160 -35v132
q33 16 86 25.5t113 9.5q139 0 212 -53t73 -150v-292h-189v38q-24 -24 -66 -38.5t-93 -14.5q-92 0 -147.5 42.5zM305 111q23 10 35 26v37q-37 24 -84 24q-28 0 -43.5 -13t-15.5 -36q0 -22 15 -35t43 -13q27 0 50 10z" />
    <glyph glyph-name="uni1EB0" unicode="&#x1eb0;" horiz-adv-x="798" 
d="M255 1051h165l52 -134h-143zM268.5 783q-50.5 42 -50.5 114h128q0 -53 54 -53t54 53h127q0 -72 -50 -114t-131 -42t-131.5 42zM300 699h199l279 -699h-212l-52 133h-229l-53 -133h-212zM466 290l-67 196l-67 -196h134z" />
    <glyph glyph-name="uni1EB1" unicode="&#x1eb1;" horiz-adv-x="606" 
d="M180 829h165l52 -134h-143zM193.5 561q-50.5 42 -50.5 114h128q0 -53 54 -53t54 53h127q0 -72 -50 -114t-131 -42t-131.5 42zM45.5 27.5q-55.5 42.5 -55.5 121.5q0 81 54 123.5t157 42.5q37 0 75 -8t64 -20v9q0 33 -32.5 50t-90.5 17q-87 0 -160 -35v132q33 16 86 25.5
t113 9.5q139 0 212 -53t73 -150v-292h-189v38q-24 -24 -66 -38.5t-93 -14.5q-92 0 -147.5 42.5zM305 111q23 10 35 26v37q-37 24 -84 24q-28 0 -43.5 -13t-15.5 -36q0 -22 15 -35t43 -13q27 0 50 10z" />
    <glyph glyph-name="uni1EB2" unicode="&#x1eb2;" horiz-adv-x="798" 
d="M342 958q49 0 49 24q0 21 -39 21q-24 0 -34 -6v64q16 5 43 8.5t49 3.5q56 0 85 -20t29 -55q0 -51 -59 -67v-20h-123v47zM268.5 783q-50.5 42 -50.5 114h128q0 -53 54 -53t54 53h127q0 -72 -50 -114t-131 -42t-131.5 42zM300 699h199l279 -699h-212l-52 133h-229l-53 -133
h-212zM466 290l-67 196l-67 -196h134z" />
    <glyph glyph-name="uni1EB3" unicode="&#x1eb3;" horiz-adv-x="606" 
d="M264 736q49 0 49 24q0 21 -39 21q-24 0 -34 -6v64q16 5 43 8.5t49 3.5q56 0 85 -20t29 -55q0 -51 -59 -67v-20h-123v47zM190.5 561q-50.5 42 -50.5 114h128q0 -53 54 -53t54 53h127q0 -72 -50 -114t-131 -42t-131.5 42zM45.5 27.5q-55.5 42.5 -55.5 121.5q0 81 54 123.5
t157 42.5q37 0 75 -8t64 -20v9q0 33 -32.5 50t-90.5 17q-87 0 -160 -35v132q33 16 86 25.5t113 9.5q139 0 212 -53t73 -150v-292h-189v38q-24 -24 -66 -38.5t-93 -14.5q-92 0 -147.5 42.5zM305 111q23 10 35 26v37q-37 24 -84 24q-28 0 -43.5 -13t-15.5 -36q0 -22 15 -35
t43 -13q27 0 50 10z" />
    <glyph glyph-name="uni1EB4" unicode="&#x1eb4;" horiz-adv-x="798" 
d="M442.5 925q-18.5 5 -48.5 16q-27 10 -43 15t-33 5q-51 0 -85 -40v107q29 33 85 33q30 0 83 -21q27 -10 45 -15t35 -5q51 0 85 40v-108q-28 -32 -85 -32q-20 0 -38.5 5zM268.5 783q-50.5 42 -50.5 114h128q0 -53 54 -53t54 53h127q0 -72 -50 -114t-131 -42t-131.5 42z
M300 699h199l279 -699h-212l-52 133h-229l-53 -133h-212zM466 290l-67 196l-67 -196h134z" />
    <glyph glyph-name="uni1EB5" unicode="&#x1eb5;" horiz-adv-x="606" 
d="M367.5 704q-18.5 5 -48.5 16q-27 10 -43 15t-33 5q-51 0 -85 -40v107q29 33 85 33q30 0 83 -21q27 -10 45 -15t35 -5q51 0 85 40v-108q-28 -32 -85 -32q-20 0 -38.5 5zM193.5 562q-50.5 42 -50.5 114h128q0 -53 54 -53t54 53h127q0 -72 -50 -114t-131 -42t-131.5 42z
M45.5 27.5q-55.5 42.5 -55.5 121.5q0 81 54 123.5t157 42.5q37 0 75 -8t64 -20v9q0 33 -32.5 50t-90.5 17q-87 0 -160 -35v132q33 16 86 25.5t113 9.5q139 0 212 -53t73 -150v-292h-189v38q-24 -24 -66 -38.5t-93 -14.5q-92 0 -147.5 42.5zM305 111q23 10 35 26v37
q-37 24 -84 24q-28 0 -43.5 -13t-15.5 -36q0 -22 15 -35t43 -13q27 0 50 10z" />
    <glyph glyph-name="uni1EB6" unicode="&#x1eb6;" horiz-adv-x="798" 
d="M255.5 790q-50.5 49 -50.5 135h149q0 -60 45 -60t45 60h149q0 -86 -50.5 -135t-143.5 -49t-143.5 49zM300 699h199l279 -699h-212l-52 133h-229l-53 -133h-212zM466 290l-67 196l-67 -196h134zM341.5 -186q-24.5 24 -24.5 58t24.5 58t58.5 24t57.5 -24t23.5 -58
t-23.5 -58t-57.5 -24t-58.5 24z" />
    <glyph glyph-name="uni1EB7" unicode="&#x1eb7;" horiz-adv-x="606" 
d="M174.5 570q-50.5 49 -50.5 135h149q0 -60 45 -60t45 60h149q0 -86 -50.5 -135t-143.5 -49t-143.5 49zM45.5 27.5q-55.5 42.5 -55.5 121.5q0 81 54 123.5t157 42.5q37 0 75 -8t64 -20v9q0 33 -32.5 50t-90.5 17q-87 0 -160 -35v132q33 16 86 25.5t113 9.5q139 0 212 -53
t73 -150v-292h-189v38q-24 -24 -66 -38.5t-93 -14.5q-92 0 -147.5 42.5zM305 111q23 10 35 26v37q-37 24 -84 24q-28 0 -43.5 -13t-15.5 -36q0 -22 15 -35t43 -13q27 0 50 10zM259.5 -186q-24.5 24 -24.5 58t24.5 58t58.5 24t57.5 -24t23.5 -58t-23.5 -58t-57.5 -24
t-58.5 24z" />
    <glyph glyph-name="uni1EB8" unicode="&#x1eb8;" horiz-adv-x="557" 
d="M40 699h507v-174h-300v-96h216v-159h-216v-96h300v-174h-507v699zM228.5 -186q-24.5 24 -24.5 58t24.5 58t58.5 24t57.5 -24t23.5 -58t-23.5 -58t-57.5 -24t-58.5 24z" />
    <glyph glyph-name="uni1EB9" unicode="&#x1eb9;" horiz-adv-x="600" 
d="M101 51q-81 66 -81 187q0 119 73 188t210 69q88 0 150.5 -32.5t94.5 -89.5t32 -128v-65h-370q24 -64 145 -64q48 0 98.5 7.5t85.5 21.5v-125q-38 -16 -95 -25.5t-117 -9.5q-145 0 -226 66zM391 296q-5 32 -28 49.5t-63 17.5t-62.5 -18t-27.5 -49h181zM263.5 -186
q-24.5 24 -24.5 58t24.5 58t58.5 24t57.5 -24t23.5 -58t-23.5 -58t-57.5 -24t-58.5 24z" />
    <glyph glyph-name="uni1EBA" unicode="&#x1eba;" horiz-adv-x="557" 
d="M195 814q89 0 89 39q0 33 -62 33q-17 0 -35 -3t-27 -7v84q56 18 130 18q82 0 125 -30t43 -80q0 -37 -24.5 -62.5t-72.5 -33.5v-30h-166v72zM40 699h507v-174h-300v-96h216v-159h-216v-96h300v-174h-507v699z" />
    <glyph glyph-name="uni1EBB" unicode="&#x1ebb;" horiz-adv-x="600" 
d="M212 593q89 0 89 39q0 33 -62 33q-17 0 -35 -3t-27 -7v84q56 18 130 18q82 0 125 -30t43 -80q0 -37 -24.5 -62.5t-72.5 -33.5v-30h-166v72zM101 51q-81 66 -81 187q0 119 73 188t210 69q88 0 150.5 -32.5t94.5 -89.5t32 -128v-65h-370q24 -64 145 -64q48 0 98.5 7.5
t85.5 21.5v-125q-38 -16 -95 -25.5t-117 -9.5q-145 0 -226 66zM391 296q-5 32 -28 49.5t-63 17.5t-62.5 -18t-27.5 -49h181z" />
    <glyph glyph-name="uni1EBC" unicode="&#x1ebc;" horiz-adv-x="557" 
d="M100 883q35 41 107 41q22 0 44.5 -6t58.5 -19q31 -12 53.5 -18.5t44.5 -6.5q65 0 107 49v-140q-34 -41 -107 -41q-25 0 -49.5 6.5t-57.5 19.5q-33 12 -53 18t-41 6q-64 0 -107 -50v141zM40 699h507v-174h-300v-96h216v-159h-216v-96h300v-174h-507v699z" />
    <glyph glyph-name="uni1EBD" unicode="&#x1ebd;" horiz-adv-x="600" 
d="M110 662q35 41 107 41q22 0 44.5 -6t58.5 -19q31 -12 53.5 -18.5t44.5 -6.5q65 0 107 49v-140q-34 -41 -107 -41q-25 0 -49.5 6.5t-57.5 19.5q-33 12 -53 18t-41 6q-64 0 -107 -50v141zM101 51q-81 66 -81 187q0 119 73 188t210 69q88 0 150.5 -32.5t94.5 -89.5t32 -128
v-65h-370q24 -64 145 -64q48 0 98.5 7.5t85.5 21.5v-125q-38 -16 -95 -25.5t-117 -9.5q-145 0 -226 66zM391 296q-5 32 -28 49.5t-63 17.5t-62.5 -18t-27.5 -49h181z" />
    <glyph glyph-name="uni1EBE" unicode="&#x1ebe;" horiz-adv-x="557" 
d="M490 1009h164l-82 -144h-140zM230 900h133l159 -159h-164l-61 68l-61 -68h-164zM40 699h507v-174h-300v-96h216v-159h-216v-96h300v-174h-507v699z" />
    <glyph glyph-name="uni1EBF" unicode="&#x1ebf;" horiz-adv-x="585" 
d="M502 789h164l-82 -144h-140zM242 680h133l159 -159h-164l-61 68l-61 -68h-164zM101 51q-81 66 -81 187q0 119 73 188t210 69q88 0 150.5 -32.5t94.5 -89.5t32 -128v-65h-370q24 -64 145 -64q48 0 98.5 7.5t85.5 21.5v-125q-38 -16 -95 -25.5t-117 -9.5q-145 0 -226 66z
M391 296q-5 32 -28 49.5t-63 17.5t-62.5 -18t-27.5 -49h181z" />
    <glyph glyph-name="uni1EC0" unicode="&#x1ec0;" horiz-adv-x="557" 
d="M-55 1009h164l58 -144h-140zM236 900h133l158 -159h-164l-61 68l-61 -68h-164zM40 699h507v-174h-300v-96h216v-159h-216v-96h300v-174h-507v699z" />
    <glyph glyph-name="uni1EC1" unicode="&#x1ec1;" horiz-adv-x="570" 
d="M-74 789h164l58 -144h-140zM217 680h133l158 -159h-164l-61 68l-61 -68h-164zM71 51q-81 66 -81 187q0 119 73 188t210 69q88 0 150.5 -32.5t94.5 -89.5t32 -128v-65h-370q24 -64 145 -64q48 0 98.5 7.5t85.5 21.5v-125q-38 -16 -95 -25.5t-117 -9.5q-145 0 -226 66z
M361 296q-5 32 -28 49.5t-63 17.5t-62.5 -18t-27.5 -49h181z" />
    <glyph glyph-name="uni1EC2" unicode="&#x1ec2;" horiz-adv-x="560" 
d="M419 905q49 0 49 24q0 21 -39 21q-22 0 -35 -6v64q18 5 45 8.5t48 3.5q55 0 84.5 -20t29.5 -55q0 -24 -15.5 -41t-44.5 -25v-25h-122v51zM222 900h133l159 -159h-164l-61 68l-61 -68h-164zM40 699h507v-174h-300v-96h216v-159h-216v-96h300v-174h-507v699z" />
    <glyph glyph-name="uni1EC3" unicode="&#x1ec3;" horiz-adv-x="613" 
d="M431 692q49 0 49 24q0 21 -39 21q-21 0 -35 -6v64q18 5 45 8.5t48 3.5q55 0 84.5 -20t29.5 -55q0 -24 -15.5 -41t-44.5 -25v-25h-122v51zM234 687h133l159 -159h-164l-61 68l-61 -68h-164zM101 51q-81 66 -81 187q0 119 73 188t210 69q88 0 150.5 -32.5t94.5 -89.5
t32 -128v-65h-370q24 -64 145 -64q48 0 98.5 7.5t85.5 21.5v-125q-38 -16 -95 -25.5t-117 -9.5q-145 0 -226 66zM391 296q-5 32 -28 49.5t-63 17.5t-62.5 -18t-27.5 -49h181z" />
    <glyph glyph-name="uni1EC4" unicode="&#x1ec4;" horiz-adv-x="557" 
d="M347.5 916q-18.5 5 -48.5 16q-27 10 -43 15t-33 5q-51 0 -85 -40v107q29 33 85 33q18 0 36.5 -5.5t46.5 -15.5q27 -10 44.5 -15t34.5 -5q52 0 86 40v-108q-28 -32 -86 -32q-19 0 -37.5 5zM228 900h133l159 -159h-164l-61 68l-61 -68h-164zM40 699h507v-174h-300v-96h216
v-159h-216v-96h300v-174h-507v699z" />
    <glyph glyph-name="uni1EC5" unicode="&#x1ec5;" horiz-adv-x="600" 
d="M362.5 696q-18.5 5 -48.5 16q-27 10 -43 15t-33 5q-51 0 -85 -40v107q29 33 85 33q18 0 36.5 -5.5t46.5 -15.5q27 -10 44.5 -15t34.5 -5q52 0 86 40v-108q-28 -32 -86 -32q-19 0 -37.5 5zM243 680h133l159 -159h-164l-61 68l-61 -68h-164zM101 51q-81 66 -81 187
q0 119 73 188t210 69q88 0 150.5 -32.5t94.5 -89.5t32 -128v-65h-370q24 -64 145 -64q48 0 98.5 7.5t85.5 21.5v-125q-38 -16 -95 -25.5t-117 -9.5q-145 0 -226 66zM391 296q-5 32 -28 49.5t-63 17.5t-62.5 -18t-27.5 -49h181z" />
    <glyph glyph-name="uni1EC6" unicode="&#x1ec6;" horiz-adv-x="557" 
d="M219 920h165l148 -172h-172l-58 71l-58 -71h-173zM40 699h507v-174h-300v-96h216v-159h-216v-96h300v-174h-507v699zM244.5 -186q-24.5 24 -24.5 58t24.5 58t58.5 24t57.5 -24t23.5 -58t-23.5 -58t-57.5 -24t-58.5 24z" />
    <glyph glyph-name="uni1EC7" unicode="&#x1ec7;" horiz-adv-x="614" 
d="M239 700h165l148 -172h-172l-58 71l-58 -71h-173zM115 51q-81 66 -81 187q0 119 73 188t210 69q88 0 150.5 -32.5t94.5 -89.5t32 -128v-65h-370q24 -64 145 -64q48 0 98.5 7.5t85.5 21.5v-125q-38 -16 -95 -25.5t-117 -9.5q-145 0 -226 66zM405 296q-5 32 -28 49.5
t-63 17.5t-62.5 -18t-27.5 -49h181zM264.5 -186q-24.5 24 -24.5 58t24.5 58t58.5 24t57.5 -24t23.5 -58t-23.5 -58t-57.5 -24t-58.5 24z" />
    <glyph glyph-name="uni1EC8" unicode="&#x1ec8;" horiz-adv-x="287" 
d="M60 814q89 0 89 39q0 33 -62 33q-17 0 -35 -3t-27 -7v84q56 18 130 18q82 0 125 -30t43 -80q0 -37 -24.5 -62.5t-72.5 -33.5v-30h-166v72zM40 699h207v-699h-207v699z" />
    <glyph glyph-name="uni1EC9" unicode="&#x1ec9;" horiz-adv-x="280" 
d="M54 593q89 0 89 39q0 33 -62 33q-17 0 -35 -3t-27 -7v84q56 18 130 18q82 0 125 -30t43 -80q0 -37 -24.5 -62.5t-72.5 -33.5v-30h-166v72zM40 480h200v-480h-200v480z" />
    <glyph glyph-name="uni1ECA" unicode="&#x1eca;" horiz-adv-x="287" 
d="M40 699h207v-699h-207v699zM85.5 -186q-24.5 24 -24.5 58t24.5 58t58.5 24t57.5 -24t23.5 -58t-23.5 -58t-57.5 -24t-58.5 24z" />
    <glyph glyph-name="uni1ECB" unicode="&#x1ecb;" horiz-adv-x="290" 
d="M70 563q-30 29 -30 74q0 44 30 73.5t75 29.5q44 0 74.5 -30t30.5 -73q0 -44 -30.5 -73.5t-74.5 -29.5q-45 0 -75 29zM45 480h200v-480h-200v480zM88.5 -186q-24.5 24 -24.5 58t24.5 58t58.5 24t57.5 -24t23.5 -58t-23.5 -58t-57.5 -24t-58.5 24z" />
    <glyph glyph-name="uni1ECC" unicode="&#x1ecc;" horiz-adv-x="794" 
d="M205.5 31q-86.5 46 -136 128.5t-49.5 189.5t49.5 190t136 129t192.5 46t191.5 -46t135 -129t49.5 -190t-49.5 -189.5t-135 -128.5t-191.5 -46t-192.5 46zM481.5 199.5q37.5 20.5 59.5 59t22 90.5q0 77 -47 123t-118 46q-72 0 -119.5 -46t-47.5 -123q0 -52 22 -90.5
t60 -59t85 -20.5q46 0 83.5 20.5zM339.5 -186q-24.5 24 -24.5 58t24.5 58t58.5 24t57.5 -24t23.5 -58t-23.5 -58t-57.5 -24t-58.5 24z" />
    <glyph glyph-name="uni1ECD" unicode="&#x1ecd;" horiz-adv-x="647" 
d="M162.5 17.5q-68.5 32.5 -105.5 90.5t-37 132q0 73 37 131t105.5 91t160.5 33t161 -33t106 -91t37 -131q0 -74 -37 -132t-106 -90.5t-161 -32.5t-160.5 32.5zM395 167q27 27 27 73t-27 72.5t-72 26.5t-71.5 -26.5t-26.5 -72.5t26.5 -73t71.5 -27t72 27zM265.5 -186
q-24.5 24 -24.5 58t24.5 58t58.5 24t57.5 -24t23.5 -58t-23.5 -58t-57.5 -24t-58.5 24z" />
    <glyph glyph-name="uni1ECE" unicode="&#x1ece;" horiz-adv-x="794" 
d="M297 814q89 0 89 39q0 33 -62 33q-17 0 -35 -3t-27 -7v84q56 18 130 18q82 0 125 -30t43 -80q0 -37 -24.5 -62.5t-72.5 -33.5v-30h-166v72zM205.5 31q-86.5 46 -136 128.5t-49.5 189.5t49.5 190t136 129t192.5 46t191.5 -46t135 -129t49.5 -190t-49.5 -189.5t-135 -128.5
t-191.5 -46t-192.5 46zM481.5 199.5q37.5 20.5 59.5 59t22 90.5q0 77 -47 123t-118 46q-72 0 -119.5 -46t-47.5 -123q0 -52 22 -90.5t60 -59t85 -20.5q46 0 83.5 20.5z" />
    <glyph glyph-name="uni1ECF" unicode="&#x1ecf;" horiz-adv-x="647" 
d="M241 593q89 0 89 39q0 33 -62 33q-17 0 -35 -3t-27 -7v84q56 18 130 18q82 0 125 -30t43 -80q0 -37 -24.5 -62.5t-72.5 -33.5v-30h-166v72zM162.5 17.5q-68.5 32.5 -105.5 90.5t-37 132q0 73 37 131t105.5 91t160.5 33t161 -33t106 -91t37 -131q0 -74 -37 -132
t-106 -90.5t-161 -32.5t-160.5 32.5zM395 167q27 27 27 73t-27 72.5t-72 26.5t-71.5 -26.5t-26.5 -72.5t26.5 -73t71.5 -27t72 27z" />
    <glyph glyph-name="uni1ED0" unicode="&#x1ed0;" horiz-adv-x="794" 
d="M591 1009h164l-82 -144h-140zM331 900h133l159 -159h-164l-61 68l-61 -68h-164zM205.5 31q-86.5 46 -136 128.5t-49.5 189.5t49.5 190t136 129t192.5 46t191.5 -46t135 -129t49.5 -190t-49.5 -189.5t-135 -128.5t-191.5 -46t-192.5 46zM481.5 199.5q37.5 20.5 59.5 59
t22 90.5q0 77 -47 123t-118 46q-72 0 -119.5 -46t-47.5 -123q0 -52 22 -90.5t60 -59t85 -20.5q46 0 83.5 20.5z" />
    <glyph glyph-name="uni1ED1" unicode="&#x1ed1;" horiz-adv-x="647" 
d="M508 789h164l-82 -144h-140zM248 680h133l159 -159h-164l-61 68l-61 -68h-164zM162.5 17.5q-68.5 32.5 -105.5 90.5t-37 132q0 73 37 131t105.5 91t160.5 33t161 -33t106 -91t37 -131q0 -74 -37 -132t-106 -90.5t-161 -32.5t-160.5 32.5zM395 167q27 27 27 73t-27 72.5
t-72 26.5t-71.5 -26.5t-26.5 -72.5t26.5 -73t71.5 -27t72 27z" />
    <glyph glyph-name="uni1ED2" unicode="&#x1ed2;" horiz-adv-x="794" 
d="M38 1009h164l58 -144h-140zM329 900h133l158 -159h-164l-61 68l-61 -68h-164zM205.5 31q-86.5 46 -136 128.5t-49.5 189.5t49.5 190t136 129t192.5 46t191.5 -46t135 -129t49.5 -190t-49.5 -189.5t-135 -128.5t-191.5 -46t-192.5 46zM481.5 199.5q37.5 20.5 59.5 59
t22 90.5q0 77 -47 123t-118 46q-72 0 -119.5 -46t-47.5 -123q0 -52 22 -90.5t60 -59t85 -20.5q46 0 83.5 20.5z" />
    <glyph glyph-name="uni1ED3" unicode="&#x1ed3;" horiz-adv-x="647" 
d="M-30 789h164l58 -144h-140zM261 680h133l158 -159h-164l-61 68l-61 -68h-164zM162.5 17.5q-68.5 32.5 -105.5 90.5t-37 132q0 73 37 131t105.5 91t160.5 33t161 -33t106 -91t37 -131q0 -74 -37 -132t-106 -90.5t-161 -32.5t-160.5 32.5zM395 167q27 27 27 73t-27 72.5
t-72 26.5t-71.5 -26.5t-26.5 -72.5t26.5 -73t71.5 -27t72 27z" />
    <glyph glyph-name="uni1ED4" unicode="&#x1ed4;" horiz-adv-x="794" 
d="M541 905q49 0 49 24q0 21 -39 21q-22 0 -35 -6v64q18 5 45 8.5t48 3.5q55 0 84.5 -20t29.5 -55q0 -24 -15.5 -41t-44.5 -25v-25h-122v51zM344 900h133l159 -159h-164l-61 68l-61 -68h-164zM205.5 31q-86.5 46 -136 128.5t-49.5 189.5t49.5 190t136 129t192.5 46
t191.5 -46t135 -129t49.5 -190t-49.5 -189.5t-135 -128.5t-191.5 -46t-192.5 46zM481.5 199.5q37.5 20.5 59.5 59t22 90.5q0 77 -47 123t-118 46q-72 0 -119.5 -46t-47.5 -123q0 -52 22 -90.5t60 -59t85 -20.5q46 0 83.5 20.5z" />
    <glyph glyph-name="uni1ED5" unicode="&#x1ed5;" horiz-adv-x="649" 
d="M459 685q49 0 49 24q0 21 -39 21q-21 0 -35 -6v64q18 5 45 8.5t48 3.5q55 0 84.5 -20t29.5 -55q0 -24 -15.5 -41t-44.5 -25v-25h-122v51zM262 680h133l159 -159h-164l-61 68l-61 -68h-164zM162.5 17.5q-68.5 32.5 -105.5 90.5t-37 132q0 73 37 131t105.5 91t160.5 33
t161 -33t106 -91t37 -131q0 -74 -37 -132t-106 -90.5t-161 -32.5t-160.5 32.5zM395 167q27 27 27 73t-27 72.5t-72 26.5t-71.5 -26.5t-26.5 -72.5t26.5 -73t71.5 -27t72 27z" />
    <glyph glyph-name="uni1ED6" unicode="&#x1ed6;" horiz-adv-x="794" 
d="M440.5 925q-18.5 5 -48.5 16q-27 10 -43 15t-33 5q-51 0 -85 -40v107q29 33 85 33q30 0 83 -21q27 -10 45 -15t35 -5q51 0 85 40v-108q-28 -32 -85 -32q-20 0 -38.5 5zM266.5 783q-50.5 42 -50.5 114h128q0 -53 54 -53t54 53h127q0 -72 -50 -114t-131 -42t-131.5 42z
M205.5 31q-86.5 46 -136 128.5t-49.5 189.5t49.5 190t136 129t192.5 46t191.5 -46t135 -129t49.5 -190t-49.5 -189.5t-135 -128.5t-191.5 -46t-192.5 46zM481.5 199.5q37.5 20.5 59.5 59t22 90.5q0 77 -47 123t-118 46q-72 0 -119.5 -46t-47.5 -123q0 -52 22 -90.5t60 -59
t85 -20.5q46 0 83.5 20.5z" />
    <glyph glyph-name="uni1ED7" unicode="&#x1ed7;" horiz-adv-x="647" 
d="M366.5 704q-18.5 5 -48.5 16q-27 10 -43 15t-33 5q-51 0 -85 -40v107q29 33 85 33q30 0 83 -21q27 -10 45 -15t35 -5q51 0 85 40v-108q-28 -32 -85 -32q-20 0 -38.5 5zM192.5 562q-50.5 42 -50.5 114h128q0 -53 54 -53t54 53h127q0 -72 -50 -114t-131 -42t-131.5 42z
M162.5 17.5q-68.5 32.5 -105.5 90.5t-37 132q0 73 37 131t105.5 91t160.5 33t161 -33t106 -91t37 -131q0 -74 -37 -132t-106 -90.5t-161 -32.5t-160.5 32.5zM395 167q27 27 27 73t-27 72.5t-72 26.5t-71.5 -26.5t-26.5 -72.5t26.5 -73t71.5 -27t72 27z" />
    <glyph glyph-name="uni1ED8" unicode="&#x1ed8;" horiz-adv-x="794" 
d="M315 920h165l148 -172h-172l-58 71l-58 -71h-173zM205.5 31q-86.5 46 -136 128.5t-49.5 189.5t49.5 190t136 129t192.5 46t191.5 -46t135 -129t49.5 -190t-49.5 -189.5t-135 -128.5t-191.5 -46t-192.5 46zM481.5 199.5q37.5 20.5 59.5 59t22 90.5q0 77 -47 123t-118 46
q-72 0 -119.5 -46t-47.5 -123q0 -52 22 -90.5t60 -59t85 -20.5q46 0 83.5 20.5zM339.5 -186q-24.5 24 -24.5 58t24.5 58t58.5 24t57.5 -24t23.5 -58t-23.5 -58t-57.5 -24t-58.5 24z" />
    <glyph glyph-name="uni1ED9" unicode="&#x1ed9;" horiz-adv-x="651" 
d="M246 700h165l148 -172h-172l-58 71l-58 -71h-173zM166.5 17.5q-68.5 32.5 -105.5 90.5t-37 132q0 73 37 131t105.5 91t160.5 33t161 -33t106 -91t37 -131q0 -74 -37 -132t-106 -90.5t-161 -32.5t-160.5 32.5zM399 167q27 27 27 73t-27 72.5t-72 26.5t-71.5 -26.5
t-26.5 -72.5t26.5 -73t71.5 -27t72 27zM271.5 -186q-24.5 24 -24.5 58t24.5 58t58.5 24t57.5 -24t23.5 -58t-23.5 -58t-57.5 -24t-58.5 24z" />
    <glyph glyph-name="uni1EDA" unicode="&#x1eda;" horiz-adv-x="907" 
d="M386 917h201l-93 -180h-177zM205.5 31q-86.5 46 -136 128.5t-49.5 189.5t49.5 190t136 129t192.5 46q71 0 134.5 -21.5t112.5 -61.5q55 0 77 20.5t22 62.5v33h163v-46q0 -79 -42.5 -133t-120.5 -68q30 -71 30 -151q0 -107 -49.5 -189.5t-135 -128.5t-191.5 -46t-192.5 46
zM514 227q46 45 46 122q0 76 -46 121t-116 45q-71 0 -117.5 -45t-46.5 -121q0 -77 46.5 -122t117.5 -45q70 0 116 45z" />
    <glyph glyph-name="uni1EDB" unicode="&#x1edb;" horiz-adv-x="750" 
d="M292 697h201l-93 -180h-177zM162.5 17.5q-68.5 32.5 -105.5 90.5t-37 132q0 73 37 131t105.5 91t160.5 33q117 0 198 -54q37 6 53 27t16 57v33h160v-46q0 -71 -35 -122.5t-100 -71.5q12 -37 12 -78q0 -74 -37 -132t-106 -90.5t-161 -32.5t-160.5 32.5zM395 167
q27 27 27 73t-27 72.5t-72 26.5t-71.5 -26.5t-26.5 -72.5t26.5 -73t71.5 -27t72 27z" />
    <glyph glyph-name="uni1EDC" unicode="&#x1edc;" horiz-adv-x="907" 
d="M214 917h201l69 -180h-177zM205.5 31q-86.5 46 -136 128.5t-49.5 189.5t49.5 190t136 129t192.5 46q71 0 134.5 -21.5t112.5 -61.5q55 0 77 20.5t22 62.5v33h163v-46q0 -79 -42.5 -133t-120.5 -68q30 -71 30 -151q0 -107 -49.5 -189.5t-135 -128.5t-191.5 -46t-192.5 46z
M514 227q46 45 46 122q0 76 -46 121t-116 45q-71 0 -117.5 -45t-46.5 -121q0 -77 46.5 -122t117.5 -45q70 0 116 45z" />
    <glyph glyph-name="uni1EDD" unicode="&#x1edd;" horiz-adv-x="750" 
d="M137 697h201l69 -180h-177zM162.5 17.5q-68.5 32.5 -105.5 90.5t-37 132q0 73 37 131t105.5 91t160.5 33q117 0 198 -54q37 6 53 27t16 57v33h160v-46q0 -71 -35 -122.5t-100 -71.5q12 -37 12 -78q0 -74 -37 -132t-106 -90.5t-161 -32.5t-160.5 32.5zM395 167
q27 27 27 73t-27 72.5t-72 26.5t-71.5 -26.5t-26.5 -72.5t26.5 -73t71.5 -27t72 27z" />
    <glyph glyph-name="uni1EDE" unicode="&#x1ede;" horiz-adv-x="907" 
d="M311 814q89 0 89 39q0 33 -62 33q-17 0 -35 -3t-27 -7v84q56 18 130 18q82 0 125 -30t43 -80q0 -37 -24.5 -62.5t-72.5 -33.5v-30h-166v72zM205.5 31q-86.5 46 -136 128.5t-49.5 189.5t49.5 190t136 129t192.5 46q71 0 134.5 -21.5t112.5 -61.5q55 0 77 20.5t22 62.5v33
h163v-46q0 -79 -42.5 -133t-120.5 -68q30 -71 30 -151q0 -107 -49.5 -189.5t-135 -128.5t-191.5 -46t-192.5 46zM514 227q46 45 46 122q0 76 -46 121t-116 45q-71 0 -117.5 -45t-46.5 -121q0 -77 46.5 -122t117.5 -45q70 0 116 45z" />
    <glyph glyph-name="uni1EDF" unicode="&#x1edf;" horiz-adv-x="750" 
d="M221 593q89 0 89 39q0 33 -62 33q-17 0 -35 -3t-27 -7v84q56 18 130 18q82 0 125 -30t43 -80q0 -37 -24.5 -62.5t-72.5 -33.5v-30h-166v72zM162.5 17.5q-68.5 32.5 -105.5 90.5t-37 132q0 73 37 131t105.5 91t160.5 33q117 0 198 -54q37 6 53 27t16 57v33h160v-46
q0 -71 -35 -122.5t-100 -71.5q12 -37 12 -78q0 -74 -37 -132t-106 -90.5t-161 -32.5t-160.5 32.5zM395 167q27 27 27 73t-27 72.5t-72 26.5t-71.5 -26.5t-26.5 -72.5t26.5 -73t71.5 -27t72 27z" />
    <glyph glyph-name="uni1EE0" unicode="&#x1ee0;" horiz-adv-x="907" 
d="M207 883q35 41 107 41q22 0 44.5 -6t58.5 -19q31 -12 53.5 -18.5t44.5 -6.5q65 0 107 49v-140q-34 -41 -107 -41q-25 0 -49.5 6.5t-57.5 19.5q-33 12 -53 18t-41 6q-64 0 -107 -50v141zM205.5 31q-86.5 46 -136 128.5t-49.5 189.5t49.5 190t136 129t192.5 46
q71 0 134.5 -21.5t112.5 -61.5q55 0 77 20.5t22 62.5v33h163v-46q0 -79 -42.5 -133t-120.5 -68q30 -71 30 -151q0 -107 -49.5 -189.5t-135 -128.5t-191.5 -46t-192.5 46zM514 227q46 45 46 122q0 76 -46 121t-116 45q-71 0 -117.5 -45t-46.5 -121q0 -77 46.5 -122t117.5 -45
q70 0 116 45z" />
    <glyph glyph-name="uni1EE1" unicode="&#x1ee1;" horiz-adv-x="750" 
d="M109 665q35 41 107 41q22 0 44.5 -6t58.5 -19q31 -12 53.5 -18.5t44.5 -6.5q65 0 107 49v-140q-34 -41 -107 -41q-25 0 -49.5 6.5t-57.5 19.5q-33 12 -53 18t-41 6q-64 0 -107 -50v141zM162.5 17.5q-68.5 32.5 -105.5 90.5t-37 132q0 73 37 131t105.5 91t160.5 33
q117 0 198 -54q37 6 53 27t16 57v33h160v-46q0 -71 -35 -122.5t-100 -71.5q12 -37 12 -78q0 -74 -37 -132t-106 -90.5t-161 -32.5t-160.5 32.5zM395 167q27 27 27 73t-27 72.5t-72 26.5t-71.5 -26.5t-26.5 -72.5t26.5 -73t71.5 -27t72 27z" />
    <glyph glyph-name="uni1EE2" unicode="&#x1ee2;" horiz-adv-x="907" 
d="M205.5 31q-86.5 46 -136 128.5t-49.5 189.5t49.5 190t136 129t192.5 46q71 0 134.5 -21.5t112.5 -61.5q55 0 77 20.5t22 62.5v33h163v-46q0 -79 -42.5 -133t-120.5 -68q30 -71 30 -151q0 -107 -49.5 -189.5t-135 -128.5t-191.5 -46t-192.5 46zM514 227q46 45 46 122
q0 76 -46 121t-116 45q-71 0 -117.5 -45t-46.5 -121q0 -77 46.5 -122t117.5 -45q70 0 116 45zM343.5 -186q-24.5 24 -24.5 58t24.5 58t58.5 24t57.5 -24t23.5 -58t-23.5 -58t-57.5 -24t-58.5 24z" />
    <glyph glyph-name="uni1EE3" unicode="&#x1ee3;" horiz-adv-x="750" 
d="M162.5 17.5q-68.5 32.5 -105.5 90.5t-37 132q0 73 37 131t105.5 91t160.5 33q117 0 198 -54q37 6 53 27t16 57v33h160v-46q0 -71 -35 -122.5t-100 -71.5q12 -37 12 -78q0 -74 -37 -132t-106 -90.5t-161 -32.5t-160.5 32.5zM395 167q27 27 27 73t-27 72.5t-72 26.5
t-71.5 -26.5t-26.5 -72.5t26.5 -73t71.5 -27t72 27zM266.5 -186q-24.5 24 -24.5 58t24.5 58t58.5 24t57.5 -24t23.5 -58t-23.5 -58t-57.5 -24t-58.5 24z" />
    <glyph glyph-name="uni1EE4" unicode="&#x1ee4;" horiz-adv-x="724" 
d="M179 26q-73 41 -108.5 113t-35.5 165v395h207v-393q0 -64 30.5 -97t89.5 -33t89.5 33t30.5 97v393h207v-395q0 -93 -35.5 -165t-108.5 -113t-183 -41t-183 41zM304.5 -186q-24.5 24 -24.5 58t24.5 58t58.5 24t57.5 -24t23.5 -58t-23.5 -58t-57.5 -24t-58.5 24z" />
    <glyph glyph-name="uni1EE5" unicode="&#x1ee5;" horiz-adv-x="629" 
d="M85 41q-50 56 -50 148v291h200v-267q0 -73 64 -73q29 0 52 14t37 40v286h201v-480h-194v46q-30 -30 -72 -45.5t-88 -15.5q-100 0 -150 56zM257.5 -186q-24.5 24 -24.5 58t24.5 58t58.5 24t57.5 -24t23.5 -58t-23.5 -58t-57.5 -24t-58.5 24z" />
    <glyph glyph-name="uni1EE6" unicode="&#x1ee6;" horiz-adv-x="724" 
d="M272 814q89 0 89 39q0 33 -62 33q-17 0 -35 -3t-27 -7v84q56 18 130 18q82 0 125 -30t43 -80q0 -37 -24.5 -62.5t-72.5 -33.5v-30h-166v72zM179 26q-73 41 -108.5 113t-35.5 165v395h207v-393q0 -64 30.5 -97t89.5 -33t89.5 33t30.5 97v393h207v-395q0 -93 -35.5 -165
t-108.5 -113t-183 -41t-183 41z" />
    <glyph glyph-name="uni1EE7" unicode="&#x1ee7;" horiz-adv-x="629" 
d="M223 593q89 0 89 39q0 33 -62 33q-17 0 -35 -3t-27 -7v84q56 18 130 18q82 0 125 -30t43 -80q0 -37 -24.5 -62.5t-72.5 -33.5v-30h-166v72zM85 41q-50 56 -50 148v291h200v-267q0 -73 64 -73q29 0 52 14t37 40v286h201v-480h-194v46q-30 -30 -72 -45.5t-88 -15.5
q-100 0 -150 56z" />
    <glyph glyph-name="uni1EE8" unicode="&#x1ee8;" horiz-adv-x="902" 
d="M342 917h201l-93 -180h-177zM120 69.5q-80 84.5 -80 223.5v406h185v-403q0 -71 34 -106.5t99 -35.5t98.5 35.5t33.5 106.5v403h186v-67q46 0 62 18t16 63v34h148v-45q0 -89 -55 -142.5t-171 -53.5v-213q0 -139 -80 -223.5t-238 -84.5t-238 84.5z" />
    <glyph glyph-name="uni1EE9" unicode="&#x1ee9;" horiz-adv-x="802" 
d="M284 715h201l-93 -180h-177zM85 41q-50 56 -50 148v291h200v-267q0 -73 64 -73q29 0 52 14t37 40v286h201v-37q38 3 51.5 21.5t13.5 59.5v34h148v-45q0 -86 -52 -139t-161 -57v-317h-194v46q-30 -30 -72 -45.5t-88 -15.5q-100 0 -150 56z" />
    <glyph glyph-name="uni1EEA" unicode="&#x1eea;" horiz-adv-x="902" 
d="M189 917h201l69 -180h-177zM120 69.5q-80 84.5 -80 223.5v406h185v-403q0 -71 34 -106.5t99 -35.5t98.5 35.5t33.5 106.5v403h186v-67q46 0 62 18t16 63v34h148v-45q0 -89 -55 -142.5t-171 -53.5v-213q0 -139 -80 -223.5t-238 -84.5t-238 84.5z" />
    <glyph glyph-name="uni1EEB" unicode="&#x1eeb;" horiz-adv-x="802" 
d="M139 715h201l69 -180h-177zM85 41q-50 56 -50 148v291h200v-267q0 -73 64 -73q29 0 52 14t37 40v286h201v-37q38 3 51.5 21.5t13.5 59.5v34h148v-45q0 -86 -52 -139t-161 -57v-317h-194v46q-30 -30 -72 -45.5t-88 -15.5q-100 0 -150 56z" />
    <glyph glyph-name="uni1EEC" unicode="&#x1eec;" horiz-adv-x="902" 
d="M284 814q89 0 89 39q0 33 -62 33q-17 0 -35 -3t-27 -7v84q56 18 130 18q82 0 125 -30t43 -80q0 -37 -24.5 -62.5t-72.5 -33.5v-30h-166v72zM120 69.5q-80 84.5 -80 223.5v406h185v-403q0 -71 34 -106.5t99 -35.5t98.5 35.5t33.5 106.5v403h186v-67q46 0 62 18t16 63v34
h148v-45q0 -89 -55 -142.5t-171 -53.5v-213q0 -139 -80 -223.5t-238 -84.5t-238 84.5z" />
    <glyph glyph-name="uni1EED" unicode="&#x1eed;" horiz-adv-x="802" 
d="M223 607q89 0 89 39q0 33 -62 33q-17 0 -35 -3t-27 -7v84q56 18 130 18q82 0 125 -30t43 -80q0 -37 -24.5 -62.5t-72.5 -33.5v-30h-166v72zM85 41q-50 56 -50 148v291h200v-267q0 -73 64 -73q29 0 52 14t37 40v286h201v-37q38 3 51.5 21.5t13.5 59.5v34h148v-45
q0 -86 -52 -139t-161 -57v-317h-194v46q-30 -30 -72 -45.5t-88 -15.5q-100 0 -150 56z" />
    <glyph glyph-name="uni1EEE" unicode="&#x1eee;" horiz-adv-x="902" 
d="M180 883q35 41 107 41q22 0 44.5 -6t58.5 -19q31 -12 53.5 -18.5t44.5 -6.5q65 0 107 49v-140q-34 -41 -107 -41q-25 0 -49.5 6.5t-57.5 19.5q-33 12 -53 18t-41 6q-64 0 -107 -50v141zM120 69.5q-80 84.5 -80 223.5v406h185v-403q0 -71 34 -106.5t99 -35.5t98.5 35.5
t33.5 106.5v403h186v-67q46 0 62 18t16 63v34h148v-45q0 -89 -55 -142.5t-171 -53.5v-213q0 -139 -80 -223.5t-238 -84.5t-238 84.5z" />
    <glyph glyph-name="uni1EEF" unicode="&#x1eef;" horiz-adv-x="802" 
d="M120 676q35 41 107 41q22 0 44.5 -6t58.5 -19q31 -12 53.5 -18.5t44.5 -6.5q65 0 107 49v-140q-34 -41 -107 -41q-25 0 -49.5 6.5t-57.5 19.5q-33 12 -53 18t-41 6q-64 0 -107 -50v141zM85 41q-50 56 -50 148v291h200v-267q0 -73 64 -73q29 0 52 14t37 40v286h201v-37
q38 3 51.5 21.5t13.5 59.5v34h148v-45q0 -86 -52 -139t-161 -57v-317h-194v46q-30 -30 -72 -45.5t-88 -15.5q-100 0 -150 56z" />
    <glyph glyph-name="uni1EF0" unicode="&#x1ef0;" horiz-adv-x="902" 
d="M120 69.5q-80 84.5 -80 223.5v406h185v-403q0 -71 34 -106.5t99 -35.5t98.5 35.5t33.5 106.5v403h186v-67q46 0 62 18t16 63v34h148v-45q0 -89 -55 -142.5t-171 -53.5v-213q0 -139 -80 -223.5t-238 -84.5t-238 84.5zM311.5 -186q-24.5 24 -24.5 58t24.5 58t58.5 24
t57.5 -24t23.5 -58t-23.5 -58t-57.5 -24t-58.5 24z" />
    <glyph glyph-name="uni1EF1" unicode="&#x1ef1;" horiz-adv-x="802" 
d="M85 41q-50 56 -50 148v291h200v-267q0 -73 64 -73q29 0 52 14t37 40v286h201v-37q38 3 51.5 21.5t13.5 59.5v34h148v-45q0 -86 -52 -139t-161 -57v-317h-194v46q-30 -30 -72 -45.5t-88 -15.5q-100 0 -150 56zM262.5 -186q-24.5 24 -24.5 58t24.5 58t58.5 24t57.5 -24
t23.5 -58t-23.5 -58t-57.5 -24t-58.5 24z" />
    <glyph glyph-name="Ygrave" unicode="&#x1ef2;" horiz-adv-x="766" 
d="M204 917h201l69 -180h-177zM275 266l-255 433h221l138 -241l147 241h220l-264 -433v-266h-207v266z" />
    <glyph glyph-name="ygrave" unicode="&#x1ef3;" horiz-adv-x="642" 
d="M161 697h201l69 -180h-177zM131 -193q-38 5 -56 14v148q31 -12 68 -12q32 0 49 13.5t27 40.5l9 23l-208 446h200l114 -293l107 293h201l-192 -491q-38 -96 -96 -141.5t-150 -45.5q-35 0 -73 5z" />
    <glyph glyph-name="uni1EF4" unicode="&#x1ef4;" horiz-adv-x="766" 
d="M275 266l-255 433h221l138 -241l147 241h220l-264 -433v-266h-207v266zM327.5 -186q-24.5 24 -24.5 58t24.5 58t58.5 24t57.5 -24t23.5 -58t-23.5 -58t-57.5 -24t-58.5 24z" />
    <glyph glyph-name="uni1EF5" unicode="&#x1ef5;" horiz-adv-x="642" 
d="M131 -193q-38 5 -56 14v148q31 -12 68 -12q32 0 49 13.5t27 40.5l9 23l-208 446h200l114 -293l107 293h201l-192 -491q-38 -96 -96 -141.5t-150 -45.5q-35 0 -73 5zM487.5 -178q-24.5 24 -24.5 58t24.5 58t58.5 24t57.5 -24t23.5 -58t-23.5 -58t-57.5 -24t-58.5 24z" />
    <glyph glyph-name="uni1EF6" unicode="&#x1ef6;" horiz-adv-x="766" 
d="M295 814q89 0 89 39q0 33 -62 33q-17 0 -35 -3t-27 -7v84q56 18 130 18q82 0 125 -30t43 -80q0 -37 -24.5 -62.5t-72.5 -33.5v-30h-166v72zM275 266l-255 433h221l138 -241l147 241h220l-264 -433v-266h-207v266z" />
    <glyph glyph-name="uni1EF7" unicode="&#x1ef7;" horiz-adv-x="642" 
d="M249 593q89 0 89 39q0 33 -62 33q-17 0 -35 -3t-27 -7v84q56 18 130 18q82 0 125 -30t43 -80q0 -37 -24.5 -62.5t-72.5 -33.5v-30h-166v72zM131 -193q-38 5 -56 14v148q31 -12 68 -12q32 0 49 13.5t27 40.5l9 23l-208 446h200l114 -293l107 293h201l-192 -491
q-38 -96 -96 -141.5t-150 -45.5q-35 0 -73 5z" />
    <glyph glyph-name="uni1EF8" unicode="&#x1ef8;" horiz-adv-x="766" 
d="M172 883q35 41 107 41q22 0 44.5 -6t58.5 -19q31 -12 53.5 -18.5t44.5 -6.5q65 0 107 49v-140q-34 -41 -107 -41q-25 0 -49.5 6.5t-57.5 19.5q-33 12 -53 18t-41 6q-64 0 -107 -50v141zM275 266l-255 433h221l138 -241l147 241h220l-264 -433v-266h-207v266z" />
    <glyph glyph-name="uni1EF9" unicode="&#x1ef9;" horiz-adv-x="642" 
d="M129 662q35 41 107 41q22 0 44.5 -6t58.5 -19q31 -12 53.5 -18.5t44.5 -6.5q65 0 107 49v-140q-34 -41 -107 -41q-25 0 -49.5 6.5t-57.5 19.5q-33 12 -53 18t-41 6q-64 0 -107 -50v141zM131 -193q-38 5 -56 14v148q31 -12 68 -12q32 0 49 13.5t27 40.5l9 23l-208 446h200
l114 -293l107 293h201l-192 -491q-38 -96 -96 -141.5t-150 -45.5q-35 0 -73 5z" />
    <glyph glyph-name="uni2007" unicode="&#x2007;" 
 />
    <glyph glyph-name="uni2010" unicode="&#x2010;" horiz-adv-x="430" 
d="M20 374h390v-159h-390v159z" />
    <glyph glyph-name="figuredash" unicode="&#x2012;" horiz-adv-x="697" 
d="M20 374h657v-159h-657v159z" />
    <glyph glyph-name="endash" unicode="&#x2013;" horiz-adv-x="666" 
d="M20 384h626v-159h-626v159z" />
    <glyph glyph-name="emdash" unicode="&#x2014;" horiz-adv-x="798" 
d="M20 384h758v-159h-758v159z" />
    <glyph glyph-name="uni2015" unicode="&#x2015;" horiz-adv-x="969" 
d="M20 374h929v-159h-929v159z" />
    <glyph glyph-name="quoteleft" unicode="&#x2018;" horiz-adv-x="289" 
d="M104 714h165l-63 -202h-186z" />
    <glyph glyph-name="quoteright" unicode="&#x2019;" horiz-adv-x="293" 
d="M83 714h190l-84 -202h-169z" />
    <glyph glyph-name="quotesinglbase" unicode="&#x201a;" horiz-adv-x="293" 
d="M83 71h190l-84 -202h-169z" />
    <glyph glyph-name="quotedblleft" unicode="&#x201c;" horiz-adv-x="490" 
d="M104 714h159l-63 -202h-180zM311 714h159l-63 -202h-180z" />
    <glyph glyph-name="quotedblright" unicode="&#x201d;" horiz-adv-x="490" 
d="M83 714h180l-84 -202h-159zM290 714h180l-84 -202h-159z" />
    <glyph glyph-name="quotedblbase" unicode="&#x201e;" horiz-adv-x="490" 
d="M83 71h180l-84 -202h-159zM290 71h180l-84 -202h-159z" />
    <glyph glyph-name="dagger" unicode="&#x2020;" horiz-adv-x="541" 
d="M167 365h-147v174h147v160h207v-160h147v-174h-147v-435h-207v435z" />
    <glyph glyph-name="daggerdbl" unicode="&#x2021;" horiz-adv-x="531" 
d="M177 140h-152v148h152v124h-152v149h152v138h177v-138h152v-149h-152v-124h152v-148h-152v-140h-177v140z" />
    <glyph glyph-name="bullet" unicode="&#x2022;" horiz-adv-x="257" 
d="M51.5 220.5q-31.5 31.5 -31.5 77.5t31.5 77t77.5 31t77 -31t31 -77t-31 -77.5t-77 -31.5t-77.5 31.5z" />
    <glyph glyph-name="ellipsis" unicode="&#x2026;" horiz-adv-x="581" 
d="M40 19.5q-20 19.5 -20 48.5q0 30 20 50.5t49 20.5t49.5 -20.5t20.5 -50.5q0 -28 -20.5 -48t-49.5 -20t-49 19.5zM241 19.5q-20 19.5 -20 48.5q0 30 20 50.5t49 20.5t49.5 -20.5t20.5 -50.5q0 -28 -20.5 -48t-49.5 -20t-49 19.5zM442 19.5q-20 19.5 -20 48.5q0 30 20 50.5
t49 20.5t49.5 -20.5t20.5 -50.5q0 -28 -20.5 -48t-49.5 -20t-49 19.5z" />
    <glyph glyph-name="perthousand" unicode="&#x2030;" horiz-adv-x="1297" 
d="M111 371.5q-42 24.5 -66.5 66.5t-24.5 92t24.5 92.5t66.5 67t92 24.5t92.5 -24.5t67 -67t24.5 -92.5t-24.5 -92t-67 -66.5t-92.5 -24.5t-92 24.5zM541 699h204l-387 -699h-204zM248 482q18 18 18 45t-18 45.5t-45 18.5t-45 -18.5t-18 -45.5t18 -45t45 -18t45 18zM602 9.5
q-42 24.5 -66.5 66.5t-24.5 92t24.5 92.5t66.5 67t92 24.5t92.5 -24.5t67 -67t24.5 -92.5t-24.5 -92t-67 -66.5t-92.5 -24.5t-92 24.5zM1001 9.5q-42 24.5 -66.5 66.5t-24.5 92t24.5 92.5t66.5 67t92 24.5t92.5 -24.5t67 -67t24.5 -92.5t-24.5 -92t-67 -66.5t-92.5 -24.5
t-92 24.5zM739 120q18 18 18 45t-18 45.5t-45 18.5t-45 -18.5t-18 -45.5t18 -45t45 -18t45 18zM1138 120q18 18 18 45t-18 45.5t-45 18.5t-45 -18.5t-18 -45.5t18 -45t45 -18t45 18z" />
    <glyph glyph-name="minute" unicode="&#x2032;" horiz-adv-x="189" 
d="M20 699h149v-211h-149v211z" />
    <glyph glyph-name="second" unicode="&#x2033;" horiz-adv-x="375" 
d="M20 699h149v-211h-149v211zM206 699h149v-211h-149v211z" />
    <glyph glyph-name="guilsinglleft" unicode="&#x2039;" horiz-adv-x="407" 
d="M20 306v40l251 231l116 -110l-155 -141l155 -141l-116 -110z" />
    <glyph glyph-name="guilsinglright" unicode="&#x203a;" horiz-adv-x="407" 
d="M20 185l155 141l-155 141l115 110l252 -231v-40l-252 -231z" />
    <glyph glyph-name="fraction" unicode="&#x2044;" horiz-adv-x="270" 
d="M225 714h205l-385 -729h-205z" />
    <glyph glyph-name="uni2070" unicode="&#x2070;" horiz-adv-x="410" 
d="M69.5 405.5q-49.5 46.5 -49.5 128.5t49.5 128.5t136.5 46.5q86 0 135 -46.5t49 -128.5t-49.5 -128.5t-134.5 -46.5q-87 0 -136.5 46.5zM246 471q14 21 14 62q0 85 -54 85q-56 0 -56 -85q0 -83 56 -83q26 0 40 21z" />
    <glyph glyph-name="uni2074" unicode="&#x2074;" horiz-adv-x="329" 
d="M141 423h-141v88l142 188h143v-181h44v-95h-44v-53h-144v53zM186 518v78l-61 -78h61z" />
    <glyph glyph-name="uni2075" unicode="&#x2075;" horiz-adv-x="345" 
d="M76.5 367q-34.5 7 -56.5 18v92q22 -13 48 -20.5t52 -7.5q30 0 44 10t14 25q0 16 -14 25t-39 9q-38 0 -66 -11l-36 21l13 171h268v-91h-154l-2 -26q28 6 61 6q56 0 86 -28.5t30 -78.5q0 -58 -49.5 -89.5t-130.5 -31.5q-34 0 -68.5 7z" />
    <glyph glyph-name="uni2076" unicode="&#x2076;" horiz-adv-x="365" 
d="M63.5 402.5q-43.5 42.5 -43.5 115.5q0 90 52.5 140.5t139.5 50.5q24 0 49.5 -3t36.5 -8v-86q-11 6 -31 8.5t-39 2.5q-29 0 -51 -11t-29 -34q12 8 31.5 12.5t39.5 4.5q60 0 93 -29.5t33 -83.5q0 -53 -40.5 -87.5t-118.5 -34.5q-79 0 -122.5 42.5zM212 448.5
q10 10.5 10 28.5q0 19 -10 29.5t-29 10.5q-17 0 -28 -10.5t-11 -29.5q0 -17 10.5 -28t28.5 -11q19 0 29 10.5z" />
    <glyph glyph-name="uni2077" unicode="&#x2077;" horiz-adv-x="311" 
d="M143 588h-133v111h291v-73l-116 -256h-143z" />
    <glyph glyph-name="uni2078" unicode="&#x2078;" horiz-adv-x="377" 
d="M63 387.5q-43 27.5 -43 76.5q0 27 12.5 47t32.5 29q-34 24 -34 68q0 49 42 75t116 26t115.5 -26t41.5 -75q0 -44 -34 -68q20 -9 32.5 -29t12.5 -47q0 -49 -43 -76.5t-125 -27.5q-83 0 -126 27.5zM212.5 576q9.5 9 9.5 23q0 13 -9.5 22.5t-23.5 9.5t-24 -9.5t-10 -22.5
q0 -14 10 -23t24 -9t23.5 9zM216 447.5q11 10.5 11 26.5t-11 26.5t-27 10.5q-17 0 -28 -10.5t-11 -26.5t11 -26.5t28 -10.5q16 0 27 10.5z" />
    <glyph glyph-name="uni2079" unicode="&#x2079;" horiz-adv-x="365" 
d="M103 362.5q-25 2.5 -36 7.5v86q11 -6 31 -8.5t39 -2.5q29 0 51 11.5t28 34.5q-12 -9 -31 -13.5t-39 -4.5q-61 0 -93.5 29.5t-32.5 83.5q0 53 40.5 88t117.5 35q79 0 123 -42.5t44 -116.5q0 -90 -52.5 -140t-139.5 -50q-25 0 -50 2.5zM209.5 562q10.5 11 10.5 29
q0 17 -10.5 28t-28.5 11q-19 0 -29 -10.5t-10 -28.5q0 -19 10 -29.5t29 -10.5q18 0 28.5 11z" />
    <glyph glyph-name="uni207D" unicode="&#x207d;" horiz-adv-x="247" 
d="M35 437q-15 45 -15 97q0 104 58 175h149q-59 -76 -59 -175t59 -174h-149q-28 32 -43 77z" />
    <glyph glyph-name="uni207E" unicode="&#x207e;" horiz-adv-x="247" 
d="M79 534q0 99 -59 175h149q58 -71 58 -175q0 -52 -15 -97t-43 -77h-149q59 75 59 174z" />
    <glyph glyph-name="uni207F" unicode="&#x207f;" horiz-adv-x="443" 
d="M25 699h140v-29q22 21 52 32.5t62 11.5q74 0 109 -37t35 -103v-214h-144v192q0 49 -46 49q-41 0 -64 -38v-203h-144v339z" />
    <glyph glyph-name="uni2080" unicode="&#x2080;" horiz-adv-x="410" 
d="M69.5 -124q-49.5 46 -49.5 128t49.5 128.5t136.5 46.5q86 0 135 -46.5t49 -128.5t-49.5 -128t-134.5 -46q-87 0 -136.5 46zM246 -59q14 21 14 62q0 85 -54 85q-56 0 -56 -85q0 -83 56 -83q26 0 40 21z" />
    <glyph glyph-name="uni2081" unicode="&#x2081;" horiz-adv-x="233" 
d="M89 28l-69 -49v127l85 63h128v-329h-144v188z" />
    <glyph glyph-name="uni2082" unicode="&#x2082;" horiz-adv-x="342" 
d="M20 -88q81 52 114 78.5t33 47.5q0 14 -10 20t-32 6q-26 0 -51 -8.5t-43 -23.5v114q21 14 60 23t76 9q72 0 110 -32t38 -79q0 -37 -22.5 -64.5t-77.5 -66.5h107v-97h-302v73z" />
    <glyph glyph-name="uni2083" unicode="&#x2083;" horiz-adv-x="345" 
d="M82 -164.5q-38 5.5 -62 16.5v89q45 -23 95 -23q54 0 54 27q0 14 -12.5 19.5t-43.5 5.5h-43v70h42q48 0 48 24q0 26 -47 26t-88 -26v90q23 11 61.5 18t75.5 7q71 0 112.5 -27.5t41.5 -74.5q0 -44 -34 -72q43 -22 43 -72q0 -47 -43 -75t-122 -28q-40 0 -78 5.5z" />
    <glyph glyph-name="uni2084" unicode="&#x2084;" horiz-adv-x="329" 
d="M141 -107h-141v88l142 188h143v-181h44v-95h-44v-53h-144v53zM186 -12v78l-61 -78h61z" />
    <glyph glyph-name="uni2085" unicode="&#x2085;" horiz-adv-x="345" 
d="M76.5 -163q-34.5 7 -56.5 18v92q22 -13 48 -20.5t52 -7.5q30 0 43.5 9.5t13.5 25.5q0 33 -52 33q-36 0 -66 -10l-36 21l13 171h268v-91h-154l-2 -26q29 6 61 6q56 0 86 -28.5t30 -78.5q0 -58 -49.5 -89.5t-130.5 -31.5q-34 0 -68.5 7z" />
    <glyph glyph-name="uni2086" unicode="&#x2086;" horiz-adv-x="365" 
d="M63.5 -127.5q-43.5 42.5 -43.5 115.5q0 90 52.5 140.5t139.5 50.5q24 0 49.5 -3t36.5 -8v-86q-11 6 -31 8.5t-39 2.5q-29 0 -51 -11t-29 -34q12 8 31.5 12.5t39.5 4.5q60 0 93 -29.5t33 -83.5q0 -53 -40.5 -87.5t-118.5 -34.5q-79 0 -122.5 42.5zM212 -81.5
q10 10.5 10 28.5q0 19 -10 29.5t-29 10.5q-17 0 -28 -11t-11 -29q0 -17 10.5 -28t28.5 -11q19 0 29 10.5z" />
    <glyph glyph-name="uni2087" unicode="&#x2087;" horiz-adv-x="311" 
d="M143 58h-133v111h291v-73l-116 -256h-143z" />
    <glyph glyph-name="uni2088" unicode="&#x2088;" horiz-adv-x="377" 
d="M63 -142.5q-43 27.5 -43 76.5q0 27 12.5 47t32.5 29q-34 24 -34 68q0 49 42 75t116 26t115.5 -26t41.5 -75q0 -44 -34 -68q20 -9 32.5 -29t12.5 -47q0 -49 -43 -76.5t-125 -27.5q-83 0 -126 27.5zM212.5 46q9.5 9 9.5 23q0 13 -9.5 22.5t-23.5 9.5t-24 -9.5t-10 -22.5
q0 -14 10 -23t24 -9t23.5 9zM216 -82.5q11 10.5 11 26.5t-11 26.5t-27 10.5q-17 0 -28 -10.5t-11 -26.5t11 -26.5t28 -10.5q16 0 27 10.5z" />
    <glyph glyph-name="uni2089" unicode="&#x2089;" horiz-adv-x="365" 
d="M103 -167.5q-25 2.5 -36 7.5v86q11 -6 31 -8.5t39 -2.5q29 0 51 11.5t28 34.5q-12 -9 -31 -13.5t-39 -4.5q-61 0 -93.5 29.5t-32.5 83.5q0 53 40.5 88t117.5 35q79 0 123 -42.5t44 -116.5q0 -90 -52.5 -140t-139.5 -50q-25 0 -50 2.5zM209.5 32q10.5 11 10.5 29
q0 17 -10.5 28t-28.5 11q-19 0 -29 -10.5t-10 -28.5q0 -19 10 -29.5t29 -10.5q18 0 28.5 11z" />
    <glyph glyph-name="uni208D" unicode="&#x208d;" horiz-adv-x="247" 
d="M35 -103q-15 45 -15 97q0 104 58 175h149q-59 -76 -59 -175t59 -174h-149q-28 32 -43 77z" />
    <glyph glyph-name="uni208E" unicode="&#x208e;" horiz-adv-x="247" 
d="M79 -6q0 99 -59 175h149q58 -71 58 -175q0 -52 -15 -97t-43 -77h-149q59 75 59 174z" />
    <glyph glyph-name="colonmonetary" unicode="&#x20a1;" horiz-adv-x="672" 
d="M97 109q-77 94 -77 240q0 142 72.5 235t200.5 120l30 80h122l-26 -71q49 -2 82 -8l29 79h122l-42 -115l25 -14v-196q-44 34 -96.5 49t-123.5 15q-90 0 -137 -45t-47 -129t48 -129.5t136 -45.5q70 0 124 16t104 51v-195q-50 -31 -110.5 -46t-136.5 -15l-15 1l-22 -61h-123
l29 77q-47 14 -74 30l-39 -107h-123z" />
    <glyph glyph-name="lira" unicode="&#x20a4;" horiz-adv-x="483" 
d="M25 126h69v43h-66v117h66v48h-66v117h66v54q0 66 30.5 113.5t83.5 71.5t118 24q56 0 97 -18v-140q-30 14 -64 14q-41 0 -64.5 -20.5t-23.5 -59.5v-39h136v-117h-136v-48h136v-117h-136v-43h187v-126h-433v126z" />
    <glyph glyph-name="uni20A6" unicode="&#x20a6;" horiz-adv-x="730" 
d="M82 163h-62v151h62v72h-62v159h62v154h194l168 -355v355h203v-154h63v-159h-63v-72h63v-151h-63v-163h-194l-167 355v-355h-204v163z" />
    <glyph glyph-name="peseta" unicode="&#x20a7;" horiz-adv-x="1457" 
d="M680 37q-48 52 -48 141v167h-62q-28 -68 -93.5 -102.5t-159.5 -34.5h-66v-208h-211v699h277q118 0 190.5 -56t80.5 -163h44v144h201v-144h97v-135h-97v-138q0 -36 13.5 -51.5t45.5 -15.5q36 0 69 19q38 -23 96.5 -35t111.5 -12q29 0 42 3.5t13 14.5q0 10 -12.5 15
t-46.5 14l-46 13q-61 18 -96.5 38.5t-52 50t-16.5 74.5q0 81 64 120.5t175 39.5q53 0 114.5 -11.5t91.5 -30.5v-139q-31 20 -83 34.5t-95 14.5q-59 0 -59 -20q0 -10 14.5 -15.5t50.5 -13.5l42 -10q65 -17 100 -39t49 -51.5t14 -73.5q0 -71 -62.5 -113t-179.5 -42
q-67 0 -128 8t-101 24q-25 -16 -58.5 -24t-81.5 -8q-93 0 -141 52zM282 368q47 0 70.5 18.5t23.5 66.5q0 50 -24.5 68t-74.5 18h-26v-171h31z" />
    <glyph glyph-name="dong" unicode="&#x20ab;" horiz-adv-x="655" 
d="M141 16.5q-58 31.5 -89.5 89t-31.5 133.5q0 75 31.5 133.5t89.5 90.5t134 32q46 0 86.5 -13.5t67.5 -36.5v79h-166v149h166v66h200v-66h11v-149h-11v-524h-193v44q-30 -29 -71.5 -44t-89.5 -15q-76 0 -134 31.5zM389.5 156q26.5 16 39.5 44v79q-13 28 -39.5 44t-60.5 16
q-47 0 -74.5 -26.5t-27.5 -73.5t27.5 -73t74.5 -26q34 0 60.5 16zM88 -52h518v-151h-518v151z" />
    <glyph glyph-name="Euro" unicode="&#x20ac;" horiz-adv-x="618" 
d="M187.5 47q-82.5 62 -114.5 174h-63v98h48q-1 10 -1 30q0 21 1 31h-48v98h64q31 111 113.5 173.5t200.5 62.5q67 0 115 -13t97 -43v-191q-43 33 -86.5 47t-99.5 14q-83 0 -117 -50h120v-98h-148q-1 -10 -1 -31t1 -30h148v-98h-121q34 -52 118 -52q56 0 100.5 15t93.5 50
v-190q-49 -32 -98.5 -45.5t-121.5 -13.5q-118 0 -200.5 62z" />
    <glyph glyph-name="uni20B1" unicode="&#x20b1;" horiz-adv-x="656" 
d="M45 304h-45v117h45v68h-45v118h45v92h303q74 0 132 -23.5t94 -68.5h82v-118h-36q3 -19 3 -39q0 -11 -2 -29h35v-117h-74q-34 -51 -94 -77.5t-140 -26.5h-96v-200h-207v304zM316 364q47 0 73.5 19t26.5 67t-26 66.5t-74 18.5h-64v-171h64z" />
    </font>
</defs>
</svg>
