<?xml version="1.0" standalone="no"?>
<!DOCTYPE svg PUBLIC "-//W3C//DTD SVG 1.1//EN" "http://www.w3.org/Graphics/SVG/1.1/DTD/svg11.dtd" >
<svg xmlns="http://www.w3.org/2000/svg" xmlns:xlink="http://www.w3.org/1999/xlink" version="1.1">
<metadata>
Created by FontForge 20170731 at Tue May 24 20:51:41 2016
 By Aleksey,,,
Copyright (c) 2015, Cadson Demak (info@cadsondemak.com)
</metadata>
<defs>
<font id="Prompt-Bold" horiz-adv-x="0" >
  <font-face 
    font-family="Prompt"
    font-weight="700"
    font-stretch="normal"
    units-per-em="1000"
    panose-1="0 0 8 0 0 0 0 0 0 0"
    ascent="750"
    descent="-250"
    x-height="480"
    cap-height="699"
    bbox="-667 -396 1381 1100"
    underline-thickness="50"
    underline-position="-150"
    unicode-range="U+000D-FB02"
  />
<missing-glyph horiz-adv-x="497" 
d="M27 714h442v-714h-442v714zM366 91v532h-235v-532h235z" />
    <glyph glyph-name="fi" unicode="fi" horiz-adv-x="657" 
d="M72 358h-67v122h67v58q0 65 29.5 111.5t81 70.5t115.5 24q55 0 96 -18v-140q-28 14 -63 14q-83 0 -83 -77v-43h359v-480h-176v358h-183v-358h-176v358zM451.5 570q-26.5 26 -26.5 66q0 39 27 65.5t66 26.5t66.5 -27t27.5 -65q0 -39 -27.5 -65.5t-66.5 -26.5
q-40 0 -66.5 26z" />
    <glyph glyph-name="fl" unicode="fl" horiz-adv-x="655" 
d="M72 358h-67v122h67v60q0 65 29.5 111t81 69.5t115.5 23.5q55 0 96 -18v-140q-28 14 -63 14q-40 0 -61.5 -18.5t-21.5 -56.5v-45h186v244h176v-724h-176v358h-186v-358h-176v358z" />
    <glyph glyph-name="ru_lakkhangyaothai" unicode="&#xe24;&#xe45;" horiz-adv-x="906" 
d="M437 316q0 97 -101 97q-74 0 -122 -41l37 -63v-141q0 -22 10.5 -31.5t33.5 -9.5h47v-127h-145q-58 0 -90 33.5t-32 92.5v186l-50 87q122 151 311 151q93 0 159 -30q23 12 64.5 21t79.5 9q108 0 165 -56.5t57 -163.5v-526h-176v520q0 43 -19.5 65.5t-67.5 23.5
q15 -37 15 -83v-526h-176v512z" />
    <glyph glyph-name="lu_lakkhangyaothai" unicode="&#xe26;&#xe45;" horiz-adv-x="914" 
d="M446 316q0 97 -102 97q-68 0 -117 -39l52 -65v-182q0 -59 -31.5 -93t-90.5 -34h-132v127h41q23 0 30 7.5t7 30.5v147l-70 87q55 72 134 111.5t178 39.5q92 0 158 -30q23 12 64.5 21t79.5 9q108 0 165 -56.5t57 -163.5v-526h-176v520q0 43 -19.5 65.5t-66.5 23.5
q15 -37 15 -83v-526h-176v512z" />
    <glyph glyph-name=".notdef" horiz-adv-x="497" 
d="M27 714h442v-714h-442v714zM366 91v532h-235v-532h235z" />
    <glyph glyph-name=".null" horiz-adv-x="500" 
 />
    <glyph glyph-name="nonmarkingreturn" unicode="&#xd;" horiz-adv-x="260" 
 />
    <glyph glyph-name="space" unicode=" " horiz-adv-x="340" 
 />
    <glyph glyph-name="exclam" unicode="!" horiz-adv-x="237" 
d="M31 699h176v-469h-176v469zM52 11.5q-27 26.5 -27 65.5q0 40 27 66t67 26q39 0 66 -26.5t27 -65.5t-27 -65.5t-66 -26.5q-40 0 -67 26.5z" />
    <glyph glyph-name="quotedbl" unicode="&#x22;" horiz-adv-x="361" 
d="M25 699h129v-205h-129v205zM207 699h129v-205h-129v205z" />
    <glyph glyph-name="numbersign" unicode="#" horiz-adv-x="776" 
d="M104 138h-79v137h117l34 121h-108v136h147l47 167h160l-47 -167h140l47 167h161l-47 -167h75v-136h-114l-34 -121h105v-137h-143l-39 -138h-161l39 138h-140l-39 -138h-160zM442 275l34 121h-140l-34 -121h140z" />
    <glyph glyph-name="dollar" unicode="$" horiz-adv-x="569" 
d="M202 -12q-53 5 -99.5 16t-77.5 28v160q54 -28 112.5 -42t111.5 -14q48 0 70.5 14.5t22.5 42.5q0 22 -12 36t-36.5 26.5t-79.5 35.5q-97 41 -141 92t-44 125q0 72 46.5 123.5t126.5 71.5v99h161v-91q74 -8 141 -39v-156q-88 46 -177 46q-45 0 -72 -15t-27 -44
q0 -20 13.5 -34t38 -26t78.5 -33q71 -29 110.5 -57.5t57.5 -66.5t18 -95q0 -78 -45 -128.5t-136 -68.5v-97h-161v91z" />
    <glyph glyph-name="percent" unicode="%" horiz-adv-x="893" 
d="M116 371.5q-42 24.5 -66.5 66.5t-24.5 92t24.5 92.5t66.5 67t92 24.5t92.5 -24.5t67 -67t24.5 -92.5t-24.5 -92t-67 -66.5t-92.5 -24.5t-92 24.5zM551 699h179l-387 -699h-179zM260 475.5q21 20.5 21 51.5q0 32 -21 53t-52 21t-51.5 -21t-20.5 -53q0 -31 20.5 -51.5
t51.5 -20.5t52 20.5zM592 9.5q-42 24.5 -66.5 66.5t-24.5 92t24.5 92.5t66.5 67t92 24.5t92.5 -24.5t67 -67t24.5 -92.5t-24.5 -92t-67 -66.5t-92.5 -24.5t-92 24.5zM735 113.5q21 20.5 21 51.5q0 32 -21 53t-52 21t-51.5 -21t-20.5 -53q0 -31 20.5 -51.5t51.5 -20.5
t52 20.5z" />
    <glyph glyph-name="ampersand" unicode="&#x26;" horiz-adv-x="794" 
d="M95.5 37q-70.5 52 -70.5 145q0 65 31.5 111t99.5 89q-38 38 -57 74.5t-19 82.5q0 51 26 90.5t75 62t116 22.5q64 0 111.5 -23t73 -62.5t25.5 -89.5q0 -57 -25 -95.5t-84 -78.5l124 -118q19 37 19 120h150q0 -80 -11 -130.5t-40 -101.5l139 -135h-215l-52 48
q-38 -33 -94.5 -48t-135.5 -15q-116 0 -186.5 52zM342 484q14 18 14 43q0 29 -16 44.5t-43 15.5t-43 -15.5t-16 -44.5q0 -21 12 -38.5t42 -44.5q36 22 50 40zM408 146l-135 131q-40 -19 -57.5 -41t-17.5 -54q0 -37 27 -55.5t67 -18.5q79 0 116 38z" />
    <glyph glyph-name="quotesingle" unicode="'" horiz-adv-x="179" 
d="M25 699h129v-205h-129v205z" />
    <glyph glyph-name="parenleft" unicode="(" horiz-adv-x="363" 
d="M25 270q0 260 150 444h183q-152 -195 -152 -444t152 -444h-183q-150 184 -150 444z" />
    <glyph glyph-name="parenright" unicode=")" horiz-adv-x="363" 
d="M157 270q0 249 -152 444h183q150 -184 150 -444t-150 -444h-183q152 195 152 444z" />
    <glyph glyph-name="asterisk" unicode="*" horiz-adv-x="440" 
d="M64 413l73 99l-112 39l40 91l96 -34v91h118v-91l96 35l40 -92l-111 -38l73 -99l-91 -60l-65 90l-65 -91z" />
    <glyph glyph-name="plus" unicode="+" horiz-adv-x="406" 
d="M133 237h-108v132h108v112h140v-112h108v-132h-108v-112h-140v112z" />
    <glyph glyph-name="comma" unicode="," horiz-adv-x="315" 
d="M108 62h182l-105 -211h-160z" />
    <glyph glyph-name="hyphen" unicode="-" horiz-adv-x="406" 
d="M25 373h356v-140h-356v140z" />
    <glyph glyph-name="period" unicode="." horiz-adv-x="177" 
d="M43.5 18q-18.5 18 -18.5 44q0 27 18.5 46t44.5 19q27 0 45.5 -19t18.5 -46q0 -26 -18.5 -44t-45.5 -18q-26 0 -44.5 18z" />
    <glyph glyph-name="slash" unicode="/" horiz-adv-x="515" 
d="M310 714h180l-285 -714h-180z" />
    <glyph glyph-name="zero" unicode="0" horiz-adv-x="694" 
d="M177 28.5q-73 43.5 -112.5 125.5t-39.5 195t39 195t111.5 126t171.5 44t171.5 -44t111.5 -126t39 -195t-39.5 -195t-112.5 -125.5t-170 -43.5t-170 43.5zM451 203q37 52 37 144q0 93 -36.5 146.5t-104.5 53.5t-104.5 -53.5t-36.5 -146.5q0 -92 37 -144t104 -52t104 52z
" />
    <glyph glyph-name="one" unicode="1" horiz-adv-x="389" 
d="M167 502l-142 -103v174l172 126h147v-699h-177v502z" />
    <glyph glyph-name="two" unicode="2" horiz-adv-x="582" 
d="M25 101l111 101l48 43q59 52 90.5 83t52 63t20.5 63q0 93 -105 93q-51 0 -100.5 -18t-91.5 -50v169q45 31 105 48.5t128 17.5q78 0 135 -29t87 -80t30 -115q0 -77 -35.5 -134.5t-114.5 -129.5l-89 -81h261v-145h-532v101z" />
    <glyph glyph-name="three" unicode="3" horiz-adv-x="574" 
d="M128.5 -4q-60.5 11 -103.5 33v140q101 -46 204 -46q139 0 139 83q0 42 -34 60.5t-106 18.5h-97v135h93q59 0 91.5 20t32.5 59q0 37 -29 57t-82 20q-109 0 -198 -56v143q45 24 103 37.5t120 13.5q137 0 202 -54.5t65 -153.5q0 -45 -21.5 -85t-63.5 -68q105 -46 105 -156
q0 -101 -69 -156.5t-225 -55.5q-66 0 -126.5 11z" />
    <glyph glyph-name="four" unicode="4" horiz-adv-x="615" 
d="M326 144h-321v110l331 445h175v-415h99v-140h-99v-144h-185v144zM353 284v200l-147 -200h147z" />
    <glyph glyph-name="five" unicode="5" horiz-adv-x="577" 
d="M122 -2q-59 13 -97 36v155q45 -29 101.5 -45.5t106.5 -16.5q70 0 104 27t34 74q0 45 -34.5 70t-96.5 25q-35 0 -73.5 -6.5t-66.5 -18.5l-68 39l28 362h448v-145h-277l-9 -110q46 12 98 12q109 0 170.5 -57.5t61.5 -165.5q0 -117 -79 -182.5t-232 -65.5q-60 0 -119 13z
" />
    <glyph glyph-name="six" unicode="6" horiz-adv-x="628" 
d="M165.5 23.5q-66.5 38.5 -103.5 111t-37 170.5q0 128 45 220.5t125 140.5t185 48q71 0 127 -18v-150q-44 24 -113 24q-75 0 -122 -40.5t-58 -119.5q25 26 69 41t93 15q67 0 118.5 -27.5t80 -79.5t28.5 -125q0 -71 -32.5 -127.5t-97 -89t-156.5 -32.5q-85 0 -151.5 38.5z
M394 152q30 30 30 73q0 44 -30 74t-74 30q-43 0 -73 -30.5t-30 -73.5t30 -73t73 -30q44 0 74 30z" />
    <glyph glyph-name="seven" unicode="7" horiz-adv-x="534" 
d="M327 554h-312v145h504v-118l-265 -581h-180z" />
    <glyph glyph-name="eight" unicode="8" horiz-adv-x="623" 
d="M103 41q-78 56 -78 159q0 59 27.5 100.5t73.5 61.5q-38 26 -58 64.5t-20 84.5q0 96 71.5 149.5t192.5 53.5t192 -53.5t71 -149.5q0 -47 -20 -85.5t-57 -63.5q46 -19 73 -61t27 -101q0 -103 -77.5 -159t-208.5 -56t-209 56zM376.5 429q25.5 24 25.5 61t-25.5 61.5
t-64.5 24.5t-64 -24t-25 -62q0 -37 25 -61t64 -24t64.5 24zM386.5 148.5q28.5 26.5 28.5 69.5q0 42 -29 69t-74 27t-74 -27t-29 -69q0 -43 28.5 -69.5t74.5 -26.5t74.5 26.5z" />
    <glyph glyph-name="nine" unicode="9" horiz-adv-x="628" 
d="M121 2v150q46 -24 113 -24q76 0 124.5 40t58.5 119q-24 -25 -66 -39.5t-91 -14.5q-69 0 -122 28t-83 81t-30 126q0 71 32.5 126.5t97 87.5t156.5 32q139 0 215.5 -85.5t76.5 -235.5q0 -130 -45.5 -222t-125.5 -139t-184 -47q-74 0 -127 17zM385 399q30 30 30 73
q0 44 -30 74t-74 30q-43 0 -73 -30.5t-30 -73.5t30 -73t73 -30q44 0 74 30z" />
    <glyph glyph-name="colon" unicode=":" horiz-adv-x="222" 
d="M50.5 352.5q-25.5 25.5 -25.5 60.5t25.5 60.5t60.5 25.5t60.5 -25.5t25.5 -60.5t-25.5 -60.5t-60.5 -25.5t-60.5 25.5zM50.5 34.5q-25.5 25.5 -25.5 60.5t25.5 60.5t60.5 25.5t60.5 -25.5t25.5 -60.5t-25.5 -60.5t-60.5 -25.5t-60.5 25.5z" />
    <glyph glyph-name="semicolon" unicode=";" horiz-adv-x="315" 
d="M129.5 352.5q-25.5 25.5 -25.5 60.5t25.5 60.5t60.5 25.5t60.5 -25.5t25.5 -60.5t-25.5 -60.5t-60.5 -25.5t-60.5 25.5zM108 62h182l-105 -211h-160z" />
    <glyph glyph-name="less" unicode="&#x3c;" horiz-adv-x="530" 
d="M25 264v123l480 235v-183l-248 -114l248 -114v-183z" />
    <glyph glyph-name="equal" unicode="=" horiz-adv-x="513" 
d="M25 517h463v-138h-463v138zM25 291h463v-139h-463v139z" />
    <glyph glyph-name="greater" unicode="&#x3e;" horiz-adv-x="530" 
d="M25 211l248 114l-248 114v183l480 -235v-123l-480 -236v183z" />
    <glyph glyph-name="question" unicode="?" horiz-adv-x="523" 
d="M133 251q0 102 81 159l26 18q37 24 51.5 39.5t14.5 38.5q0 58 -97 58q-45 0 -93 -12t-91 -34v154q92 42 206 42q123 0 195 -51.5t72 -142.5q0 -51 -23 -82.5t-78 -70.5q-37 -27 -54 -41.5t-25.5 -32.5t-8.5 -44v-19h-176v21zM153.5 11.5q-26.5 26.5 -26.5 65.5
q0 40 26.5 66t66.5 26q39 0 66.5 -26.5t27.5 -65.5t-27.5 -65.5t-66.5 -26.5q-40 0 -66.5 26.5z" />
    <glyph glyph-name="at" unicode="@" horiz-adv-x="902" 
d="M225 -33.5q-95 42.5 -147.5 124t-52.5 196.5q0 124 57 221t160 151.5t235 54.5q124 0 214 -41t138 -119t48 -188q0 -118 -53 -189t-147 -71q-34 0 -64 15.5t-43 41.5q-24 -27 -62 -42t-81 -15q-85 0 -138 45t-53 135q0 69 29.5 124t84 86.5t126.5 31.5q45 0 93 -11
t80 -29l-13 -232q-1 -27 8.5 -40.5t28.5 -13.5q33 0 49 44t16 120q0 117 -64 172t-198 55q-90 0 -161 -36t-111 -105t-40 -165q0 -122 73 -183.5t210 -61.5q101 0 176 25v-115q-77 -28 -176 -28q-127 0 -222 42.5zM490 234q17 18 19 48l8 127q-15 7 -44 7q-41 0 -67 -33.5
t-26 -86.5q0 -80 59 -80q34 0 51 18z" />
    <glyph glyph-name="A" unicode="A" horiz-adv-x="783" 
d="M305 699h174l279 -699h-181l-56 144h-258l-56 -144h-182zM477 280l-85 235l-86 -235h171z" />
    <glyph glyph-name="B" unicode="B" horiz-adv-x="664" 
d="M45 699h354q101 0 159.5 -50t58.5 -143q0 -44 -20 -82t-57 -60q51 -20 75 -57.5t24 -97.5q0 -64 -30 -111.5t-80.5 -72.5t-112.5 -25h-371v699zM360 422q78 0 78 73q0 41 -20 56.5t-61 15.5h-135v-145h138zM371 132q45 0 67 17t22 60t-23 62.5t-70 19.5h-145v-159h149z
" />
    <glyph glyph-name="C" unicode="C" horiz-adv-x="682" 
d="M205.5 29q-86.5 44 -133.5 126.5t-47 193.5t47 193.5t133.5 127t200.5 44.5q75 0 134 -15t109 -47v-168q-44 35 -99.5 51t-127.5 16q-103 0 -159 -53.5t-56 -148.5t56.5 -149t158.5 -54q72 0 129 17t106 54v-167q-95 -65 -251 -65q-114 0 -200.5 44z" />
    <glyph glyph-name="D" unicode="D" horiz-adv-x="701" 
d="M45 699h251q115 0 201 -42t132.5 -120.5t46.5 -183.5q0 -174 -102 -263.5t-283 -89.5h-246v699zM306 149q91 0 139.5 55t48.5 149q0 86 -48.5 141.5t-133.5 55.5h-90v-401h84z" />
    <glyph glyph-name="E" unicode="E" horiz-adv-x="566" 
d="M45 699h496v-149h-319v-131h233v-139h-233v-131h319v-149h-496v699z" />
    <glyph glyph-name="F" unicode="F" horiz-adv-x="546" 
d="M45 699h496v-149h-319v-131h233v-139h-233v-280h-177v699z" />
    <glyph glyph-name="G" unicode="G" horiz-adv-x="695" 
d="M205.5 29q-86.5 44 -133.5 126.5t-47 193.5t47 193.5t133.5 127t200.5 44.5q76 0 134.5 -14.5t108.5 -46.5v-168q-44 35 -99.5 50.5t-127.5 15.5q-62 0 -110.5 -24.5t-76.5 -70.5t-28 -107q0 -95 55.5 -150t150.5 -55q53 0 89 18v112h-107v124h275v-348
q-107 -65 -264 -65q-114 0 -200.5 44z" />
    <glyph glyph-name="H" unicode="H" horiz-adv-x="718" 
d="M45 699h177v-270h274v270h177v-699h-177v282h-274v-282h-177v699z" />
    <glyph glyph-name="I" unicode="I" horiz-adv-x="267" 
d="M45 699h177v-699h-177v699z" />
    <glyph glyph-name="J" unicode="J" horiz-adv-x="388" 
d="M59.5 -8.5q-36.5 6.5 -54.5 16.5v156q15 -7 38.5 -11t47.5 -4q44 0 62 18.5t18 61.5v470h177v-490q0 -103 -56 -163.5t-163 -60.5q-33 0 -69.5 6.5z" />
    <glyph glyph-name="K" unicode="K" horiz-adv-x="717" 
d="M45 699h177v-290l241 290h210l-283 -340l302 -359h-210l-260 309v-309h-177v699z" />
    <glyph glyph-name="L" unicode="L" horiz-adv-x="531" 
d="M45 699h177v-550h304v-149h-481v699z" />
    <glyph glyph-name="M" unicode="M" horiz-adv-x="834" 
d="M45 699h170l202 -433l203 433h169v-699h-165v351l-167 -351h-80l-166 351v-351h-166v699z" />
    <glyph glyph-name="N" unicode="N" horiz-adv-x="699" 
d="M45 699h175l257 -416v416h177v-699h-174l-258 417v-417h-177v699z" />
    <glyph glyph-name="O" unicode="O" horiz-adv-x="800" 
d="M209.5 31q-85.5 46 -135 128.5t-49.5 189.5t49.5 190t135 129t191.5 46q105 0 190.5 -46t134.5 -129t49 -190t-49 -189.5t-134.5 -128.5t-190.5 -46q-106 0 -191.5 46zM498 175q44 24 70 69t26 105t-25.5 104.5t-69.5 69t-98 24.5q-55 0 -99 -24.5t-69.5 -69
t-25.5 -104.5t25.5 -105t70 -69t98.5 -24q53 0 97 24z" />
    <glyph glyph-name="P" unicode="P" horiz-adv-x="636" 
d="M45 699h308q122 0 195 -64t73 -179q0 -118 -72.5 -182.5t-195.5 -64.5h-131v-209h-177v699zM325 358q53 0 83.5 22t30.5 76t-30 74t-84 20h-103v-192h103z" />
    <glyph glyph-name="Q" unicode="Q" horiz-adv-x="803" 
d="M214 42.5q-90 42.5 -139.5 121.5t-49.5 186t49.5 190t135 128.5t191.5 45.5q105 0 190.5 -45.5t134.5 -128.5t49 -190q0 -60 -28.5 -118.5t-70.5 -93.5h117v-138h-370q-119 0 -209 42.5zM498 175q44 24 70 69t26 105t-25.5 104.5t-69.5 69t-98 24.5q-55 0 -99 -24.5
t-69.5 -69t-25.5 -104.5t25.5 -105t70 -69t98.5 -24q53 0 97 24z" />
    <glyph glyph-name="R" unicode="R" horiz-adv-x="646" 
d="M45 699h314q123 0 192.5 -62t69.5 -178q0 -78 -34 -133t-96 -82l124 -244h-182l-111 219h-100v-219h-177v699zM328 368q53 0 82 20.5t29 70.5q0 52 -28.5 71.5t-82.5 19.5h-106v-182h106z" />
    <glyph glyph-name="S" unicode="S" horiz-adv-x="569" 
d="M132 -2.5q-65 12.5 -107 34.5v159q54 -28 112.5 -42t111.5 -14q49 0 74 15t25 43q0 21 -13.5 36.5t-39.5 28.5t-81 36q-97 41 -141 91t-44 123q0 60 33.5 107t93.5 73t138 26q64 0 114 -10t96 -32v-155q-88 46 -177 46q-48 0 -76.5 -15.5t-28.5 -44.5t29 -47t107 -49
q71 -29 110.5 -57t57.5 -65t18 -94q0 -97 -70.5 -151.5t-210.5 -54.5q-66 0 -131 12.5z" />
    <glyph glyph-name="T" unicode="T" horiz-adv-x="592" 
d="M207 550h-197v149h572v-149h-198v-550h-177v550z" />
    <glyph glyph-name="U" unicode="U" horiz-adv-x="715" 
d="M120 69.5q-80 84.5 -80 223.5v406h177v-408q0 -70 37.5 -106t103.5 -36t103 36t37 106v408h177v-406q0 -140 -79.5 -224t-237.5 -84t-238 84.5z" />
    <glyph glyph-name="V" unicode="V" horiz-adv-x="783" 
d="M25 699h189l178 -465l178 465h188l-279 -699h-174z" />
    <glyph glyph-name="W" unicode="W" horiz-adv-x="992" 
d="M25 699h182l117 -414l113 414h126l106 -415l116 415h182l-193 -699h-163l-115 406l-114 -406h-164z" />
    <glyph glyph-name="X" unicode="X" horiz-adv-x="759" 
d="M278 350l-252 349h203l151 -209l151 209h203l-253 -349l253 -350h-203l-151 209l-152 -209h-203z" />
    <glyph glyph-name="Y" unicode="Y" horiz-adv-x="750" 
d="M283 266l-258 433h189l158 -271l165 271h188l-265 -433v-266h-177v266z" />
    <glyph glyph-name="Z" unicode="Z" horiz-adv-x="611" 
d="M25 120l318 430h-310v149h531v-121l-316 -429h338v-149h-561v120z" />
    <glyph glyph-name="bracketleft" unicode="[" horiz-adv-x="337" 
d="M25 787h297v-149h-120v-585h120v-149h-297v883z" />
    <glyph glyph-name="backslash" unicode="\" horiz-adv-x="515" 
d="M25 714h180l285 -714h-180z" />
    <glyph glyph-name="bracketright" unicode="]" horiz-adv-x="337" 
d="M15 53h120v585h-120v149h297v-883h-297v149z" />
    <glyph glyph-name="asciicircum" unicode="^" horiz-adv-x="585" 
d="M223 719h140l197 -339h-168l-99 178l-100 -178h-168z" />
    <glyph glyph-name="underscore" unicode="_" horiz-adv-x="479" 
d="M25 0h429v-145h-429v145z" />
    <glyph glyph-name="grave" unicode="`" horiz-adv-x="304" 
d="M25 745h185l69 -178h-163z" />
    <glyph glyph-name="a" unicode="a" horiz-adv-x="593" 
d="M80.5 28.5q-55.5 43.5 -55.5 121.5q0 81 53.5 124.5t153.5 43.5q39 0 78 -8.5t67 -22.5v10q0 77 -126 77q-88 0 -161 -34v121q32 15 84 24.5t108 9.5q134 0 202.5 -53.5t68.5 -149.5v-292h-165v41q-27 -26 -68 -41t-94 -15q-90 0 -145.5 43.5zM336 105.5q27 12.5 41 32.5
v42q-43 29 -98 29q-35 0 -54 -15t-19 -44q0 -27 18.5 -42t53.5 -15q31 0 58 12.5z" />
    <glyph glyph-name="b" unicode="b" horiz-adv-x="665" 
d="M215 48v-48h-170v739h176v-298q29 25 72.5 39.5t91.5 14.5q76 0 133.5 -32t89.5 -90.5t32 -133.5q0 -76 -32 -133.5t-90 -89t-133 -31.5q-103 0 -170 63zM426 152.5q33 31.5 33 86.5t-33 87t-87 32q-40 0 -72 -20.5t-46 -55.5v-85q14 -35 46 -55.5t72 -20.5q54 0 87 31.5
z" />
    <glyph glyph-name="c" unicode="c" horiz-adv-x="539" 
d="M102 51q-77 66 -77 188t77.5 189t209.5 67q59 0 110.5 -11.5t85.5 -32.5v-137q-61 44 -161 44q-64 0 -102.5 -29.5t-38.5 -89.5q0 -61 38 -89.5t102 -28.5q97 0 168 46v-136q-76 -46 -203 -46q-132 0 -209 66z" />
    <glyph glyph-name="d" unicode="d" horiz-adv-x="665" 
d="M147 16.5q-58 31.5 -90 89t-32 133.5q0 75 32 133.5t89.5 90.5t133.5 32q50 0 92 -14t72 -40v298h176v-739h-170v48q-67 -63 -170 -63q-75 0 -133 31.5zM398 141.5q32 20.5 46 55.5v85q-14 35 -46 55.5t-72 20.5q-54 0 -87 -32t-33 -87t33 -86.5t87 -31.5q40 0 72 20.5z
" />
    <glyph glyph-name="e" unicode="e" horiz-adv-x="600" 
d="M105.5 51q-80.5 66 -80.5 187q0 119 71.5 188t206.5 69q86 0 147.5 -32.5t93 -89t31.5 -127.5v-65h-383q10 -40 50 -58t109 -18q47 0 96.5 8t85.5 22v-116q-37 -15 -92.5 -24.5t-113.5 -9.5q-141 0 -221.5 66zM409 291q-4 39 -32 61t-77 22q-48 0 -76 -22.5t-32 -60.5
h217z" />
    <glyph glyph-name="f" unicode="f" horiz-adv-x="374" 
d="M72 358h-67v122h67v60q0 97 61.5 150.5t159.5 53.5q55 0 96 -18v-140q-28 14 -63 14q-40 0 -59 -18t-19 -57v-45h111v-122h-111v-358h-176v358z" />
    <glyph glyph-name="g" unicode="g" horiz-adv-x="665" 
d="M209.5 -221q-48.5 9 -83.5 24v122q79 -34 180 -34q73 0 105.5 30t32.5 88v29q-29 -25 -71.5 -39t-90.5 -14q-76 0 -134 32t-90.5 90t-32.5 133q0 76 32 134t90 89.5t133 31.5q103 0 170 -63v48h170v-447q0 -125 -76.5 -194t-237.5 -69q-48 0 -96.5 9zM399 142
q32 21 45 56v84q-14 35 -46 55.5t-72 20.5q-54 0 -87 -31.5t-33 -85.5q0 -55 33 -87.5t87 -32.5q41 0 73 21z" />
    <glyph glyph-name="h" unicode="h" horiz-adv-x="620" 
d="M45 739h176v-308q32 32 73.5 48t87.5 16q101 0 149.5 -52.5t48.5 -142.5v-300h-176v277q0 81 -74 81q-34 0 -62 -15.5t-47 -47.5v-295h-176v739z" />
    <glyph glyph-name="i" unicode="i" horiz-adv-x="278" 
d="M72 570q-27 26 -27 66q0 39 27 65.5t67 26.5q39 0 66.5 -26.5t27.5 -65.5t-27.5 -65.5t-66.5 -26.5q-40 0 -67 26zM51 480h176v-480h-176v480z" />
    <glyph glyph-name="j" unicode="j" horiz-adv-x="277" 
d="M71 570q-27 26 -27 66q0 39 27 65.5t67 26.5q39 0 66.5 -26.5t27.5 -65.5t-27.5 -65.5t-66.5 -26.5q-40 0 -67 26zM-90 -214v140q30 -14 68 -14q72 0 72 73v495h176v-516q0 -96 -60.5 -145.5t-159.5 -49.5q-59 0 -96 17z" />
    <glyph glyph-name="k" unicode="k" horiz-adv-x="632" 
d="M45 739h176v-452l158 193h202l-191 -232l217 -248h-202l-184 211v-211h-176v739z" />
    <glyph glyph-name="l" unicode="l" horiz-adv-x="266" 
d="M45 739h176v-739h-176v739z" />
    <glyph glyph-name="m" unicode="m" horiz-adv-x="874" 
d="M45 480h163v-52q30 32 69 49.5t83 17.5q54 0 86.5 -16t52.5 -48q30 30 73 47t87 17q95 0 135 -48.5t40 -139.5v-307h-168v282q0 40 -15 58t-50 18q-45 0 -73 -32q1 -17 1 -52v-274h-168v289q0 37 -13 53t-46 16q-51 0 -88 -57v-301h-169v480z" />
    <glyph glyph-name="n" unicode="n" horiz-adv-x="620" 
d="M45 480h170v-53q31 34 75 51t92 17q101 0 149.5 -52.5t48.5 -142.5v-300h-176v277q0 81 -74 81q-34 0 -62 -15.5t-47 -47.5v-295h-176v480z" />
    <glyph glyph-name="o" unicode="o" horiz-adv-x="642" 
d="M165 17.5q-67 32.5 -103.5 90t-36.5 132.5t36.5 132.5t103.5 90t156 32.5t156 -32.5t103.5 -90t36.5 -132.5t-36.5 -132.5t-103.5 -90t-156 -32.5t-156 32.5zM405.5 153.5q31.5 31.5 31.5 86.5t-31.5 86.5t-84.5 31.5t-84.5 -31.5t-31.5 -86.5t31.5 -86.5t84.5 -31.5
t84.5 31.5z" />
    <glyph glyph-name="p" unicode="p" horiz-adv-x="665" 
d="M45 480h170v-48q67 63 170 63q75 0 133 -31.5t90 -89t32 -133.5q0 -75 -32 -133.5t-89.5 -90.5t-133.5 -32q-48 0 -91.5 14.5t-72.5 39.5v-258h-176v699zM426 154q33 32 33 87t-33 86.5t-87 31.5q-40 0 -72 -20.5t-46 -55.5v-85q14 -35 46 -55.5t72 -20.5q54 0 87 32z
" />
    <glyph glyph-name="q" unicode="q" horiz-adv-x="665" 
d="M444 39q-29 -25 -72.5 -39.5t-91.5 -14.5q-76 0 -133.5 32t-89.5 90.5t-32 133.5q0 76 32 133.5t90 89t133 31.5q103 0 170 -63v48h170v-699h-176v258zM398 142.5q32 20.5 46 55.5v85q-14 35 -46 55.5t-72 20.5q-54 0 -87 -31.5t-33 -86.5t33 -87t87 -32q40 0 72 20.5z
" />
    <glyph glyph-name="r" unicode="r" horiz-adv-x="412" 
d="M45 480h170v-60q28 32 79 49.5t113 17.5v-135q-66 0 -116.5 -19t-69.5 -57v-276h-176v480z" />
    <glyph glyph-name="s" unicode="s" horiz-adv-x="509" 
d="M131 -3.5q-63 11.5 -100 32.5v129q41 -24 98.5 -39.5t105.5 -15.5q35 0 51 5t16 20q0 12 -10.5 19.5t-38 16t-63.5 18.5q-61 18 -96 37t-52 48t-17 73q0 78 61.5 116.5t168.5 38.5q52 0 109.5 -11t86.5 -29v-127q-30 20 -79.5 33t-92.5 13q-34 0 -53 -6.5t-19 -22.5
q0 -15 19 -23t68 -20q32 -8 27 -7q64 -17 99 -38t49.5 -49.5t14.5 -72.5q0 -69 -59.5 -109.5t-172.5 -40.5q-58 0 -121 11.5z" />
    <glyph glyph-name="t" unicode="t" horiz-adv-x="386" 
d="M118.5 34.5q-45.5 49.5 -45.5 135.5v188h-68v122h68v144h176v-144h110v-122h-110v-164q0 -39 14.5 -56t51.5 -17q33 0 66 18v-131q-26 -12 -55.5 -17.5t-72.5 -5.5q-89 0 -134.5 49.5z" />
    <glyph glyph-name="u" unicode="u" horiz-adv-x="620" 
d="M89.5 40q-49.5 55 -49.5 145v295h176v-275q0 -83 75 -83q34 0 62 16t46 47v295h176v-480h-170v52q-31 -33 -75 -50t-92 -17q-99 0 -148.5 55z" />
    <glyph glyph-name="v" unicode="v" horiz-adv-x="619" 
d="M25 480h176l109 -279l108 279h176l-201 -480h-167z" />
    <glyph glyph-name="w" unicode="w" horiz-adv-x="852" 
d="M25 480h176l77 -275l77 275h142l77 -275l77 275h176l-161 -480h-158l-82 270l-82 -270h-158z" />
    <glyph glyph-name="x" unicode="x" horiz-adv-x="660" 
d="M231 248l-193 232h198l94 -113l94 113h198l-193 -232l206 -248h-196l-109 130l-108 -130h-197z" />
    <glyph glyph-name="y" unicode="y" horiz-adv-x="625" 
d="M126 -193.5q-35 4.5 -52 12.5v131q29 -12 66 -12q33 0 51.5 14.5t29.5 45.5l12 32l-208 450h176l125 -312l118 312h176l-198 -502q-35 -90 -89.5 -133t-139.5 -43q-32 0 -67 4.5z" />
    <glyph glyph-name="z" unicode="z" horiz-adv-x="518" 
d="M25 96l228 262h-222v122h454v-96l-226 -262h234v-122h-468v96z" />
    <glyph glyph-name="braceleft" unicode="{" horiz-adv-x="356" 
d="M114.5 -68.5q-27.5 28.5 -27.5 86.5v190q0 28 -13.5 44t-39.5 16h-29v154h29q26 0 39.5 15.5t13.5 43.5v191q0 58 27.5 86.5t76.5 28.5h150v-149h-42q-19 0 -27 -8.5t-8 -27.5v-150q0 -83 -69 -106v-2q69 -23 69 -106v-149q0 -20 8 -28.5t27 -8.5h42v-149h-150
q-49 0 -76.5 28.5z" />
    <glyph glyph-name="bar" unicode="|" horiz-adv-x="227" 
d="M25 812h177v-956h-177v956z" />
    <glyph glyph-name="braceright" unicode="}" horiz-adv-x="356" 
d="M15 52h42q19 0 27 8.5t8 28.5v149q0 83 69 106v2q-69 23 -69 106v150q0 19 -8 27.5t-27 8.5h-42v149h150q49 0 76.5 -28.5t27.5 -86.5v-191q0 -28 13.5 -43.5t39.5 -15.5h29v-154h-29q-26 0 -39.5 -16t-13.5 -44v-190q0 -58 -27.5 -86.5t-76.5 -28.5h-150v149z" />
    <glyph glyph-name="asciitilde" unicode="~" horiz-adv-x="513" 
d="M322 245q-26 7 -70 22q-39 14 -64.5 21t-48.5 7q-69 0 -114 -55v153q37 46 114 46q26 0 51 -7t70 -22q41 -14 66 -21t48 -7q69 0 114 56v-153q-36 -47 -114 -47q-26 0 -52 7z" />
    <glyph glyph-name="uni00A0" unicode="&#xa0;" horiz-adv-x="340" 
 />
    <glyph glyph-name="exclamdown" unicode="&#xa1;" horiz-adv-x="237" 
d="M52 392q-27 26 -27 66q0 38 27 65t67 27q38 0 65.5 -27t27.5 -65q0 -39 -27 -65.5t-66 -26.5q-40 0 -67 26zM31 305h176v-469h-176v469z" />
    <glyph glyph-name="cent" unicode="&#xa2;" horiz-adv-x="539" 
d="M238 -9q-100 17 -156.5 80.5t-56.5 167.5t56.5 168t156.5 82v92h157v-92q70 -11 113 -38v-137q-31 23 -73.5 34.5t-87.5 11.5q-64 0 -102.5 -30.5t-38.5 -90.5q0 -61 38.5 -90.5t101.5 -29.5q94 0 168 48v-136q-45 -28 -119 -40v-92h-157v92z" />
    <glyph glyph-name="sterling" unicode="&#xa3;" horiz-adv-x="483" 
d="M25 149h69v149h-66v139h66v68q0 66 30.5 113.5t83.5 71.5t118 24q56 0 97 -18v-140q-30 14 -64 14q-41 0 -64.5 -20.5t-23.5 -59.5v-53h136v-139h-136v-149h187v-149h-433v149z" />
    <glyph glyph-name="currency" unicode="&#xa4;" horiz-adv-x="603" 
d="M25 121l85 63q-26 43 -26 94q0 50 26 96l-84 62l72 89l90 -71q51 32 114 32t114 -32l89 70l72 -88l-83 -62q25 -44 25 -96q0 -53 -25 -94l84 -63l-73 -90l-90 70q-52 -31 -113 -31t-113 31l-91 -70zM363 217q25 25 25 61q0 37 -25 62.5t-61 25.5t-61 -25.5t-25 -62.5
q0 -36 25 -61t61 -25t61 25z" />
    <glyph glyph-name="yen" unicode="&#xa5;" horiz-adv-x="750" 
d="M283 75h-127v114h127v45h-127v113h78l-209 352h189l158 -271l165 271h188l-216 -352h77v-113h-126v-45h126v-114h-126v-75h-177v75z" />
    <glyph glyph-name="brokenbar" unicode="&#xa6;" horiz-adv-x="227" 
d="M25 812h177v-402h-177v402zM25 257h177v-401h-177v401z" />
    <glyph glyph-name="section" unicode="&#xa7;" horiz-adv-x="569" 
d="M132 -157.5q-65 12.5 -107 34.5v159q54 -28 112.5 -42t111.5 -14q93 0 93 58q0 22 -12 36t-36 26t-80 35q-97 41 -141 92.5t-44 125.5q0 43 22 76q-22 34 -22 79q0 60 33.5 107t93.5 73t138 26q64 0 114 -10t96 -32v-155q-88 46 -177 46q-45 0 -72 -15.5t-27 -44.5
q0 -27 27.5 -45.5t102.5 -48.5q71 -29 110.5 -57t57.5 -66t18 -95q0 -37 -20 -74q20 -37 20 -81q0 -97 -70.5 -151.5t-210.5 -54.5q-66 0 -131 12.5zM384 221q0 28 -21 44t-74 38q-26 10 -50.5 23t-35.5 24q-4 -11 -4 -24q0 -26 21 -43t72 -38q36 -15 56.5 -25.5t32.5 -21.5
q3 9 3 23z" />
    <glyph glyph-name="dieresis" unicode="&#xa8;" horiz-adv-x="440" 
d="M48 592q-23 22 -23 54t23 55t55 23q31 0 53.5 -23t22.5 -55t-22 -54t-54 -22t-55 22zM284 592q-23 22 -23 54t23 55t55 23q31 0 53.5 -23t22.5 -55t-22.5 -54t-53.5 -22q-32 0 -55 22z" />
    <glyph glyph-name="copyright" unicode="&#xa9;" horiz-adv-x="795" 
d="M210.5 31q-85.5 46 -135.5 129t-50 189q0 107 50 190t135.5 129t187.5 46t187.5 -46t135 -129t49.5 -190q0 -106 -49.5 -189t-135 -129t-187.5 -46t-187.5 46zM530 122q58 30 91 88t33 139q0 80 -33 138t-91 88.5t-132 30.5q-75 0 -133 -30.5t-91 -88.5t-33 -138
q0 -81 33 -139t91.5 -88t132.5 -30t132 30zM239.5 191.5q-58.5 55.5 -58.5 156.5t59 156.5t158 55.5q100 0 158 -36v-109q-51 38 -129 38q-48 0 -77 -27t-29 -78t28.5 -77.5t76.5 -26.5q77 0 135 40v-109q-65 -39 -164 -39t-157.5 55.5z" />
    <glyph glyph-name="ordfeminine" unicode="&#xaa;" horiz-adv-x="428" 
d="M65 380q-40 31 -40 87q0 58 38.5 89t110.5 31q28 0 55.5 -6t47.5 -16v8q0 27 -23 40.5t-67 13.5q-63 0 -116 -24v86q23 11 60.5 18t77.5 7q96 0 145 -38.5t49 -106.5v-209h-118v29q-19 -18 -48.5 -29t-67.5 -11q-64 0 -104 31zM248 435q19 9 29 23v31q-31 20 -70 20
q-52 0 -52 -42q0 -20 13 -30.5t38 -10.5q23 0 42 9z" />
    <glyph glyph-name="guillemotleft" unicode="&#xab;" horiz-adv-x="685" 
d="M25 307v37l247 223l98 -100l-160 -142l160 -141l-98 -100zM315 307v37l247 223l98 -100l-160 -142l160 -141l-98 -100z" />
    <glyph glyph-name="logicalnot" unicode="&#xac;" horiz-adv-x="447" 
d="M265 233h-240v140h397v-246h-157v106z" />
    <glyph glyph-name="uni00AD" unicode="&#xad;" horiz-adv-x="406" 
d="M25 373h356v-140h-356v140z" />
    <glyph glyph-name="registered" unicode="&#xae;" horiz-adv-x="795" 
d="M210.5 31q-85.5 46 -135.5 129t-50 189q0 107 50 190t135.5 129t187.5 46t187.5 -46t135 -129t49.5 -190q0 -106 -49.5 -189t-135 -129t-187.5 -46t-187.5 46zM530 122q58 30 91 88t33 139q0 80 -33 138t-91 88.5t-132 30.5q-75 0 -133 -30.5t-91 -88.5t-33 -138
q0 -81 33 -139t91.5 -88t132.5 -30t132 30zM239 554h189q72 0 114.5 -37t42.5 -106q0 -46 -19 -78.5t-54 -48.5l60 -124h-116l-52 107h-43v-107h-122v394zM417 367q51 0 51 44q0 43 -51 43h-56v-87h56z" />
    <glyph glyph-name="macron" unicode="&#xaf;" horiz-adv-x="395" 
d="M25 687h345v-113h-345v113z" />
    <glyph glyph-name="degree" unicode="&#xb0;" horiz-adv-x="338" 
d="M97 458.5q-33 19.5 -52.5 52.5t-19.5 72t19.5 72t52.5 52.5t72 19.5t72 -19.5t52.5 -52.5t19.5 -72t-19.5 -72t-52.5 -52.5t-72 -19.5t-72 19.5zM204.5 548q14.5 15 14.5 35t-14.5 34.5t-35.5 14.5q-20 0 -34.5 -14.5t-14.5 -34.5t14.5 -35t34.5 -15q21 0 35.5 15z" />
    <glyph glyph-name="plusminus" unicode="&#xb1;" horiz-adv-x="406" 
d="M133 281h-108v132h108v112h140v-112h108v-132h-108v-112h-140v112zM25 132h356v-132h-356v132z" />
    <glyph glyph-name="uni00B2" unicode="&#xb2;" horiz-adv-x="339" 
d="M25 438l17 12q76 52 106 78.5t30 48.5q0 16 -10.5 23t-32.5 7q-25 0 -52 -9t-46 -24v104q20 13 57 22t71 9q70 0 106.5 -32t36.5 -78q0 -38 -24.5 -67t-85.5 -74h116v-88h-289v68z" />
    <glyph glyph-name="uni00B3" unicode="&#xb3;" horiz-adv-x="343" 
d="M85.5 365.5q-36.5 5.5 -60.5 15.5v83q22 -11 48.5 -16.5t49.5 -5.5q29 0 43.5 7t14.5 23t-13.5 22.5t-45.5 6.5h-45v69h44q51 0 51 27q0 14 -13.5 21.5t-38.5 7.5q-48 0 -89 -26v84q23 11 58.5 18t72.5 7q68 0 107.5 -27t39.5 -73q0 -47 -40 -74q49 -20 49 -73
q0 -47 -41.5 -74.5t-116.5 -27.5q-38 0 -74.5 5.5z" />
    <glyph glyph-name="acute" unicode="&#xb4;" horiz-adv-x="304" 
d="M94 745h185l-91 -178h-163z" />
    <glyph glyph-name="paragraph" unicode="&#xb6;" horiz-adv-x="762" 
d="M294 277h-31q-108 0 -173 61t-65 179q0 121 75 183t195 62h442v-896h-177v751h-89v-751h-177v411z" />
    <glyph glyph-name="periodcentered" unicode="&#xb7;" horiz-adv-x="177" 
d="M43.5 252.5q-18.5 18.5 -18.5 44.5t18.5 45t44.5 19q27 0 45.5 -19t18.5 -45t-18.5 -44.5t-45.5 -18.5q-26 0 -44.5 18.5z" />
    <glyph glyph-name="cedilla" unicode="&#xb8;" horiz-adv-x="323" 
d="M72.5 -244q-31.5 4 -47.5 10v85q26 -14 61 -14q24 0 37 9t13 25q0 19 -22.5 29.5t-75.5 10.5l34 89h155l-18 -46q44 -7 66.5 -29.5t22.5 -65.5q0 -53 -43 -80t-117 -27q-34 0 -65.5 4z" />
    <glyph glyph-name="uni00B9" unicode="&#xb9;" horiz-adv-x="231" 
d="M99 574l-74 -53v114l87 64h114v-329h-127v204z" />
    <glyph glyph-name="ordmasculine" unicode="&#xba;" horiz-adv-x="475" 
d="M83 398q-58 50 -58 133q0 53 26 94.5t74.5 65t112.5 23.5q63 0 111.5 -23.5t74.5 -65t26 -94.5q0 -83 -58 -133t-154 -50q-97 0 -155 50zM297.5 470q22.5 23 22.5 61q0 39 -22 61.5t-60 22.5t-60.5 -22.5t-22.5 -61.5q0 -38 22.5 -61t60.5 -23q37 0 59.5 23z" />
    <glyph glyph-name="guillemotright" unicode="&#xbb;" horiz-adv-x="685" 
d="M25 184l160 141l-160 142l98 100l247 -223v-37l-247 -223zM315 184l160 141l-160 142l98 100l247 -223v-37l-247 -223z" />
    <glyph glyph-name="onequarter" unicode="&#xbc;" horiz-adv-x="768" 
d="M99 574l-74 -53v114l87 64h114v-329h-127v204zM482 699h179l-387 -699h-179zM571 58h-146v80l139 191h134v-185h45v-86h-45v-58h-127v58zM605 144v87l-67 -87h67z" />
    <glyph glyph-name="onehalf" unicode="&#xbd;" horiz-adv-x="789" 
d="M99 574l-74 -53v114l87 64h114v-329h-127v204zM482 699h179l-387 -699h-179zM475 68q85 59 118.5 87.5t33.5 51.5q0 16 -10 23t-33 7q-25 0 -52 -9.5t-45 -23.5v104q20 13 57 22t71 9q69 0 105.5 -32t36.5 -78q0 -38 -24.5 -67t-85.5 -74h117v-88h-289v68z" />
    <glyph glyph-name="threequarters" unicode="&#xbe;" horiz-adv-x="782" 
d="M85.5 365.5q-36.5 5.5 -60.5 15.5v83q22 -11 48.5 -16.5t49.5 -5.5q29 0 43.5 7t14.5 23t-13.5 22.5t-45.5 6.5h-45v69h44q51 0 51 27q0 14 -13.5 21.5t-38.5 7.5q-48 0 -89 -26v84q23 11 58.5 18t72.5 7q68 0 107.5 -27t39.5 -73q0 -47 -40 -74q49 -20 49 -73
q0 -47 -41.5 -74.5t-116.5 -27.5q-38 0 -74.5 5.5zM499 699h179l-387 -699h-179zM585 58h-146v80l139 191h134v-185h45v-86h-45v-58h-127v58zM619 144v87l-67 -87h67z" />
    <glyph glyph-name="questiondown" unicode="&#xbf;" horiz-adv-x="523" 
d="M236.5 392.5q-27.5 26.5 -27.5 65.5t27.5 65.5t66.5 26.5q40 0 66.5 -26.5t26.5 -65.5q0 -40 -26.5 -66t-66.5 -26q-39 0 -66.5 26.5zM97 -127.5q-72 51.5 -72 142.5q0 51 23 82.5t78 70.5q37 27 54 41.5t25.5 32.5t8.5 44v19h176v-21q0 -102 -81 -159l-26 -18
q-37 -24 -51.5 -39.5t-14.5 -38.5q0 -58 97 -58q45 0 93 12t91 34v-154q-92 -42 -206 -42q-123 0 -195 51.5z" />
    <glyph glyph-name="Agrave" unicode="&#xc0;" horiz-adv-x="783" 
d="M222 920h185l69 -178h-163zM305 699h174l279 -699h-181l-56 144h-258l-56 -144h-182zM477 280l-85 235l-86 -235h171z" />
    <glyph glyph-name="Aacute" unicode="&#xc1;" horiz-adv-x="783" 
d="M383 920h185l-91 -178h-163zM305 699h174l279 -699h-181l-56 144h-258l-56 -144h-182zM477 280l-85 235l-86 -235h171z" />
    <glyph glyph-name="Acircumflex" unicode="&#xc2;" horiz-adv-x="783" 
d="M314 923h157l156 -181h-174l-60 85l-60 -85h-175zM305 699h174l279 -699h-181l-56 144h-258l-56 -144h-182zM477 280l-85 235l-86 -235h171z" />
    <glyph glyph-name="Atilde" unicode="&#xc3;" horiz-adv-x="783" 
d="M189 870q35 42 105 42q22 0 44 -6t57 -19q30 -12 52 -18.5t44 -6.5q63 0 105 50v-128q-34 -41 -105 -41q-25 0 -49 6.5t-56 19.5q-32 12 -51.5 18t-40.5 6q-62 0 -105 -51v128zM305 699h174l279 -699h-181l-56 144h-258l-56 -144h-182zM477 280l-85 235l-86 -235h171z
" />
    <glyph glyph-name="Adieresis" unicode="&#xc4;" horiz-adv-x="783" 
d="M220 764q-23 22 -23 54t23 55t55 23q31 0 53.5 -23t22.5 -55t-22 -54t-54 -22t-55 22zM456 764q-23 22 -23 54t23 55t55 23q31 0 53.5 -23t22.5 -55t-22.5 -54t-53.5 -22q-32 0 -55 22zM305 699h174l279 -699h-181l-56 144h-258l-56 -144h-182zM477 280l-85 235l-86 -235
h171z" />
    <glyph glyph-name="Aring" unicode="&#xc5;" horiz-adv-x="783" 
d="M758 0h-181l-56 144h-258l-56 -144h-182l270 673q-21 19 -32.5 45.5t-11.5 55.5q0 38 19 70.5t51.5 51t70.5 18.5t71 -18.5t52 -51t19 -70.5q0 -29 -11.5 -55.5t-32.5 -45.5zM359.5 806.5q-13.5 -13.5 -13.5 -32.5t13.5 -32.5t32.5 -13.5t32.5 13.5t13.5 32.5
q0 20 -13 33t-33 13q-19 0 -32.5 -13.5zM477 280l-85 235l-86 -235h171z" />
    <glyph glyph-name="AE" unicode="&#xc6;" horiz-adv-x="907" 
d="M331 699h561v-149h-290v-131h205v-139h-205v-131h290v-149h-468v145h-145l-64 -145h-190zM424 284v237h-1l-94 -237h95z" />
    <glyph glyph-name="Ccedilla" unicode="&#xc7;" horiz-adv-x="682" 
d="M498 -9l-15 -37q44 -7 66.5 -29.5t22.5 -65.5q0 -53 -43 -80t-117 -27q-34 0 -65.5 4t-47.5 10v85q26 -14 61 -14q24 0 37 9t13 25q0 19 -22.5 29.5t-75.5 10.5l30 78q-97 12 -168.5 59t-110 124t-38.5 177q0 111 47 193.5t133.5 127t200.5 44.5q75 0 134 -15t109 -47
v-168q-44 35 -99.5 51t-127.5 16q-103 0 -159 -53.5t-56 -148.5t56.5 -149t158.5 -54q72 0 129 17t106 54v-167q-66 -45 -159 -59z" />
    <glyph glyph-name="Egrave" unicode="&#xc8;" horiz-adv-x="566" 
d="M131 920h185l69 -178h-163zM45 699h496v-149h-319v-131h233v-139h-233v-131h319v-149h-496v699z" />
    <glyph glyph-name="Eacute" unicode="&#xc9;" horiz-adv-x="566" 
d="M274 912h185l-91 -178h-163zM45 699h496v-149h-319v-131h233v-139h-233v-131h319v-149h-496v699z" />
    <glyph glyph-name="Ecircumflex" unicode="&#xca;" horiz-adv-x="566" 
d="M213 923h157l156 -181h-174l-60 85l-60 -85h-175zM45 699h496v-149h-319v-131h233v-139h-233v-131h319v-149h-496v699z" />
    <glyph glyph-name="Edieresis" unicode="&#xcb;" horiz-adv-x="566" 
d="M125 774q-23 22 -23 54t23 55t55 23q31 0 53.5 -23t22.5 -55t-22 -54t-54 -22t-55 22zM361 774q-23 22 -23 54t23 55t55 23q31 0 53.5 -23t22.5 -55t-22.5 -54t-53.5 -22q-32 0 -55 22zM45 699h496v-149h-319v-131h233v-139h-233v-131h319v-149h-496v699z" />
    <glyph glyph-name="Igrave" unicode="&#xcc;" horiz-adv-x="267" 
d="M-36 920h185l69 -178h-163zM45 699h177v-699h-177v699z" />
    <glyph glyph-name="Iacute" unicode="&#xcd;" horiz-adv-x="267" 
d="M118 920h185l-91 -178h-163zM45 699h177v-699h-177v699z" />
    <glyph glyph-name="Icircumflex" unicode="&#xce;" horiz-adv-x="267" 
d="M55 923h157l156 -181h-174l-60 85l-60 -85h-175zM45 699h177v-699h-177v699z" />
    <glyph glyph-name="Idieresis" unicode="&#xcf;" horiz-adv-x="267" 
d="M-39 774q-23 22 -23 54t23 55t55 23q31 0 53.5 -23t22.5 -55t-22 -54t-54 -22t-55 22zM197 774q-23 22 -23 54t23 55t55 23q31 0 53.5 -23t22.5 -55t-22.5 -54t-53.5 -22q-32 0 -55 22zM45 699h177v-699h-177v699z" />
    <glyph glyph-name="Eth" unicode="&#xd0;" horiz-adv-x="742" 
d="M86 283h-51v132h51v284h251q115 0 201 -42t132.5 -120.5t46.5 -183.5q0 -174 -102 -263.5t-283 -89.5h-246v283zM347 149q91 0 139.5 55t48.5 149q0 86 -48.5 141.5t-133.5 55.5h-90v-135h143v-132h-143v-134h84z" />
    <glyph glyph-name="Ntilde" unicode="&#xd1;" horiz-adv-x="699" 
d="M155 870q35 42 105 42q22 0 44 -6t57 -19q30 -12 52 -18.5t44 -6.5q63 0 105 50v-128q-34 -41 -105 -41q-25 0 -49 6.5t-56 19.5q-32 12 -51.5 18t-40.5 6q-62 0 -105 -51v128zM45 699h175l257 -416v416h177v-699h-174l-258 417v-417h-177v699z" />
    <glyph glyph-name="Ograve" unicode="&#xd2;" horiz-adv-x="800" 
d="M249 920h185l69 -178h-163zM209.5 31q-85.5 46 -135 128.5t-49.5 189.5t49.5 190t135 129t191.5 46q105 0 190.5 -46t134.5 -129t49 -190t-49 -189.5t-134.5 -128.5t-190.5 -46q-106 0 -191.5 46zM498 175q44 24 70 69t26 105t-25.5 104.5t-69.5 69t-98 24.5
q-55 0 -99 -24.5t-69.5 -69t-25.5 -104.5t25.5 -105t70 -69t98.5 -24q53 0 97 24z" />
    <glyph glyph-name="Oacute" unicode="&#xd3;" horiz-adv-x="800" 
d="M386 920h185l-91 -178h-163zM209.5 31q-85.5 46 -135 128.5t-49.5 189.5t49.5 190t135 129t191.5 46q105 0 190.5 -46t134.5 -129t49 -190t-49 -189.5t-134.5 -128.5t-190.5 -46q-106 0 -191.5 46zM498 175q44 24 70 69t26 105t-25.5 104.5t-69.5 69t-98 24.5
q-55 0 -99 -24.5t-69.5 -69t-25.5 -104.5t25.5 -105t70 -69t98.5 -24q53 0 97 24z" />
    <glyph glyph-name="Ocircumflex" unicode="&#xd4;" horiz-adv-x="800" 
d="M322 923h157l156 -181h-174l-60 85l-60 -85h-175zM209.5 31q-85.5 46 -135 128.5t-49.5 189.5t49.5 190t135 129t191.5 46q105 0 190.5 -46t134.5 -129t49 -190t-49 -189.5t-134.5 -128.5t-190.5 -46q-106 0 -191.5 46zM498 175q44 24 70 69t26 105t-25.5 104.5t-69.5 69
t-98 24.5q-55 0 -99 -24.5t-69.5 -69t-25.5 -104.5t25.5 -105t70 -69t98.5 -24q53 0 97 24z" />
    <glyph glyph-name="Otilde" unicode="&#xd5;" horiz-adv-x="800" 
d="M197 870q35 42 105 42q22 0 44 -6t57 -19q30 -12 52 -18.5t44 -6.5q63 0 105 50v-128q-34 -41 -105 -41q-25 0 -49 6.5t-56 19.5q-32 12 -51.5 18t-40.5 6q-62 0 -105 -51v128zM209.5 31q-85.5 46 -135 128.5t-49.5 189.5t49.5 190t135 129t191.5 46q105 0 190.5 -46
t134.5 -129t49 -190t-49 -189.5t-134.5 -128.5t-190.5 -46q-106 0 -191.5 46zM498 175q44 24 70 69t26 105t-25.5 104.5t-69.5 69t-98 24.5q-55 0 -99 -24.5t-69.5 -69t-25.5 -104.5t25.5 -105t70 -69t98.5 -24q53 0 97 24z" />
    <glyph glyph-name="Odieresis" unicode="&#xd6;" horiz-adv-x="800" 
d="M228 769q-23 22 -23 54t23 55t55 23q31 0 53.5 -23t22.5 -55t-22 -54t-54 -22t-55 22zM464 769q-23 22 -23 54t23 55t55 23q31 0 53.5 -23t22.5 -55t-22.5 -54t-53.5 -22q-32 0 -55 22zM209.5 31q-85.5 46 -135 128.5t-49.5 189.5t49.5 190t135 129t191.5 46
q105 0 190.5 -46t134.5 -129t49 -190t-49 -189.5t-134.5 -128.5t-190.5 -46q-106 0 -191.5 46zM498 175q44 24 70 69t26 105t-25.5 104.5t-69.5 69t-98 24.5q-55 0 -99 -24.5t-69.5 -69t-25.5 -104.5t25.5 -105t70 -69t98.5 -24q53 0 97 24z" />
    <glyph glyph-name="multiply" unicode="&#xd7;" horiz-adv-x="401" 
d="M200 210l-75 -75l-99 99l75 75l-76 77l100 99l75 -76l77 77l99 -100l-76 -76l76 -76l-99 -100z" />
    <glyph glyph-name="Oslash" unicode="&#xd8;" horiz-adv-x="800" 
d="M210 30q-86 46 -135.5 129t-49.5 190t49.5 190t135 129t191.5 46q39 0 81 -8l31 78h122l-46 -115q86 -45 136 -128.5t50 -191.5q0 -107 -49 -189.5t-134.5 -128.5t-190.5 -46q-41 0 -84 8l-32 -79h-122zM417 546q-5 1 -16 1q-55 0 -99 -24.5t-69.5 -69t-25.5 -104.5
q0 -51 18 -90.5t50 -65.5zM498 175q44 24 70 69t26 105q0 50 -19 90.5t-52 66.5l-142 -354q6 -1 20 -1q53 0 97 24z" />
    <glyph glyph-name="Ugrave" unicode="&#xd9;" horiz-adv-x="715" 
d="M205 920h185l69 -178h-163zM120 69.5q-80 84.5 -80 223.5v406h177v-408q0 -70 37.5 -106t103.5 -36t103 36t37 106v408h177v-406q0 -140 -79.5 -224t-237.5 -84t-238 84.5z" />
    <glyph glyph-name="Uacute" unicode="&#xda;" horiz-adv-x="715" 
d="M351 920h185l-91 -178h-163zM120 69.5q-80 84.5 -80 223.5v406h177v-408q0 -70 37.5 -106t103.5 -36t103 36t37 106v408h177v-406q0 -140 -79.5 -224t-237.5 -84t-238 84.5z" />
    <glyph glyph-name="Ucircumflex" unicode="&#xdb;" horiz-adv-x="715" 
d="M279 923h157l156 -181h-174l-60 85l-60 -85h-175zM120 69.5q-80 84.5 -80 223.5v406h177v-408q0 -70 37.5 -106t103.5 -36t103 36t37 106v408h177v-406q0 -140 -79.5 -224t-237.5 -84t-238 84.5z" />
    <glyph glyph-name="Udieresis" unicode="&#xdc;" horiz-adv-x="715" 
d="M185 769q-23 22 -23 54t23 55t55 23q31 0 53.5 -23t22.5 -55t-22 -54t-54 -22t-55 22zM421 769q-23 22 -23 54t23 55t55 23q31 0 53.5 -23t22.5 -55t-22.5 -54t-53.5 -22q-32 0 -55 22zM120 69.5q-80 84.5 -80 223.5v406h177v-408q0 -70 37.5 -106t103.5 -36t103 36
t37 106v408h177v-406q0 -140 -79.5 -224t-237.5 -84t-238 84.5z" />
    <glyph glyph-name="Yacute" unicode="&#xdd;" horiz-adv-x="750" 
d="M348 920h185l-91 -178h-163zM283 266l-258 433h189l158 -271l165 271h188l-265 -433v-266h-177v266z" />
    <glyph glyph-name="Thorn" unicode="&#xde;" horiz-adv-x="636" 
d="M45 699h177v-111h135q123 0 193.5 -60t70.5 -176q0 -117 -70 -176.5t-194 -59.5h-135v-116h-177v699zM325 265q55 0 84.5 18t29.5 69t-29.5 69t-84.5 18h-103v-174h103z" />
    <glyph glyph-name="germandbls" unicode="&#xdf;" horiz-adv-x="648" 
d="M269 3v146q31 -20 86 -20q43 0 66 26t23 69q0 91 -103 91h-53v122h43q40 0 59 24t19 63q0 36 -23 56t-66 20q-49 0 -76.5 -23t-27.5 -68v-509h-176v489q0 119 72 187t207 68q95 0 155 -32t87 -82.5t27 -108.5q0 -46 -19.5 -84.5t-56.5 -59.5q111 -42 111 -169
q0 -106 -57.5 -164.5t-170.5 -58.5q-83 0 -126 18z" />
    <glyph glyph-name="agrave" unicode="&#xe0;" horiz-adv-x="593" 
d="M170 696h185l69 -178h-163zM80.5 28.5q-55.5 43.5 -55.5 121.5q0 81 53.5 124.5t153.5 43.5q39 0 78 -8.5t67 -22.5v10q0 77 -126 77q-88 0 -161 -34v121q32 15 84 24.5t108 9.5q134 0 202.5 -53.5t68.5 -149.5v-292h-165v41q-27 -26 -68 -41t-94 -15q-90 0 -145.5 43.5z
M336 105.5q27 12.5 41 32.5v42q-43 29 -98 29q-35 0 -54 -15t-19 -44q0 -27 18.5 -42t53.5 -15q31 0 58 12.5z" />
    <glyph glyph-name="aacute" unicode="&#xe1;" horiz-adv-x="593" 
d="M289 696h185l-91 -178h-163zM80.5 28.5q-55.5 43.5 -55.5 121.5q0 81 53.5 124.5t153.5 43.5q39 0 78 -8.5t67 -22.5v10q0 77 -126 77q-88 0 -161 -34v121q32 15 84 24.5t108 9.5q134 0 202.5 -53.5t68.5 -149.5v-292h-165v41q-27 -26 -68 -41t-94 -15q-90 0 -145.5 43.5
zM336 105.5q27 12.5 41 32.5v42q-43 29 -98 29q-35 0 -54 -15t-19 -44q0 -27 18.5 -42t53.5 -15q31 0 58 12.5z" />
    <glyph glyph-name="acircumflex" unicode="&#xe2;" horiz-adv-x="594" 
d="M241 706h157l156 -181h-174l-60 85l-60 -85h-175zM80.5 28.5q-55.5 43.5 -55.5 121.5q0 81 53.5 124.5t153.5 43.5q39 0 78 -8.5t67 -22.5v10q0 77 -126 77q-88 0 -161 -34v121q32 15 84 24.5t108 9.5q134 0 202.5 -53.5t68.5 -149.5v-292h-165v41q-27 -26 -68 -41
t-94 -15q-90 0 -145.5 43.5zM336 105.5q27 12.5 41 32.5v42q-43 29 -98 29q-35 0 -54 -15t-19 -44q0 -27 18.5 -42t53.5 -15q31 0 58 12.5z" />
    <glyph glyph-name="atilde" unicode="&#xe3;" horiz-adv-x="593" 
d="M125 653q35 42 105 42q22 0 44 -6t57 -19q30 -12 52 -18.5t44 -6.5q63 0 105 50v-128q-34 -41 -105 -41q-25 0 -49 6.5t-56 19.5q-32 12 -51.5 18t-40.5 6q-62 0 -105 -51v128zM80.5 28.5q-55.5 43.5 -55.5 121.5q0 81 53.5 124.5t153.5 43.5q39 0 78 -8.5t67 -22.5v10
q0 77 -126 77q-88 0 -161 -34v121q32 15 84 24.5t108 9.5q134 0 202.5 -53.5t68.5 -149.5v-292h-165v41q-27 -26 -68 -41t-94 -15q-90 0 -145.5 43.5zM336 105.5q27 12.5 41 32.5v42q-43 29 -98 29q-35 0 -54 -15t-19 -44q0 -27 18.5 -42t53.5 -15q31 0 58 12.5z" />
    <glyph glyph-name="adieresis" unicode="&#xe4;" horiz-adv-x="593" 
d="M139 543q-23 22 -23 54t23 55t55 23q31 0 53.5 -23t22.5 -55t-22 -54t-54 -22t-55 22zM375 543q-23 22 -23 54t23 55t55 23q31 0 53.5 -23t22.5 -55t-22.5 -54t-53.5 -22q-32 0 -55 22zM80.5 28.5q-55.5 43.5 -55.5 121.5q0 81 53.5 124.5t153.5 43.5q39 0 78 -8.5
t67 -22.5v10q0 77 -126 77q-88 0 -161 -34v121q32 15 84 24.5t108 9.5q134 0 202.5 -53.5t68.5 -149.5v-292h-165v41q-27 -26 -68 -41t-94 -15q-90 0 -145.5 43.5zM336 105.5q27 12.5 41 32.5v42q-43 29 -98 29q-35 0 -54 -15t-19 -44q0 -27 18.5 -42t53.5 -15q31 0 58 12.5
z" />
    <glyph glyph-name="aring" unicode="&#xe5;" horiz-adv-x="593" 
d="M251.5 543.5q-32.5 18.5 -51.5 50.5t-19 70t19 70.5t51.5 51t70.5 18.5t71 -18.5t52 -51t19 -70.5t-19 -70t-52 -50.5t-71 -18.5t-70.5 18.5zM354.5 631.5q13.5 13.5 13.5 32.5q0 20 -13 33t-33 13q-19 0 -32.5 -13.5t-13.5 -32.5t13.5 -32.5t32.5 -13.5t32.5 13.5z
M80.5 28.5q-55.5 43.5 -55.5 121.5q0 81 53.5 124.5t153.5 43.5q39 0 78 -8.5t67 -22.5v10q0 77 -126 77q-88 0 -161 -34v121q32 15 84 24.5t108 9.5q134 0 202.5 -53.5t68.5 -149.5v-292h-165v41q-27 -26 -68 -41t-94 -15q-90 0 -145.5 43.5zM336 105.5q27 12.5 41 32.5v42
q-43 29 -98 29q-35 0 -54 -15t-19 -44q0 -27 18.5 -42t53.5 -15q31 0 58 12.5z" />
    <glyph glyph-name="ae" unicode="&#xe6;" horiz-adv-x="960" 
d="M83.5 28q-58.5 43 -58.5 122q0 80 55 124t152 44q39 0 78 -8.5t67 -22.5v10q0 77 -126 77q-88 0 -161 -34v121q32 15 84 24.5t108 9.5q120 0 192 -61q35 29 83.5 45t105.5 16q86 0 147.5 -32.5t93 -89t31.5 -127.5v-61h-382q21 -80 158 -80q47 0 96.5 8t85.5 22v-116
q-37 -15 -91 -24.5t-111 -9.5q-68 0 -124 18.5t-95 53.5q-44 -35 -98.5 -53.5t-133.5 -18.5q-98 0 -156.5 43zM769 289q-4 40 -32 62.5t-77 22.5q-48 0 -75.5 -23t-31.5 -62h216zM335.5 104.5q26.5 11.5 41.5 31.5v44q-43 29 -98 29q-35 0 -54 -15t-19 -44q0 -27 18.5 -42
t53.5 -15q31 0 57.5 11.5z" />
    <glyph glyph-name="ccedilla" unicode="&#xe7;" horiz-adv-x="539" 
d="M401 -8l-15 -38q44 -7 66.5 -29.5t22.5 -65.5q0 -53 -43 -80t-117 -27q-34 0 -65.5 4t-47.5 10v85q26 -14 61 -14q24 0 37 9t13 25q0 19 -22.5 29.5t-75.5 10.5l30 79q-103 15 -161.5 79t-58.5 170q0 122 77.5 189t209.5 67q59 0 110.5 -11.5t85.5 -32.5v-137
q-61 44 -161 44q-64 0 -102.5 -29.5t-38.5 -89.5q0 -61 38 -89.5t102 -28.5q97 0 168 46v-136q-45 -27 -113 -39z" />
    <glyph glyph-name="egrave" unicode="&#xe8;" horiz-adv-x="600" 
d="M156 696h185l69 -178h-163zM105.5 51q-80.5 66 -80.5 187q0 119 71.5 188t206.5 69q86 0 147.5 -32.5t93 -89t31.5 -127.5v-65h-383q10 -40 50 -58t109 -18q47 0 96.5 8t85.5 22v-116q-37 -15 -92.5 -24.5t-113.5 -9.5q-141 0 -221.5 66zM409 291q-4 39 -32 61t-77 22
q-48 0 -76 -22.5t-32 -60.5h217z" />
    <glyph glyph-name="eacute" unicode="&#xe9;" horiz-adv-x="600" 
d="M290 696h185l-91 -178h-163zM105.5 51q-80.5 66 -80.5 187q0 119 71.5 188t206.5 69q86 0 147.5 -32.5t93 -89t31.5 -127.5v-65h-383q10 -40 50 -58t109 -18q47 0 96.5 8t85.5 22v-116q-37 -15 -92.5 -24.5t-113.5 -9.5q-141 0 -221.5 66zM409 291q-4 39 -32 61t-77 22
q-48 0 -76 -22.5t-32 -60.5h217z" />
    <glyph glyph-name="ecircumflex" unicode="&#xea;" horiz-adv-x="618" 
d="M247 706h157l156 -181h-174l-60 85l-60 -85h-175zM123.5 51q-80.5 66 -80.5 187q0 119 71.5 188t206.5 69q86 0 147.5 -32.5t93 -89t31.5 -127.5v-65h-383q10 -40 50 -58t109 -18q47 0 96.5 8t85.5 22v-116q-37 -15 -92.5 -24.5t-113.5 -9.5q-141 0 -221.5 66zM427 291
q-4 39 -32 61t-77 22q-48 0 -76 -22.5t-32 -60.5h217z" />
    <glyph glyph-name="edieresis" unicode="&#xeb;" horiz-adv-x="600" 
d="M139 548q-23 22 -23 54t23 55t55 23q31 0 53.5 -23t22.5 -55t-22 -54t-54 -22t-55 22zM375 548q-23 22 -23 54t23 55t55 23q31 0 53.5 -23t22.5 -55t-22.5 -54t-53.5 -22q-32 0 -55 22zM105.5 51q-80.5 66 -80.5 187q0 119 71.5 188t206.5 69q86 0 147.5 -32.5t93 -89
t31.5 -127.5v-65h-383q10 -40 50 -58t109 -18q47 0 96.5 8t85.5 22v-116q-37 -15 -92.5 -24.5t-113.5 -9.5q-141 0 -221.5 66zM409 291q-4 39 -32 61t-77 22q-48 0 -76 -22.5t-32 -60.5h217z" />
    <glyph glyph-name="igrave" unicode="&#xec;" horiz-adv-x="266" 
d="M-35 696h185l69 -178h-163zM45 480h176v-480h-176v480z" />
    <glyph glyph-name="iacute" unicode="&#xed;" horiz-adv-x="266" 
d="M115 696h185l-91 -178h-163zM45 480h176v-480h-176v480z" />
    <glyph glyph-name="icircumflex" unicode="&#xee;" horiz-adv-x="266" 
d="M55 706h157l156 -181h-174l-60 85l-60 -85h-175zM45 480h176v-480h-176v480z" />
    <glyph glyph-name="idieresis" unicode="&#xef;" horiz-adv-x="266" 
d="M-39 548q-23 22 -23 54t23 55t55 23q31 0 53.5 -23t22.5 -55t-22 -54t-54 -22t-55 22zM197 548q-23 22 -23 54t23 55t55 23q31 0 53.5 -23t22.5 -55t-22.5 -54t-53.5 -22q-32 0 -55 22zM45 480h176v-480h-176v480z" />
    <glyph glyph-name="eth" unicode="&#xf0;" horiz-adv-x="628" 
d="M150 16q-63 31 -94 85.5t-31 124.5q0 110 70 170.5t187 60.5q42 0 82 -12t66 -34q-8 86 -50 129l-124 -66v70l60 32q-23 5 -45 5q-37 0 -72.5 -6.5t-59.5 -18.5v139q25 8 63 13.5t72 5.5q116 0 195 -57l116 62v-69l-69 -37q87 -101 87 -287q0 -105 -37 -182t-104.5 -118
t-156.5 -41q-92 0 -155 31zM384 148q27 30 27 74q0 47 -28 75t-72 28q-47 0 -74 -27.5t-27 -75.5t27 -76t74 -28q46 0 73 30z" />
    <glyph glyph-name="ntilde" unicode="&#xf1;" horiz-adv-x="620" 
d="M113 654q35 42 105 42q22 0 44 -6t57 -19q30 -12 52 -18.5t44 -6.5q63 0 105 50v-128q-34 -41 -105 -41q-25 0 -49 6.5t-56 19.5q-32 12 -51.5 18t-40.5 6q-62 0 -105 -51v128zM45 480h170v-53q31 34 75 51t92 17q101 0 149.5 -52.5t48.5 -142.5v-300h-176v277
q0 81 -74 81q-34 0 -62 -15.5t-47 -47.5v-295h-176v480z" />
    <glyph glyph-name="ograve" unicode="&#xf2;" horiz-adv-x="642" 
d="M164 696h185l69 -178h-163zM165 17.5q-67 32.5 -103.5 90t-36.5 132.5t36.5 132.5t103.5 90t156 32.5t156 -32.5t103.5 -90t36.5 -132.5t-36.5 -132.5t-103.5 -90t-156 -32.5t-156 32.5zM405.5 153.5q31.5 31.5 31.5 86.5t-31.5 86.5t-84.5 31.5t-84.5 -31.5t-31.5 -86.5
t31.5 -86.5t84.5 -31.5t84.5 31.5z" />
    <glyph glyph-name="oacute" unicode="&#xf3;" horiz-adv-x="642" 
d="M312 696h185l-91 -178h-163zM165 17.5q-67 32.5 -103.5 90t-36.5 132.5t36.5 132.5t103.5 90t156 32.5t156 -32.5t103.5 -90t36.5 -132.5t-36.5 -132.5t-103.5 -90t-156 -32.5t-156 32.5zM405.5 153.5q31.5 31.5 31.5 86.5t-31.5 86.5t-84.5 31.5t-84.5 -31.5
t-31.5 -86.5t31.5 -86.5t84.5 -31.5t84.5 31.5z" />
    <glyph glyph-name="ocircumflex" unicode="&#xf4;" horiz-adv-x="642" 
d="M244 706h157l156 -181h-174l-60 85l-60 -85h-175zM165 17.5q-67 32.5 -103.5 90t-36.5 132.5t36.5 132.5t103.5 90t156 32.5t156 -32.5t103.5 -90t36.5 -132.5t-36.5 -132.5t-103.5 -90t-156 -32.5t-156 32.5zM405.5 153.5q31.5 31.5 31.5 86.5t-31.5 86.5t-84.5 31.5
t-84.5 -31.5t-31.5 -86.5t31.5 -86.5t84.5 -31.5t84.5 31.5z" />
    <glyph glyph-name="otilde" unicode="&#xf5;" horiz-adv-x="642" 
d="M119 660q35 42 105 42q22 0 44 -6t57 -19q30 -12 52 -18.5t44 -6.5q63 0 105 50v-128q-34 -41 -105 -41q-25 0 -49 6.5t-56 19.5q-32 12 -51.5 18t-40.5 6q-62 0 -105 -51v128zM165 17.5q-67 32.5 -103.5 90t-36.5 132.5t36.5 132.5t103.5 90t156 32.5t156 -32.5
t103.5 -90t36.5 -132.5t-36.5 -132.5t-103.5 -90t-156 -32.5t-156 32.5zM405.5 153.5q31.5 31.5 31.5 86.5t-31.5 86.5t-84.5 31.5t-84.5 -31.5t-31.5 -86.5t31.5 -86.5t84.5 -31.5t84.5 31.5z" />
    <glyph glyph-name="odieresis" unicode="&#xf6;" horiz-adv-x="642" 
d="M150 548q-23 22 -23 54t23 55t55 23q31 0 53.5 -23t22.5 -55t-22 -54t-54 -22t-55 22zM386 548q-23 22 -23 54t23 55t55 23q31 0 53.5 -23t22.5 -55t-22.5 -54t-53.5 -22q-32 0 -55 22zM165 17.5q-67 32.5 -103.5 90t-36.5 132.5t36.5 132.5t103.5 90t156 32.5t156 -32.5
t103.5 -90t36.5 -132.5t-36.5 -132.5t-103.5 -90t-156 -32.5t-156 32.5zM405.5 153.5q31.5 31.5 31.5 86.5t-31.5 86.5t-84.5 31.5t-84.5 -31.5t-31.5 -86.5t31.5 -86.5t84.5 -31.5t84.5 31.5z" />
    <glyph glyph-name="divide" unicode="&#xf7;" horiz-adv-x="406" 
d="M154 421q-19 19 -19 46q0 28 19 47.5t47 19.5t47 -19.5t19 -47.5q0 -27 -19 -46t-47 -19t-47 19zM25 373h356v-140h-356v140zM154 90q-19 19 -19 46q0 28 19 47.5t47 19.5t47 -19.5t19 -47.5q0 -27 -19 -46t-47 -19t-47 19z" />
    <glyph glyph-name="oslash" unicode="&#xf8;" horiz-adv-x="642" 
d="M171 14q-69 31 -107.5 90t-38.5 136q0 75 36.5 132.5t103.5 90t156 32.5q16 0 42 -2l30 73h115l-40 -99q71 -31 110 -90.5t39 -136.5q0 -75 -36.5 -132.5t-103.5 -90t-156 -32.5q-16 0 -46 2l-29 -73h-115zM309 357q-48 -4 -76 -35t-28 -82q0 -49 25 -80zM408.5 156.5
q28.5 31.5 28.5 83.5q0 50 -27 82l-80 -200q50 3 78.5 34.5z" />
    <glyph glyph-name="ugrave" unicode="&#xf9;" horiz-adv-x="620" 
d="M158 696h185l69 -178h-163zM89.5 40q-49.5 55 -49.5 145v295h176v-275q0 -83 75 -83q34 0 62 16t46 47v295h176v-480h-170v52q-31 -33 -75 -50t-92 -17q-99 0 -148.5 55z" />
    <glyph glyph-name="uacute" unicode="&#xfa;" horiz-adv-x="620" 
d="M294 696h185l-91 -178h-163zM89.5 40q-49.5 55 -49.5 145v295h176v-275q0 -83 75 -83q34 0 62 16t46 47v295h176v-480h-170v52q-31 -33 -75 -50t-92 -17q-99 0 -148.5 55z" />
    <glyph glyph-name="ucircumflex" unicode="&#xfb;" horiz-adv-x="620" 
d="M232 706h157l156 -181h-174l-60 85l-60 -85h-175zM89.5 40q-49.5 55 -49.5 145v295h176v-275q0 -83 75 -83q34 0 62 16t46 47v295h176v-480h-170v52q-31 -33 -75 -50t-92 -17q-99 0 -148.5 55z" />
    <glyph glyph-name="udieresis" unicode="&#xfc;" horiz-adv-x="620" 
d="M139 548q-23 22 -23 54t23 55t55 23q31 0 53.5 -23t22.5 -55t-22 -54t-54 -22t-55 22zM375 548q-23 22 -23 54t23 55t55 23q31 0 53.5 -23t22.5 -55t-22.5 -54t-53.5 -22q-32 0 -55 22zM89.5 40q-49.5 55 -49.5 145v295h176v-275q0 -83 75 -83q34 0 62 16t46 47v295h176
v-480h-170v52q-31 -33 -75 -50t-92 -17q-99 0 -148.5 55z" />
    <glyph glyph-name="yacute" unicode="&#xfd;" horiz-adv-x="625" 
d="M303 698h185l-91 -178h-163zM126 -193.5q-35 4.5 -52 12.5v131q29 -12 66 -12q33 0 51.5 14.5t29.5 45.5l12 32l-208 450h176l125 -312l118 312h176l-198 -502q-35 -90 -89.5 -133t-139.5 -43q-32 0 -67 4.5z" />
    <glyph glyph-name="thorn" unicode="&#xfe;" horiz-adv-x="665" 
d="M45 699h176v-258q29 25 72.5 39.5t91.5 14.5q75 0 133 -31.5t90 -89t32 -133.5q0 -75 -32 -133.5t-89.5 -90.5t-133.5 -32q-48 0 -91.5 14.5t-72.5 39.5v-258h-176v918zM426 154q33 32 33 87t-33 86.5t-87 31.5q-40 0 -72 -20.5t-46 -55.5v-85q14 -35 46 -55.5t72 -20.5
q54 0 87 32z" />
    <glyph glyph-name="ydieresis" unicode="&#xff;" horiz-adv-x="625" 
d="M157 548q-23 22 -23 54t23 55t55 23q31 0 53.5 -23t22.5 -55t-22 -54t-54 -22t-55 22zM393 548q-23 22 -23 54t23 55t55 23q31 0 53.5 -23t22.5 -55t-22.5 -54t-53.5 -22q-32 0 -55 22zM126 -193.5q-35 4.5 -52 12.5v131q29 -12 66 -12q33 0 51.5 14.5t29.5 45.5l12 32
l-208 450h176l125 -312l118 312h176l-198 -502q-35 -90 -89.5 -133t-139.5 -43q-32 0 -67 4.5z" />
    <glyph glyph-name="Amacron" unicode="&#x100;" horiz-adv-x="783" 
d="M220 865h345v-113h-345v113zM305 699h174l279 -699h-181l-56 144h-258l-56 -144h-182zM477 280l-85 235l-86 -235h171z" />
    <glyph glyph-name="amacron" unicode="&#x101;" horiz-adv-x="593" 
d="M145 639h345v-113h-345v113zM80.5 28.5q-55.5 43.5 -55.5 121.5q0 81 53.5 124.5t153.5 43.5q39 0 78 -8.5t67 -22.5v10q0 77 -126 77q-88 0 -161 -34v121q32 15 84 24.5t108 9.5q134 0 202.5 -53.5t68.5 -149.5v-292h-165v41q-27 -26 -68 -41t-94 -15q-90 0 -145.5 43.5
zM336 105.5q27 12.5 41 32.5v42q-43 29 -98 29q-35 0 -54 -15t-19 -44q0 -27 18.5 -42t53.5 -15q31 0 58 12.5z" />
    <glyph glyph-name="Abreve" unicode="&#x102;" horiz-adv-x="783" 
d="M257 788.5q-48 46.5 -48 126.5h131q0 -62 52 -62q25 0 38.5 16t13.5 46h131q0 -80 -48 -126.5t-135 -46.5t-135 46.5zM305 699h174l279 -699h-181l-56 144h-258l-56 -144h-182zM477 280l-85 235l-86 -235h171z" />
    <glyph glyph-name="abreve" unicode="&#x103;" horiz-adv-x="593" 
d="M193 571.5q-48 46.5 -48 126.5h131q0 -62 52 -62q25 0 38.5 16t13.5 46h131q0 -80 -48 -126.5t-135 -46.5t-135 46.5zM80.5 28.5q-55.5 43.5 -55.5 121.5q0 81 53.5 124.5t153.5 43.5q39 0 78 -8.5t67 -22.5v10q0 77 -126 77q-88 0 -161 -34v121q32 15 84 24.5t108 9.5
q134 0 202.5 -53.5t68.5 -149.5v-292h-165v41q-27 -26 -68 -41t-94 -15q-90 0 -145.5 43.5zM336 105.5q27 12.5 41 32.5v42q-43 29 -98 29q-35 0 -54 -15t-19 -44q0 -27 18.5 -42t53.5 -15q31 0 58 12.5z" />
    <glyph glyph-name="Aogonek" unicode="&#x104;" horiz-adv-x="783" 
d="M671 -108q9 -9 25 -9q26 0 48 12v-96q-43 -15 -103 -15q-58 0 -94.5 24t-36.5 73q0 38 19 68.5t52 50.5h-4l-56 144h-258l-56 -144h-182l280 699h174l279 -699h-17q-41 -22 -60 -42t-19 -42q0 -15 9 -24zM477 280l-85 235l-86 -235h171z" />
    <glyph glyph-name="aogonek" unicode="&#x105;" horiz-adv-x="603" 
d="M563 -105v-96q-43 -15 -103 -15q-58 0 -94.5 24t-36.5 73q0 38 19 68.5t52 50.5h-12v41q-27 -26 -68 -41t-94 -15q-90 0 -145.5 43.5t-55.5 121.5q0 81 53.5 124.5t153.5 43.5q39 0 78 -8.5t67 -22.5v10q0 77 -126 77q-88 0 -161 -34v121q32 15 84 24.5t108 9.5
q134 0 202.5 -53.5t68.5 -149.5v-292h7q-41 -22 -60 -42t-19 -42q0 -15 9 -24t25 -9q26 0 48 12zM377 180q-43 29 -98 29q-35 0 -54 -15t-19 -44q0 -27 18.5 -42t53.5 -15q31 0 58 12.5t41 32.5v42z" />
    <glyph glyph-name="Cacute" unicode="&#x106;" horiz-adv-x="682" 
d="M391 920h185l-91 -178h-163zM205.5 29q-86.5 44 -133.5 126.5t-47 193.5t47 193.5t133.5 127t200.5 44.5q75 0 134 -15t109 -47v-168q-44 35 -99.5 51t-127.5 16q-103 0 -159 -53.5t-56 -148.5t56.5 -149t158.5 -54q72 0 129 17t106 54v-167q-95 -65 -251 -65
q-114 0 -200.5 44z" />
    <glyph glyph-name="cacute" unicode="&#x107;" horiz-adv-x="539" 
d="M303 696h185l-91 -178h-163zM102 51q-77 66 -77 188t77.5 189t209.5 67q59 0 110.5 -11.5t85.5 -32.5v-137q-61 44 -161 44q-64 0 -102.5 -29.5t-38.5 -89.5q0 -61 38 -89.5t102 -28.5q97 0 168 46v-136q-76 -46 -203 -46q-132 0 -209 66z" />
    <glyph glyph-name="Ccircumflex" unicode="&#x108;" horiz-adv-x="682" 
d="M313 923h157l156 -181h-174l-60 85l-60 -85h-175zM205.5 29q-86.5 44 -133.5 126.5t-47 193.5t47 193.5t133.5 127t200.5 44.5q75 0 134 -15t109 -47v-168q-44 35 -99.5 51t-127.5 16q-103 0 -159 -53.5t-56 -148.5t56.5 -149t158.5 -54q72 0 129 17t106 54v-167
q-95 -65 -251 -65q-114 0 -200.5 44z" />
    <glyph glyph-name="ccircumflex" unicode="&#x109;" horiz-adv-x="529" 
d="M234 706h157l156 -181h-174l-60 85l-60 -85h-175zM102 51q-77 66 -77 188t77.5 189t209.5 67q59 0 110.5 -11.5t85.5 -32.5v-137q-61 44 -161 44q-64 0 -102.5 -29.5t-38.5 -89.5q0 -61 38 -89.5t102 -28.5q97 0 168 46v-136q-76 -46 -203 -46q-132 0 -209 66z" />
    <glyph glyph-name="Cdotaccent" unicode="&#x10a;" horiz-adv-x="682" 
d="M356 774q-23 22 -23 54t23 55t55 23q31 0 53.5 -23t22.5 -55t-22 -54t-54 -22t-55 22zM205.5 29q-86.5 44 -133.5 126.5t-47 193.5t47 193.5t133.5 127t200.5 44.5q75 0 134 -15t109 -47v-168q-44 35 -99.5 51t-127.5 16q-103 0 -159 -53.5t-56 -148.5t56.5 -149
t158.5 -54q72 0 129 17t106 54v-167q-95 -65 -251 -65q-114 0 -200.5 44z" />
    <glyph glyph-name="cdotaccent" unicode="&#x10b;" horiz-adv-x="539" 
d="M263 548q-23 22 -23 54t23 55t55 23q31 0 53.5 -23t22.5 -55t-22 -54t-54 -22t-55 22zM102 51q-77 66 -77 188t77.5 189t209.5 67q59 0 110.5 -11.5t85.5 -32.5v-137q-61 44 -161 44q-64 0 -102.5 -29.5t-38.5 -89.5q0 -61 38 -89.5t102 -28.5q97 0 168 46v-136
q-76 -46 -203 -46q-132 0 -209 66z" />
    <glyph glyph-name="Ccaron" unicode="&#x10c;" horiz-adv-x="669" 
d="M169 923h175l60 -85l60 85h174l-156 -181h-157zM205.5 29q-86.5 44 -133.5 126.5t-47 193.5t47 193.5t133.5 127t200.5 44.5q75 0 134 -15t109 -47v-168q-44 35 -99.5 51t-127.5 16q-103 0 -159 -53.5t-56 -148.5t56.5 -149t158.5 -54q72 0 129 17t106 54v-167
q-95 -65 -251 -65q-114 0 -200.5 44z" />
    <glyph glyph-name="ccaron" unicode="&#x10d;" horiz-adv-x="530" 
d="M69 706h175l60 -85l60 85h174l-156 -181h-157zM102 51q-77 66 -77 188t77.5 189t209.5 67q59 0 110.5 -11.5t85.5 -32.5v-137q-61 44 -161 44q-64 0 -102.5 -29.5t-38.5 -89.5q0 -61 38 -89.5t102 -28.5q97 0 168 46v-136q-76 -46 -203 -46q-132 0 -209 66z" />
    <glyph glyph-name="Dcaron" unicode="&#x10e;" horiz-adv-x="701" 
d="M90 923h175l60 -85l60 85h174l-156 -181h-157zM45 699h251q115 0 201 -42t132.5 -120.5t46.5 -183.5q0 -174 -102 -263.5t-283 -89.5h-246v699zM306 149q91 0 139.5 55t48.5 149q0 86 -48.5 141.5t-133.5 55.5h-90v-401h84z" />
    <glyph glyph-name="dcaron" unicode="&#x10f;" horiz-adv-x="635" 
d="M724 769h145l-98 -195h-129zM147 11.5q-58 31.5 -90 89t-32 134.5q0 75 32 133t89.5 90t133.5 32q50 0 94.5 -18t70.5 -48v310h175v-739h-169v58q-29 -34 -74.5 -53.5t-96.5 -19.5q-75 0 -133 31.5zM399 135.5q32 19.5 46 54.5v89q-14 35 -46 54.5t-73 19.5
q-53 0 -86 -31.5t-33 -87.5t33 -87t86 -31q41 0 73 19.5z" />
    <glyph glyph-name="Dcroat" unicode="&#x110;" horiz-adv-x="742" 
d="M86 283h-51v132h51v284h251q115 0 201 -42t132.5 -120.5t46.5 -183.5q0 -174 -102 -263.5t-283 -89.5h-246v283zM347 149q91 0 139.5 55t48.5 149q0 86 -48.5 141.5t-133.5 55.5h-90v-135h143v-132h-143v-134h84z" />
    <glyph glyph-name="dcroat" unicode="&#x111;" horiz-adv-x="687" 
d="M672 530h-52v-530h-170v48q-67 -63 -170 -63q-75 0 -133 31.5t-90 89t-32 133.5q0 75 32 133.5t89.5 90.5t133.5 32q50 0 92 -14t72 -40v89h-143v131h143v78h176v-78h52v-131zM444 282q-14 35 -46 55.5t-72 20.5q-54 0 -87 -32t-33 -87t33 -86.5t87 -31.5q40 0 72 20.5
t46 55.5v85z" />
    <glyph glyph-name="Emacron" unicode="&#x112;" horiz-adv-x="566" 
d="M138 865h345v-113h-345v113zM45 699h496v-149h-319v-131h233v-139h-233v-131h319v-149h-496v699z" />
    <glyph glyph-name="emacron" unicode="&#x113;" horiz-adv-x="600" 
d="M145 639h345v-113h-345v113zM105.5 51q-80.5 66 -80.5 187q0 119 71.5 188t206.5 69q86 0 147.5 -32.5t93 -89t31.5 -127.5v-65h-383q10 -40 50 -58t109 -18q47 0 96.5 8t85.5 22v-116q-37 -15 -92.5 -24.5t-113.5 -9.5q-141 0 -221.5 66zM409 291q-4 39 -32 61t-77 22
q-48 0 -76 -22.5t-32 -60.5h217z" />
    <glyph glyph-name="Ebreve" unicode="&#x114;" horiz-adv-x="566" 
d="M173 788.5q-48 46.5 -48 126.5h131q0 -62 52 -62q25 0 38.5 16t13.5 46h131q0 -80 -48 -126.5t-135 -46.5t-135 46.5zM45 699h496v-149h-319v-131h233v-139h-233v-131h319v-149h-496v699z" />
    <glyph glyph-name="ebreve" unicode="&#x115;" horiz-adv-x="600" 
d="M185 571.5q-48 46.5 -48 126.5h131q0 -62 52 -62q25 0 38.5 16t13.5 46h131q0 -80 -48 -126.5t-135 -46.5t-135 46.5zM105.5 51q-80.5 66 -80.5 187q0 119 71.5 188t206.5 69q86 0 147.5 -32.5t93 -89t31.5 -127.5v-65h-383q10 -40 50 -58t109 -18q47 0 96.5 8t85.5 22
v-116q-37 -15 -92.5 -24.5t-113.5 -9.5q-141 0 -221.5 66zM409 291q-4 39 -32 61t-77 22q-48 0 -76 -22.5t-32 -60.5h217z" />
    <glyph glyph-name="Edotaccent" unicode="&#x116;" horiz-adv-x="566" 
d="M252 774q-23 22 -23 54t23 55t55 23q31 0 53.5 -23t22.5 -55t-22 -54t-54 -22t-55 22zM45 699h496v-149h-319v-131h233v-139h-233v-131h319v-149h-496v699z" />
    <glyph glyph-name="edotaccent" unicode="&#x117;" horiz-adv-x="600" 
d="M257 548q-23 22 -23 54t23 55t55 23q31 0 53.5 -23t22.5 -55t-22 -54t-54 -22t-55 22zM105.5 51q-80.5 66 -80.5 187q0 119 71.5 188t206.5 69q86 0 147.5 -32.5t93 -89t31.5 -127.5v-65h-383q10 -40 50 -58t109 -18q47 0 96.5 8t85.5 22v-116q-37 -15 -92.5 -24.5
t-113.5 -9.5q-141 0 -221.5 66zM409 291q-4 39 -32 61t-77 22q-48 0 -76 -22.5t-32 -60.5h217z" />
    <glyph glyph-name="Eogonek" unicode="&#x118;" horiz-adv-x="575" 
d="M550 -105v-96q-43 -15 -103 -15q-58 0 -94.5 24t-36.5 73q0 38 19 68.5t52 50.5h-342v699h496v-149h-319v-131h233v-139h-233v-131h319v-149h6q-41 -22 -60 -42t-19 -42q0 -15 9 -24t25 -9q26 0 48 12z" />
    <glyph glyph-name="eogonek" unicode="&#x119;" horiz-adv-x="600" 
d="M575 181h-383q10 -40 50 -58t109 -18q47 0 96.5 8t85.5 22v-116q-29 -12 -63 -19q-41 -22 -60 -42t-19 -42q0 -15 9 -24t25 -9q26 0 48 12v-96q-43 -15 -103 -15q-58 0 -94.5 24t-36.5 73q0 32 13.5 59t37.5 46q-125 9 -195 74.5t-70 177.5q0 119 71.5 188t206.5 69
q86 0 147.5 -32.5t93 -89t31.5 -127.5v-65zM409 291q-4 39 -32 61t-77 22q-48 0 -76 -22.5t-32 -60.5h217z" />
    <glyph glyph-name="Ecaron" unicode="&#x11a;" horiz-adv-x="566" 
d="M71 923h175l60 -85l60 85h174l-156 -181h-157zM45 699h496v-149h-319v-131h233v-139h-233v-131h319v-149h-496v699z" />
    <glyph glyph-name="ecaron" unicode="&#x11b;" horiz-adv-x="621" 
d="M102 706h175l60 -85l60 85h174l-156 -181h-157zM126.5 51q-80.5 66 -80.5 187q0 119 71.5 188t206.5 69q86 0 147.5 -32.5t93 -89t31.5 -127.5v-65h-383q10 -40 50 -58t109 -18q47 0 96.5 8t85.5 22v-116q-37 -15 -92.5 -24.5t-113.5 -9.5q-141 0 -221.5 66zM430 291
q-4 39 -32 61t-77 22q-48 0 -76 -22.5t-32 -60.5h217z" />
    <glyph glyph-name="Gcircumflex" unicode="&#x11c;" horiz-adv-x="695" 
d="M318 923h157l156 -181h-174l-60 85l-60 -85h-175zM205.5 29q-86.5 44 -133.5 126.5t-47 193.5t47 193.5t133.5 127t200.5 44.5q76 0 134.5 -14.5t108.5 -46.5v-168q-44 35 -99.5 50.5t-127.5 15.5q-62 0 -110.5 -24.5t-76.5 -70.5t-28 -107q0 -95 55.5 -150t150.5 -55
q53 0 89 18v112h-107v124h275v-348q-107 -65 -264 -65q-114 0 -200.5 44z" />
    <glyph glyph-name="gcircumflex" unicode="&#x11d;" horiz-adv-x="665" 
d="M282 706h157l156 -181h-174l-60 85l-60 -85h-175zM209.5 -221q-48.5 9 -83.5 24v122q79 -34 180 -34q73 0 105.5 30t32.5 88v29q-29 -25 -71.5 -39t-90.5 -14q-76 0 -134 32t-90.5 90t-32.5 133q0 76 32 134t90 89.5t133 31.5q103 0 170 -63v48h170v-447
q0 -125 -76.5 -194t-237.5 -69q-48 0 -96.5 9zM399 142q32 21 45 56v84q-14 35 -46 55.5t-72 20.5q-54 0 -87 -31.5t-33 -85.5q0 -55 33 -87.5t87 -32.5q41 0 73 21z" />
    <glyph glyph-name="Gbreve" unicode="&#x11e;" horiz-adv-x="695" 
d="M279 788.5q-48 46.5 -48 126.5h131q0 -62 52 -62q25 0 38.5 16t13.5 46h131q0 -80 -48 -126.5t-135 -46.5t-135 46.5zM205.5 29q-86.5 44 -133.5 126.5t-47 193.5t47 193.5t133.5 127t200.5 44.5q76 0 134.5 -14.5t108.5 -46.5v-168q-44 35 -99.5 50.5t-127.5 15.5
q-62 0 -110.5 -24.5t-76.5 -70.5t-28 -107q0 -95 55.5 -150t150.5 -55q53 0 89 18v112h-107v124h275v-348q-107 -65 -264 -65q-114 0 -200.5 44z" />
    <glyph glyph-name="gbreve" unicode="&#x11f;" horiz-adv-x="665" 
d="M219 571.5q-48 46.5 -48 126.5h131q0 -62 52 -62q25 0 38.5 16t13.5 46h131q0 -80 -48 -126.5t-135 -46.5t-135 46.5zM209.5 -221q-48.5 9 -83.5 24v122q79 -34 180 -34q73 0 105.5 30t32.5 88v29q-29 -25 -71.5 -39t-90.5 -14q-76 0 -134 32t-90.5 90t-32.5 133
q0 76 32 134t90 89.5t133 31.5q103 0 170 -63v48h170v-447q0 -125 -76.5 -194t-237.5 -69q-48 0 -96.5 9zM399 142q32 21 45 56v84q-14 35 -46 55.5t-72 20.5q-54 0 -87 -31.5t-33 -85.5q0 -55 33 -87.5t87 -32.5q41 0 73 21z" />
    <glyph glyph-name="Gdotaccent" unicode="&#x120;" horiz-adv-x="695" 
d="M348 774q-23 22 -23 54t23 55t55 23q31 0 53.5 -23t22.5 -55t-22 -54t-54 -22t-55 22zM205.5 29q-86.5 44 -133.5 126.5t-47 193.5t47 193.5t133.5 127t200.5 44.5q76 0 134.5 -14.5t108.5 -46.5v-168q-44 35 -99.5 50.5t-127.5 15.5q-62 0 -110.5 -24.5t-76.5 -70.5
t-28 -107q0 -95 55.5 -150t150.5 -55q53 0 89 18v112h-107v124h275v-348q-107 -65 -264 -65q-114 0 -200.5 44z" />
    <glyph glyph-name="gdotaccent" unicode="&#x121;" horiz-adv-x="665" 
d="M319 548q-23 22 -23 54t23 55t55 23q31 0 53.5 -23t22.5 -55t-22 -54t-54 -22t-55 22zM209.5 -221q-48.5 9 -83.5 24v122q79 -34 180 -34q73 0 105.5 30t32.5 88v29q-29 -25 -71.5 -39t-90.5 -14q-76 0 -134 32t-90.5 90t-32.5 133q0 76 32 134t90 89.5t133 31.5
q103 0 170 -63v48h170v-447q0 -125 -76.5 -194t-237.5 -69q-48 0 -96.5 9zM399 142q32 21 45 56v84q-14 35 -46 55.5t-72 20.5q-54 0 -87 -31.5t-33 -85.5q0 -55 33 -87.5t87 -32.5q41 0 73 21z" />
    <glyph glyph-name="Gcommaaccent" unicode="&#x122;" horiz-adv-x="695" 
d="M205.5 29q-86.5 44 -133.5 126.5t-47 193.5t47 193.5t133.5 127t200.5 44.5q76 0 134.5 -14.5t108.5 -46.5v-168q-44 35 -99.5 50.5t-127.5 15.5q-62 0 -110.5 -24.5t-76.5 -70.5t-28 -107q0 -95 55.5 -150t150.5 -55q53 0 89 18v112h-107v124h275v-348
q-107 -65 -264 -65q-114 0 -200.5 44zM331 -49h182l-105 -211h-160z" />
    <glyph glyph-name="gcommaaccent" unicode="&#x123;" horiz-adv-x="665" 
d="M372 737h160l-83 -211h-182zM209.5 -221q-48.5 9 -83.5 24v122q79 -34 180 -34q73 0 105.5 30t32.5 88v29q-29 -25 -71.5 -39t-90.5 -14q-76 0 -134 32t-90.5 90t-32.5 133q0 76 32 134t90 89.5t133 31.5q103 0 170 -63v48h170v-447q0 -125 -76.5 -194t-237.5 -69
q-48 0 -96.5 9zM399 142q32 21 45 56v84q-14 35 -46 55.5t-72 20.5q-54 0 -87 -31.5t-33 -85.5q0 -55 33 -87.5t87 -32.5q41 0 73 21z" />
    <glyph glyph-name="Hcircumflex" unicode="&#x124;" horiz-adv-x="718" 
d="M281 923h157l156 -181h-174l-60 85l-60 -85h-175zM45 699h177v-270h274v270h177v-699h-177v282h-274v-282h-177v699z" />
    <glyph glyph-name="hcircumflex" unicode="&#x125;" horiz-adv-x="620" 
d="M215 942h157l156 -181h-174l-60 85l-60 -85h-175zM45 739h176v-308q32 32 73.5 48t87.5 16q101 0 149.5 -52.5t48.5 -142.5v-300h-176v277q0 81 -74 81q-34 0 -62 -15.5t-47 -47.5v-295h-176v739z" />
    <glyph glyph-name="Hbar" unicode="&#x126;" horiz-adv-x="787" 
d="M78 500h-43v134h43v65h185v-65h258v65h185v-65h46v-134h-46v-500h-185v270h-258v-270h-185v500zM521 441v59h-258v-59h258z" />
    <glyph glyph-name="hbar" unicode="&#x127;" horiz-adv-x="622" 
d="M48 532h-43v124h43v83h175v-83h125v-124h-125v-102q33 32 74.5 48.5t87.5 16.5q101 0 149 -51.5t48 -141.5v-302h-176v277q0 81 -75 81q-70 0 -108 -63v-295h-175v532z" />
    <glyph glyph-name="Itilde" unicode="&#x128;" horiz-adv-x="267" 
d="M-69 870q35 42 105 42q22 0 44 -6t57 -19q30 -12 52 -18.5t44 -6.5q63 0 105 50v-128q-34 -41 -105 -41q-25 0 -49 6.5t-56 19.5q-32 12 -51.5 18t-40.5 6q-62 0 -105 -51v128zM45 699h177v-699h-177v699z" />
    <glyph glyph-name="itilde" unicode="&#x129;" horiz-adv-x="266" 
d="M-69 653q35 42 105 42q22 0 44 -6t57 -19q30 -12 52 -18.5t44 -6.5q63 0 105 50v-128q-34 -41 -105 -41q-25 0 -49 6.5t-56 19.5q-32 12 -51.5 18t-40.5 6q-62 0 -105 -51v128zM45 480h176v-480h-176v480z" />
    <glyph glyph-name="Imacron" unicode="&#x12a;" horiz-adv-x="267" 
d="M-46 865h359v-113h-359v113zM45 699h177v-699h-177v699z" />
    <glyph glyph-name="imacron" unicode="&#x12b;" horiz-adv-x="266" 
d="M-46 649h359v-113h-359v113zM45 480h176v-480h-176v480z" />
    <glyph glyph-name="Ibreve" unicode="&#x12c;" horiz-adv-x="267" 
d="M-2 788.5q-48 46.5 -48 126.5h131q0 -62 52 -62q25 0 38.5 16t13.5 46h131q0 -80 -48 -126.5t-135 -46.5t-135 46.5zM45 699h177v-699h-177v699z" />
    <glyph glyph-name="ibreve" unicode="&#x12d;" horiz-adv-x="266" 
d="M-2 571.5q-48 46.5 -48 126.5h131q0 -62 52 -62q25 0 38.5 16t13.5 46h131q0 -80 -48 -126.5t-135 -46.5t-135 46.5zM45 480h176v-480h-176v480z" />
    <glyph glyph-name="Iogonek" unicode="&#x12e;" horiz-adv-x="267" 
d="M156 -42q-19 -20 -19 -42q0 -15 9 -24t25 -9q26 0 48 12v-96q-43 -15 -103 -15q-58 0 -94.5 24t-36.5 73q0 38 19 68.5t52 50.5h-11v699h177v-699h-6q-41 -22 -60 -42z" />
    <glyph glyph-name="iogonek" unicode="&#x12f;" horiz-adv-x="278" 
d="M72 570q-27 26 -27 66q0 39 27 65.5t67 26.5q39 0 66.5 -26.5t27.5 -65.5t-27.5 -65.5t-66.5 -26.5q-40 0 -67 26zM51 480h176v-480h-3q-41 -22 -60 -42t-19 -42q0 -15 9 -24t25 -9q26 0 48 12v-96q-43 -15 -103 -15q-58 0 -94.5 24t-36.5 73q0 38 19 68.5t52 50.5h-13
v480z" />
    <glyph glyph-name="Idotaccent" unicode="&#x130;" horiz-adv-x="267" 
d="M79 774q-23 22 -23 54t23 55t55 23q31 0 53.5 -23t22.5 -55t-22 -54t-54 -22t-55 22zM45 699h177v-699h-177v699z" />
    <glyph glyph-name="dotlessi" unicode="&#x131;" horiz-adv-x="266" 
d="M45 480h176v-480h-176v480z" />
    <glyph glyph-name="IJ" unicode="&#x132;" horiz-adv-x="659" 
d="M45 699h177v-699h-177v699zM330.5 -8.5q-36.5 6.5 -54.5 16.5v156q15 -7 38.5 -11t47.5 -4q44 0 62 18.5t18 61.5v470h177v-490q0 -103 -56 -163.5t-163 -60.5q-33 0 -69.5 6.5z" />
    <glyph glyph-name="ij" unicode="&#x133;" horiz-adv-x="529" 
d="M72 570q-27 26 -27 66q0 39 27 65.5t67 26.5q39 0 66.5 -26.5t27.5 -65.5t-27.5 -65.5t-66.5 -26.5q-40 0 -67 26zM323 570q-27 26 -27 66q0 39 27 65.5t67 26.5q39 0 66.5 -26.5t27.5 -65.5t-27.5 -65.5t-66.5 -26.5q-40 0 -67 26zM51 480h176v-480h-176v480zM162 -214
v140q30 -14 68 -14q72 0 72 73v495h176v-516q0 -96 -60.5 -145.5t-159.5 -49.5q-59 0 -96 17z" />
    <glyph glyph-name="Jcircumflex" unicode="&#x134;" horiz-adv-x="388" 
d="M177 923h157l156 -181h-174l-60 85l-60 -85h-175zM59.5 -8.5q-36.5 6.5 -54.5 16.5v156q15 -7 38.5 -11t47.5 -4q44 0 62 18.5t18 61.5v470h177v-490q0 -103 -56 -163.5t-163 -60.5q-33 0 -69.5 6.5z" />
    <glyph glyph-name="jcircumflex" unicode="&#x135;" horiz-adv-x="271" 
d="M44 706h157l156 -181h-174l-60 85l-60 -85h-175zM-90 -214v140q30 -14 68 -14q72 0 72 73v495h176v-516q0 -96 -60.5 -145.5t-159.5 -49.5q-59 0 -96 17z" />
    <glyph glyph-name="Kcommaaccent" unicode="&#x136;" horiz-adv-x="717" 
d="M45 699h177v-290l241 290h210l-283 -340l302 -359h-210l-260 309v-309h-177v699zM259 -49h182l-105 -211h-160z" />
    <glyph glyph-name="kcommaaccent" unicode="&#x137;" horiz-adv-x="632" 
d="M45 739h176v-452l158 193h202l-191 -232l217 -248h-202l-184 211v-211h-176v739zM216 -49h182l-105 -211h-160z" />
    <glyph glyph-name="kgreenlandic" unicode="&#x138;" horiz-adv-x="632" 
d="M45 480h176v-200l158 200h202l-191 -240l217 -240h-202l-184 204v-204h-176v480z" />
    <glyph glyph-name="Lacute" unicode="&#x139;" horiz-adv-x="531" 
d="M126 920h185l-91 -178h-163zM45 699h177v-550h304v-149h-481v699z" />
    <glyph glyph-name="lacute" unicode="&#x13a;" horiz-adv-x="266" 
d="M118 948h185l-91 -178h-163zM45 739h176v-739h-176v739z" />
    <glyph glyph-name="Lcommaaccent" unicode="&#x13b;" horiz-adv-x="531" 
d="M45 699h177v-550h304v-149h-481v699zM216 -49h182l-105 -211h-160z" />
    <glyph glyph-name="lcommaaccent" unicode="&#x13c;" horiz-adv-x="266" 
d="M45 739h176v-739h-176v739zM43 -49h182l-105 -211h-160z" />
    <glyph glyph-name="Lcaron" unicode="&#x13d;" horiz-adv-x="523" 
d="M387 714h182l-105 -211h-160zM45 699h177v-550h304v-149h-481v699z" />
    <glyph glyph-name="lcaron" unicode="&#x13e;" horiz-adv-x="506" 
d="M337 760h182l-105 -211h-160zM45 739h176v-739h-176v739z" />
    <glyph glyph-name="Ldot" unicode="&#x13f;" horiz-adv-x="531" 
d="M45 699h177v-550h304v-149h-481v699zM341 340q-23 22 -23 54t23 55t55 23q31 0 53.5 -23t22.5 -55t-22 -54t-54 -22t-55 22z" />
    <glyph glyph-name="ldot" unicode="&#x140;" horiz-adv-x="410" 
d="M45 739h176v-739h-176v739zM284 331q-23 22 -23 54t23 55t55 23q31 0 53.5 -23t22.5 -55t-22 -54t-54 -22t-55 22z" />
    <glyph glyph-name="Lslash" unicode="&#x141;" horiz-adv-x="547" 
d="M62 256l-77 -34v169l77 34v274h185v-191l134 60v-169l-134 -60v-184h295v-155h-480v256z" />
    <glyph glyph-name="lslash" unicode="&#x142;" horiz-adv-x="295" 
d="M57 245l-104 -46v170l104 46v324h175v-246l117 53v-170l-117 -53v-323h-175v245z" />
    <glyph glyph-name="Nacute" unicode="&#x143;" horiz-adv-x="699" 
d="M333 920h185l-91 -178h-163zM45 699h175l257 -416v416h177v-699h-174l-258 417v-417h-177v699z" />
    <glyph glyph-name="nacute" unicode="&#x144;" horiz-adv-x="620" 
d="M280 708h185l-91 -178h-163zM45 480h170v-53q31 34 75 51t92 17q101 0 149.5 -52.5t48.5 -142.5v-300h-176v277q0 81 -74 81q-34 0 -62 -15.5t-47 -47.5v-295h-176v480z" />
    <glyph glyph-name="Ncommaaccent" unicode="&#x145;" horiz-adv-x="699" 
d="M45 699h175l257 -416v416h177v-699h-174l-258 417v-417h-177v699zM271 -49h182l-105 -211h-160z" />
    <glyph glyph-name="ncommaaccent" unicode="&#x146;" horiz-adv-x="620" 
d="M45 480h170v-53q31 34 75 51t92 17q101 0 149.5 -52.5t48.5 -142.5v-300h-176v277q0 81 -74 81q-34 0 -62 -15.5t-47 -47.5v-295h-176v480zM235 -49h182l-105 -211h-160z" />
    <glyph glyph-name="Ncaron" unicode="&#x147;" horiz-adv-x="699" 
d="M120 923h175l60 -85l60 85h174l-156 -181h-157zM45 699h175l257 -416v416h177v-699h-174l-258 417v-417h-177v699z" />
    <glyph glyph-name="ncaron" unicode="&#x148;" horiz-adv-x="620" 
d="M77 711h175l60 -85l60 85h174l-156 -181h-157zM45 480h170v-53q31 34 75 51t92 17q101 0 149.5 -52.5t48.5 -142.5v-300h-176v277q0 81 -74 81q-34 0 -62 -15.5t-47 -47.5v-295h-176v480z" />
    <glyph glyph-name="napostrophe" unicode="&#x149;" horiz-adv-x="720" 
d="M36 714h182l-105 -211h-160zM145 480h170v-53q31 34 75 51t92 17q101 0 149.5 -52.5t48.5 -142.5v-300h-176v277q0 81 -74 81q-34 0 -62 -15.5t-47 -47.5v-295h-176v480z" />
    <glyph glyph-name="Eng" unicode="&#x14a;" horiz-adv-x="711" 
d="M666 480v-516q0 -97 -60 -146t-159 -49q-59 0 -96 17v140q30 -14 68 -14q72 0 72 73v15h-11l-258 417v-417h-177v699h175l257 -416v416h177v-219h12z" />
    <glyph glyph-name="eng" unicode="&#x14b;" horiz-adv-x="619" 
d="M264 -214v141q29 -15 68 -15q72 0 72 73v292q0 81 -74 81q-34 0 -62 -15.5t-47 -47.5v-295h-176v480h170v-53q31 34 75 51t92 17q101 0 149 -52.5t48 -142.5v-335q0 -97 -60 -146.5t-159 -49.5q-55 0 -96 17z" />
    <glyph glyph-name="Omacron" unicode="&#x14c;" horiz-adv-x="800" 
d="M228 865h345v-113h-345v113zM209.5 31q-85.5 46 -135 128.5t-49.5 189.5t49.5 190t135 129t191.5 46q105 0 190.5 -46t134.5 -129t49 -190t-49 -189.5t-134.5 -128.5t-190.5 -46q-106 0 -191.5 46zM498 175q44 24 70 69t26 105t-25.5 104.5t-69.5 69t-98 24.5
q-55 0 -99 -24.5t-69.5 -69t-25.5 -104.5t25.5 -105t70 -69t98.5 -24q53 0 97 24z" />
    <glyph glyph-name="omacron" unicode="&#x14d;" horiz-adv-x="642" 
d="M149 649h345v-113h-345v113zM165 17.5q-67 32.5 -103.5 90t-36.5 132.5t36.5 132.5t103.5 90t156 32.5t156 -32.5t103.5 -90t36.5 -132.5t-36.5 -132.5t-103.5 -90t-156 -32.5t-156 32.5zM405.5 153.5q31.5 31.5 31.5 86.5t-31.5 86.5t-84.5 31.5t-84.5 -31.5
t-31.5 -86.5t31.5 -86.5t84.5 -31.5t84.5 31.5z" />
    <glyph glyph-name="Obreve" unicode="&#x14e;" horiz-adv-x="800" 
d="M265 788.5q-48 46.5 -48 126.5h131q0 -62 52 -62q25 0 38.5 16t13.5 46h131q0 -80 -48 -126.5t-135 -46.5t-135 46.5zM209.5 31q-85.5 46 -135 128.5t-49.5 189.5t49.5 190t135 129t191.5 46q105 0 190.5 -46t134.5 -129t49 -190t-49 -189.5t-134.5 -128.5t-190.5 -46
q-106 0 -191.5 46zM498 175q44 24 70 69t26 105t-25.5 104.5t-69.5 69t-98 24.5q-55 0 -99 -24.5t-69.5 -69t-25.5 -104.5t25.5 -105t70 -69t98.5 -24q53 0 97 24z" />
    <glyph glyph-name="obreve" unicode="&#x14f;" horiz-adv-x="642" 
d="M187 562.5q-48 46.5 -48 126.5h131q0 -62 52 -62q25 0 38.5 16t13.5 46h131q0 -80 -48 -126.5t-135 -46.5t-135 46.5zM165 17.5q-67 32.5 -103.5 90t-36.5 132.5t36.5 132.5t103.5 90t156 32.5t156 -32.5t103.5 -90t36.5 -132.5t-36.5 -132.5t-103.5 -90t-156 -32.5
t-156 32.5zM405.5 153.5q31.5 31.5 31.5 86.5t-31.5 86.5t-84.5 31.5t-84.5 -31.5t-31.5 -86.5t31.5 -86.5t84.5 -31.5t84.5 31.5z" />
    <glyph glyph-name="Ohungarumlaut" unicode="&#x150;" horiz-adv-x="800" 
d="M259 919h170l-91 -177h-148zM511 919h169l-90 -177h-148zM209.5 31q-85.5 46 -135 128.5t-49.5 189.5t49.5 190t135 129t191.5 46q105 0 190.5 -46t134.5 -129t49 -190t-49 -189.5t-134.5 -128.5t-190.5 -46q-106 0 -191.5 46zM498 175q44 24 70 69t26 105t-25.5 104.5
t-69.5 69t-98 24.5q-55 0 -99 -24.5t-69.5 -69t-25.5 -104.5t25.5 -105t70 -69t98.5 -24q53 0 97 24z" />
    <glyph glyph-name="ohungarumlaut" unicode="&#x151;" horiz-adv-x="642" 
d="M185 703h170l-91 -177h-148zM437 703h169l-90 -177h-148zM165 17.5q-67 32.5 -103.5 90t-36.5 132.5t36.5 132.5t103.5 90t156 32.5t156 -32.5t103.5 -90t36.5 -132.5t-36.5 -132.5t-103.5 -90t-156 -32.5t-156 32.5zM405.5 153.5q31.5 31.5 31.5 86.5t-31.5 86.5
t-84.5 31.5t-84.5 -31.5t-31.5 -86.5t31.5 -86.5t84.5 -31.5t84.5 31.5z" />
    <glyph glyph-name="OE" unicode="&#x152;" horiz-adv-x="889" 
d="M217.5 42q-90.5 42 -141.5 121t-51 186t51 186.5t141.5 121.5t206.5 42h440v-149h-281v-131h195v-139h-195v-131h281v-149h-440q-116 0 -206.5 42zM406 550q-93 0 -146 -54t-53 -147t53.5 -146.5t145.5 -53.5v401z" />
    <glyph glyph-name="oe" unicode="&#x153;" horiz-adv-x="1057" 
d="M1032 181h-383q10 -40 50 -58t109 -18q47 0 96.5 8t85.5 22v-116q-37 -15 -92.5 -24.5t-113.5 -9.5q-78 0 -138 20.5t-99 59.5q-40 -38 -97.5 -59t-128.5 -21q-89 0 -156 32.5t-103.5 90t-36.5 132.5t36.5 132.5t103.5 90t156 32.5q70 0 127 -20.5t97 -57.5
q35 38 89.5 58t125.5 20q86 0 147.5 -32.5t93 -89t31.5 -127.5v-65zM866 291q-4 39 -32 61t-77 22q-48 0 -76 -22.5t-32 -60.5h217zM405.5 153.5q31.5 31.5 31.5 86.5t-31.5 86.5t-84.5 31.5t-84.5 -31.5t-31.5 -86.5t31.5 -86.5t84.5 -31.5t84.5 31.5z" />
    <glyph glyph-name="Racute" unicode="&#x154;" horiz-adv-x="646" 
d="M268 920h185l-91 -178h-163zM45 699h314q123 0 192.5 -62t69.5 -178q0 -78 -34 -133t-96 -82l124 -244h-182l-111 219h-100v-219h-177v699zM328 368q53 0 82 20.5t29 70.5q0 52 -28.5 71.5t-82.5 19.5h-106v-182h106z" />
    <glyph glyph-name="racute" unicode="&#x155;" horiz-adv-x="412" 
d="M129 696h185l-91 -178h-163zM45 480h170v-60q28 32 79 49.5t113 17.5v-135q-66 0 -116.5 -19t-69.5 -57v-276h-176v480z" />
    <glyph glyph-name="Rcommaaccent" unicode="&#x156;" horiz-adv-x="646" 
d="M45 699h314q123 0 192.5 -62t69.5 -178q0 -78 -34 -133t-96 -82l124 -244h-182l-111 219h-100v-219h-177v699zM328 368q53 0 82 20.5t29 70.5q0 52 -28.5 71.5t-82.5 19.5h-106v-182h106zM231 -49h182l-105 -211h-160z" />
    <glyph glyph-name="rcommaaccent" unicode="&#x157;" horiz-adv-x="400" 
d="M33 480h170v-60q28 32 79 49.5t113 17.5v-135q-66 0 -116.5 -19t-69.5 -57v-276h-176v480zM30 -49h182l-105 -211h-160z" />
    <glyph glyph-name="Rcaron" unicode="&#x158;" horiz-adv-x="646" 
d="M82 923h175l60 -85l60 85h174l-156 -181h-157zM45 699h314q123 0 192.5 -62t69.5 -178q0 -78 -34 -133t-96 -82l124 -244h-182l-111 219h-100v-219h-177v699zM328 368q53 0 82 20.5t29 70.5q0 52 -28.5 71.5t-82.5 19.5h-106v-182h106z" />
    <glyph glyph-name="rcaron" unicode="&#x159;" horiz-adv-x="392" 
d="M-87 706h175l60 -85l60 85h174l-156 -181h-157zM29 480h170v-60q28 32 79 49.5t113 17.5v-135q-66 0 -116.5 -19t-69.5 -57v-276h-176v480z" />
    <glyph glyph-name="Sacute" unicode="&#x15a;" horiz-adv-x="569" 
d="M273 920h185l-91 -178h-163zM132 -2.5q-65 12.5 -107 34.5v159q54 -28 112.5 -42t111.5 -14q49 0 74 15t25 43q0 21 -13.5 36.5t-39.5 28.5t-81 36q-97 41 -141 91t-44 123q0 60 33.5 107t93.5 73t138 26q64 0 114 -10t96 -32v-155q-88 46 -177 46q-48 0 -76.5 -15.5
t-28.5 -44.5t29 -47t107 -49q71 -29 110.5 -57t57.5 -65t18 -94q0 -97 -70.5 -151.5t-210.5 -54.5q-66 0 -131 12.5z" />
    <glyph glyph-name="sacute" unicode="&#x15b;" horiz-adv-x="509" 
d="M223 696h185l-91 -178h-163zM131 -3.5q-63 11.5 -100 32.5v129q41 -24 98.5 -39.5t105.5 -15.5q35 0 51 5t16 20q0 12 -10.5 19.5t-38 16t-63.5 18.5q-61 18 -96 37t-52 48t-17 73q0 78 61.5 116.5t168.5 38.5q52 0 109.5 -11t86.5 -29v-127q-30 20 -79.5 33t-92.5 13
q-34 0 -53 -6.5t-19 -22.5q0 -15 19 -23t68 -20q32 -8 27 -7q64 -17 99 -38t49.5 -49.5t14.5 -72.5q0 -69 -59.5 -109.5t-172.5 -40.5q-58 0 -121 11.5z" />
    <glyph glyph-name="Scircumflex" unicode="&#x15c;" horiz-adv-x="569" 
d="M212 923h157l156 -181h-174l-60 85l-60 -85h-175zM132 -2.5q-65 12.5 -107 34.5v159q54 -28 112.5 -42t111.5 -14q49 0 74 15t25 43q0 21 -13.5 36.5t-39.5 28.5t-81 36q-97 41 -141 91t-44 123q0 60 33.5 107t93.5 73t138 26q64 0 114 -10t96 -32v-155q-88 46 -177 46
q-48 0 -76.5 -15.5t-28.5 -44.5t29 -47t107 -49q71 -29 110.5 -57t57.5 -65t18 -94q0 -97 -70.5 -151.5t-210.5 -54.5q-66 0 -131 12.5z" />
    <glyph glyph-name="scircumflex" unicode="&#x15d;" horiz-adv-x="509" 
d="M182 706h157l156 -181h-174l-60 85l-60 -85h-175zM131 -3.5q-63 11.5 -100 32.5v129q41 -24 98.5 -39.5t105.5 -15.5q35 0 51 5t16 20q0 12 -10.5 19.5t-38 16t-63.5 18.5q-61 18 -96 37t-52 48t-17 73q0 78 61.5 116.5t168.5 38.5q52 0 109.5 -11t86.5 -29v-127
q-30 20 -79.5 33t-92.5 13q-34 0 -53 -6.5t-19 -22.5q0 -15 19 -23t68 -20q32 -8 27 -7q64 -17 99 -38t49.5 -49.5t14.5 -72.5q0 -69 -59.5 -109.5t-172.5 -40.5q-58 0 -121 11.5z" />
    <glyph glyph-name="Scedilla" unicode="&#x15e;" horiz-adv-x="569" 
d="M496.5 59.5q-47.5 -51.5 -142.5 -67.5l-15 -38q44 -7 66.5 -29.5t22.5 -65.5q0 -53 -43 -80t-117 -27q-34 0 -65.5 4t-47.5 10v85q26 -14 61 -14q24 0 37 9t13 25q0 19 -22.5 29.5t-75.5 10.5l29 77q-110 12 -172 44v159q54 -28 112.5 -42t111.5 -14q49 0 74 15t25 43
q0 21 -13.5 36.5t-39.5 28.5t-81 36q-97 41 -141 91t-44 123q0 60 33.5 107t93.5 73t138 26q64 0 114 -10t96 -32v-155q-88 46 -177 46q-48 0 -76.5 -15.5t-28.5 -44.5t29 -47t107 -49q71 -29 110.5 -57t57.5 -65t18 -94q0 -80 -47.5 -131.5z" />
    <glyph glyph-name="scedilla" unicode="&#x15f;" horiz-adv-x="509" 
d="M445 42q-39 -38 -113 -51l-15 -37q44 -7 66.5 -29.5t22.5 -65.5q0 -53 -43 -80t-117 -27q-34 0 -65.5 4t-47.5 10v85q26 -14 61 -14q24 0 37 9t13 25q0 19 -22.5 29.5t-75.5 10.5l30 79q-95 11 -145 39v129q41 -24 98.5 -39.5t105.5 -15.5q35 0 51 5t16 20
q0 12 -10.5 19.5t-38 16t-63.5 18.5q-61 18 -96 37t-52 48t-17 73q0 78 61.5 116.5t168.5 38.5q52 0 109.5 -11t86.5 -29v-127q-30 20 -79.5 33t-92.5 13q-34 0 -53 -6.5t-19 -22.5q0 -15 19 -23t68 -20q32 -8 27 -7q64 -17 99 -38t49.5 -49.5t14.5 -72.5q0 -55 -39 -93z
" />
    <glyph glyph-name="Scaron" unicode="&#x160;" horiz-adv-x="569" 
d="M60 923h175l60 -85l60 85h174l-156 -181h-157zM132 -2.5q-65 12.5 -107 34.5v159q54 -28 112.5 -42t111.5 -14q49 0 74 15t25 43q0 21 -13.5 36.5t-39.5 28.5t-81 36q-97 41 -141 91t-44 123q0 60 33.5 107t93.5 73t138 26q64 0 114 -10t96 -32v-155q-88 46 -177 46
q-48 0 -76.5 -15.5t-28.5 -44.5t29 -47t107 -49q71 -29 110.5 -57t57.5 -65t18 -94q0 -97 -70.5 -151.5t-210.5 -54.5q-66 0 -131 12.5z" />
    <glyph glyph-name="scaron" unicode="&#x161;" horiz-adv-x="509" 
d="M29 706h175l60 -85l60 85h174l-156 -181h-157zM131 -3.5q-63 11.5 -100 32.5v129q41 -24 98.5 -39.5t105.5 -15.5q35 0 51 5t16 20q0 12 -10.5 19.5t-38 16t-63.5 18.5q-61 18 -96 37t-52 48t-17 73q0 78 61.5 116.5t168.5 38.5q52 0 109.5 -11t86.5 -29v-127
q-30 20 -79.5 33t-92.5 13q-34 0 -53 -6.5t-19 -22.5q0 -15 19 -23t68 -20q32 -8 27 -7q64 -17 99 -38t49.5 -49.5t14.5 -72.5q0 -69 -59.5 -109.5t-172.5 -40.5q-58 0 -121 11.5z" />
    <glyph glyph-name="uni0162" unicode="&#x162;" horiz-adv-x="592" 
d="M384 550v-550h1l-18 -46q44 -7 66.5 -29.5t22.5 -65.5q0 -53 -43 -80t-117 -27q-34 0 -65.5 4t-47.5 10v85q26 -14 61 -14q24 0 37 9t13 25q0 19 -22.5 29.5t-75.5 10.5l34 89h-23v550h-197v149h572v-149h-198z" />
    <glyph glyph-name="uni0163" unicode="&#x163;" horiz-adv-x="408" 
d="M380.5 -75.5q22.5 -22.5 22.5 -65.5q0 -53 -43 -80t-117 -27q-34 0 -65.5 4t-47.5 10v85q26 -14 61 -14q24 0 37 9t13 25q0 19 -22.5 29.5t-75.5 10.5l33 86q-51 19 -77 63.5t-26 109.5v188h-68v122h68v144h176v-144h110v-122h-110v-164q0 -39 14.5 -56t51.5 -17
q33 0 66 18v-131q-27 -12 -52 -17l-15 -37q44 -7 66.5 -29.5z" />
    <glyph glyph-name="Tcaron" unicode="&#x164;" horiz-adv-x="592" 
d="M62 923h175l60 -85l60 85h174l-156 -181h-157zM207 550h-197v149h572v-149h-198v-550h-177v550z" />
    <glyph glyph-name="tcaron" unicode="&#x165;" horiz-adv-x="539" 
d="M388 795h182l-105 -211h-160zM118.5 34.5q-45.5 49.5 -45.5 135.5v188h-68v122h68v144h176v-144h110v-122h-110v-164q0 -39 14.5 -56t51.5 -17q33 0 66 18v-131q-26 -12 -55.5 -17.5t-72.5 -5.5q-89 0 -134.5 49.5z" />
    <glyph glyph-name="Tbar" unicode="&#x166;" horiz-adv-x="592" 
d="M203 253h-105v148h105v142h-193v156h572v-156h-194v-142h108v-148h-108v-253h-185v253z" />
    <glyph glyph-name="tbar" unicode="&#x167;" horiz-adv-x="387" 
d="M119.5 34.5q-45.5 49.5 -45.5 135.5v38h-69v94h69v61h-68v117h68v144h176v-144h110v-117h-110v-61h109v-94h-109v-14q0 -39 15 -56t51 -17q33 0 66 18v-131q-26 -12 -55.5 -17.5t-72.5 -5.5q-89 0 -134.5 49.5z" />
    <glyph glyph-name="Utilde" unicode="&#x168;" horiz-adv-x="715" 
d="M154 870q35 42 105 42q22 0 44 -6t57 -19q30 -12 52 -18.5t44 -6.5q63 0 105 50v-128q-34 -41 -105 -41q-25 0 -49 6.5t-56 19.5q-32 12 -51.5 18t-40.5 6q-62 0 -105 -51v128zM120 69.5q-80 84.5 -80 223.5v406h177v-408q0 -70 37.5 -106t103.5 -36t103 36t37 106v408
h177v-406q0 -140 -79.5 -224t-237.5 -84t-238 84.5z" />
    <glyph glyph-name="utilde" unicode="&#x169;" horiz-adv-x="620" 
d="M122 654q35 42 105 42q22 0 44 -6t57 -19q30 -12 52 -18.5t44 -6.5q63 0 105 50v-128q-34 -41 -105 -41q-25 0 -49 6.5t-56 19.5q-32 12 -51.5 18t-40.5 6q-62 0 -105 -51v128zM89.5 40q-49.5 55 -49.5 145v295h176v-275q0 -83 75 -83q34 0 62 16t46 47v295h176v-480
h-170v52q-31 -33 -75 -50t-92 -17q-99 0 -148.5 55z" />
    <glyph glyph-name="Umacron" unicode="&#x16a;" horiz-adv-x="715" 
d="M185 865h345v-113h-345v113zM120 69.5q-80 84.5 -80 223.5v406h177v-408q0 -70 37.5 -106t103.5 -36t103 36t37 106v408h177v-406q0 -140 -79.5 -224t-237.5 -84t-238 84.5z" />
    <glyph glyph-name="umacron" unicode="&#x16b;" horiz-adv-x="620" 
d="M148 649h345v-113h-345v113zM89.5 40q-49.5 55 -49.5 145v295h176v-275q0 -83 75 -83q34 0 62 16t46 47v295h176v-480h-170v52q-31 -33 -75 -50t-92 -17q-99 0 -148.5 55z" />
    <glyph glyph-name="Ubreve" unicode="&#x16c;" horiz-adv-x="715" 
d="M222 788.5q-48 46.5 -48 126.5h131q0 -62 52 -62q25 0 38.5 16t13.5 46h131q0 -80 -48 -126.5t-135 -46.5t-135 46.5zM120 69.5q-80 84.5 -80 223.5v406h177v-408q0 -70 37.5 -106t103.5 -36t103 36t37 106v408h177v-406q0 -140 -79.5 -224t-237.5 -84t-238 84.5z" />
    <glyph glyph-name="ubreve" unicode="&#x16d;" horiz-adv-x="620" 
d="M183 571.5q-48 46.5 -48 126.5h131q0 -62 52 -62q25 0 38.5 16t13.5 46h131q0 -80 -48 -126.5t-135 -46.5t-135 46.5zM89.5 40q-49.5 55 -49.5 145v295h176v-275q0 -83 75 -83q34 0 62 16t46 47v295h176v-480h-170v52q-31 -33 -75 -50t-92 -17q-99 0 -148.5 55z" />
    <glyph glyph-name="Uring" unicode="&#x16e;" horiz-adv-x="715" 
d="M286.5 760.5q-32.5 18.5 -51.5 50.5t-19 70t19 70.5t51.5 51t70.5 18.5t71 -18.5t52 -51t19 -70.5t-19 -70t-52 -50.5t-71 -18.5t-70.5 18.5zM389.5 848.5q13.5 13.5 13.5 32.5q0 20 -13 33t-33 13q-19 0 -32.5 -13.5t-13.5 -32.5t13.5 -32.5t32.5 -13.5t32.5 13.5z
M120 69.5q-80 84.5 -80 223.5v406h177v-408q0 -70 37.5 -106t103.5 -36t103 36t37 106v408h177v-406q0 -140 -79.5 -224t-237.5 -84t-238 84.5z" />
    <glyph glyph-name="uring" unicode="&#x16f;" horiz-adv-x="620" 
d="M238.5 543.5q-32.5 18.5 -51.5 50.5t-19 70t19 70.5t51.5 51t70.5 18.5t71 -18.5t52 -51t19 -70.5t-19 -70t-52 -50.5t-71 -18.5t-70.5 18.5zM341.5 631.5q13.5 13.5 13.5 32.5q0 20 -13 33t-33 13q-19 0 -32.5 -13.5t-13.5 -32.5t13.5 -32.5t32.5 -13.5t32.5 13.5z
M89.5 40q-49.5 55 -49.5 145v295h176v-275q0 -83 75 -83q34 0 62 16t46 47v295h176v-480h-170v52q-31 -33 -75 -50t-92 -17q-99 0 -148.5 55z" />
    <glyph glyph-name="Uhungarumlaut" unicode="&#x170;" horiz-adv-x="715" 
d="M229 919h170l-91 -177h-148zM481 919h169l-90 -177h-148zM120 69.5q-80 84.5 -80 223.5v406h177v-408q0 -70 37.5 -106t103.5 -36t103 36t37 106v408h177v-406q0 -140 -79.5 -224t-237.5 -84t-238 84.5z" />
    <glyph glyph-name="uhungarumlaut" unicode="&#x171;" horiz-adv-x="616" 
d="M180 703h170l-91 -177h-148zM432 703h169l-90 -177h-148zM89.5 40q-49.5 55 -49.5 145v295h176v-275q0 -83 75 -83q34 0 62 16t46 47v295h176v-480h-170v52q-31 -33 -75 -50t-92 -17q-99 0 -148.5 55z" />
    <glyph glyph-name="Uogonek" unicode="&#x172;" horiz-adv-x="715" 
d="M675 699v-406q0 -116 -55.5 -195t-166.5 -103q-69 -40 -69 -79q0 -15 9 -24t25 -9q25 0 48 12v-96q-43 -15 -103 -15q-58 0 -94.5 24t-36.5 73q0 34 15 62t41 47q-123 18 -185.5 99t-62.5 204v406h177v-408q0 -70 37.5 -106t103.5 -36t103 36t37 106v408h177z" />
    <glyph glyph-name="uogonek" unicode="&#x173;" horiz-adv-x="625" 
d="M580 -105v-96q-43 -15 -103 -15q-58 0 -94.5 24t-36.5 73q0 38 19 68.5t52 50.5h-12v52q-31 -33 -75 -50t-92 -17q-99 0 -148.5 55t-49.5 145v295h176v-275q0 -83 75 -83q34 0 62 16t46 47v295h176v-480h2q-41 -22 -60 -42t-19 -42q0 -15 9 -24t25 -9q26 0 48 12z" />
    <glyph glyph-name="Wcircumflex" unicode="&#x174;" horiz-adv-x="992" 
d="M418 923h157l156 -181h-174l-60 85l-60 -85h-175zM25 699h182l117 -414l113 414h126l106 -415l116 415h182l-193 -699h-163l-115 406l-114 -406h-164z" />
    <glyph glyph-name="wcircumflex" unicode="&#x175;" horiz-adv-x="852" 
d="M348 706h157l156 -181h-174l-60 85l-60 -85h-175zM25 480h176l77 -275l77 275h142l77 -275l77 275h176l-161 -480h-158l-82 270l-82 -270h-158z" />
    <glyph glyph-name="Ycircumflex" unicode="&#x176;" horiz-adv-x="750" 
d="M294 923h157l156 -181h-174l-60 85l-60 -85h-175zM283 266l-258 433h189l158 -271l165 271h188l-265 -433v-266h-177v266z" />
    <glyph glyph-name="ycircumflex" unicode="&#x177;" horiz-adv-x="640" 
d="M265 706h157l156 -181h-174l-60 85l-60 -85h-175zM141 -193.5q-35 4.5 -52 12.5v131q29 -12 66 -12q33 0 51.5 14.5t29.5 45.5l12 32l-208 450h176l125 -312l118 312h176l-198 -502q-35 -90 -89.5 -133t-139.5 -43q-32 0 -67 4.5z" />
    <glyph glyph-name="Ydieresis" unicode="&#x178;" horiz-adv-x="750" 
d="M200 774q-23 22 -23 54t23 55t55 23q31 0 53.5 -23t22.5 -55t-22 -54t-54 -22t-55 22zM436 774q-23 22 -23 54t23 55t55 23q31 0 53.5 -23t22.5 -55t-22.5 -54t-53.5 -22q-32 0 -55 22zM283 266l-258 433h189l158 -271l165 271h188l-265 -433v-266h-177v266z" />
    <glyph glyph-name="Zacute" unicode="&#x179;" horiz-adv-x="611" 
d="M277 920h185l-91 -178h-163zM25 120l318 430h-310v149h531v-121l-316 -429h338v-149h-561v120z" />
    <glyph glyph-name="zacute" unicode="&#x17a;" horiz-adv-x="518" 
d="M245 696h185l-91 -178h-163zM25 96l228 262h-222v122h454v-96l-226 -262h234v-122h-468v96z" />
    <glyph glyph-name="Zdotaccent" unicode="&#x17b;" horiz-adv-x="611" 
d="M253 774q-23 22 -23 54t23 55t55 23q31 0 53.5 -23t22.5 -55t-22 -54t-54 -22t-55 22zM25 120l318 430h-310v149h531v-121l-316 -429h338v-149h-561v120z" />
    <glyph glyph-name="zdotaccent" unicode="&#x17c;" horiz-adv-x="518" 
d="M222 548q-23 22 -23 54t23 55t55 23q31 0 53.5 -23t22.5 -55t-22 -54t-54 -22t-55 22zM25 96l228 262h-222v122h454v-96l-226 -262h234v-122h-468v96z" />
    <glyph glyph-name="Zcaron" unicode="&#x17d;" horiz-adv-x="611" 
d="M77 923h175l60 -85l60 85h174l-156 -181h-157zM25 120l318 430h-310v149h531v-121l-316 -429h338v-149h-561v120z" />
    <glyph glyph-name="zcaron" unicode="&#x17e;" horiz-adv-x="543" 
d="M60 706h175l60 -85l60 85h174l-156 -181h-157zM45 96l228 262h-222v122h454v-96l-226 -262h234v-122h-468v96z" />
    <glyph glyph-name="uni018F" unicode="&#x18f;" horiz-adv-x="821" 
d="M197 31q-86 46 -129 126t-43 182v77h555q-15 68 -77.5 107.5t-162.5 39.5q-66 0 -135 -11.5t-119 -31.5v145q53 22 129 35.5t157 13.5q132 0 227.5 -42.5t146 -124t50.5 -195.5q0 -112 -45 -194.5t-132.5 -127.5t-211.5 -45t-210 46zM529.5 174q44.5 40 51.5 108h-359
q6 -68 51 -108t130 -40q82 0 126.5 40z" />
    <glyph glyph-name="florin" unicode="&#x192;" horiz-adv-x="553" 
d="M-110 -213l29 141q27 -15 61 -15q40 0 63.5 18.5t31.5 56.5l78 370h-69l24 122h70l13 60q23 107 87 155.5t173 48.5q61 0 97 -18l-28 -140q-26 14 -63 14q-78 0 -93 -75l-10 -45h118l-24 -122h-119l-82 -384q-22 -107 -84.5 -155.5t-175.5 -48.5q-61 0 -97 17z" />
    <glyph glyph-name="Ohorn" unicode="&#x1a0;" horiz-adv-x="896" 
d="M209.5 31q-85.5 46 -135 128.5t-49.5 189.5t49.5 190t135 129t191.5 46q71 0 135 -22t113 -63q52 1 73 21t21 63v34h148v-45q0 -73 -39.5 -124.5t-111.5 -66.5q35 -76 35 -162q0 -107 -49 -189.5t-134.5 -128.5t-190.5 -46q-106 0 -191.5 46zM495.5 180.5
q42.5 23.5 67.5 67t25 101.5t-24.5 101.5t-67 67t-95.5 23.5t-96 -23.5t-67.5 -67t-24.5 -101.5t25 -102t67.5 -67t95.5 -23q52 0 94.5 23.5z" />
    <glyph glyph-name="ohorn" unicode="&#x1a1;" horiz-adv-x="753" 
d="M165 17.5q-67 32.5 -103.5 90t-36.5 132.5t36.5 132.5t103.5 90t156 32.5q116 0 195 -55q50 1 70 21t20 63v34h142v-45q0 -71 -38 -122.5t-107 -67.5q14 -40 14 -83q0 -75 -36.5 -132.5t-103.5 -90t-156 -32.5t-156 32.5zM405.5 153.5q31.5 31.5 31.5 86.5t-31.5 86.5
t-84.5 31.5t-84.5 -31.5t-31.5 -86.5t31.5 -86.5t84.5 -31.5t84.5 31.5z" />
    <glyph glyph-name="Uhorn" unicode="&#x1af;" horiz-adv-x="907" 
d="M120 69.5q-80 84.5 -80 223.5v406h185v-403q0 -71 34 -106.5t99 -35.5t98.5 35.5t33.5 106.5v403h186v-67q46 0 62 18t16 63v34h148v-45q0 -89 -55 -142.5t-171 -53.5v-213q0 -139 -80 -223.5t-238 -84.5t-238 84.5z" />
    <glyph glyph-name="uhorn" unicode="&#x1b0;" horiz-adv-x="801" 
d="M89.5 40q-49.5 55 -49.5 145v295h176v-275q0 -83 75 -83q34 0 62 16t46 47v295h176v-39q46 0 62.5 19t16.5 64v34h142v-45q0 -90 -52.5 -143t-168.5 -53v-317h-170v52q-31 -33 -75 -50t-92 -17q-99 0 -148.5 55z" />
    <glyph glyph-name="uni01CD" unicode="&#x1cd;" horiz-adv-x="783" 
d="M158 923h175l60 -85l60 85h174l-156 -181h-157zM305 699h174l279 -699h-181l-56 144h-258l-56 -144h-182zM477 280l-85 235l-86 -235h171z" />
    <glyph glyph-name="uni01CE" unicode="&#x1ce;" horiz-adv-x="608" 
d="M99 706h175l60 -85l60 85h174l-156 -181h-157zM80.5 28.5q-55.5 43.5 -55.5 121.5q0 81 53.5 124.5t153.5 43.5q39 0 78 -8.5t67 -22.5v10q0 77 -126 77q-88 0 -161 -34v121q32 15 84 24.5t108 9.5q134 0 202.5 -53.5t68.5 -149.5v-292h-165v41q-27 -26 -68 -41t-94 -15
q-90 0 -145.5 43.5zM336 105.5q27 12.5 41 32.5v42q-43 29 -98 29q-35 0 -54 -15t-19 -44q0 -27 18.5 -42t53.5 -15q31 0 58 12.5z" />
    <glyph glyph-name="uni01CF" unicode="&#x1cf;" horiz-adv-x="267" 
d="M-102 923h175l60 -85l60 85h174l-156 -181h-157zM45 699h177v-699h-177v699z" />
    <glyph glyph-name="uni01D0" unicode="&#x1d0;" horiz-adv-x="252" 
d="M-109 710h175l60 -85l60 85h174l-156 -181h-157zM38 480h176v-480h-176v480z" />
    <glyph glyph-name="uni01D1" unicode="&#x1d1;" horiz-adv-x="800" 
d="M166 923h175l60 -85l60 85h174l-156 -181h-157zM209.5 31q-85.5 46 -135 128.5t-49.5 189.5t49.5 190t135 129t191.5 46q105 0 190.5 -46t134.5 -129t49 -190t-49 -189.5t-134.5 -128.5t-190.5 -46q-106 0 -191.5 46zM498 175q44 24 70 69t26 105t-25.5 104.5t-69.5 69
t-98 24.5q-55 0 -99 -24.5t-69.5 -69t-25.5 -104.5t25.5 -105t70 -69t98.5 -24q53 0 97 24z" />
    <glyph glyph-name="uni01D2" unicode="&#x1d2;" horiz-adv-x="642" 
d="M88 706h175l60 -85l60 85h174l-156 -181h-157zM165 17.5q-67 32.5 -103.5 90t-36.5 132.5t36.5 132.5t103.5 90t156 32.5t156 -32.5t103.5 -90t36.5 -132.5t-36.5 -132.5t-103.5 -90t-156 -32.5t-156 32.5zM405.5 153.5q31.5 31.5 31.5 86.5t-31.5 86.5t-84.5 31.5
t-84.5 -31.5t-31.5 -86.5t31.5 -86.5t84.5 -31.5t84.5 31.5z" />
    <glyph glyph-name="uni01D3" unicode="&#x1d3;" horiz-adv-x="715" 
d="M123 923h175l60 -85l60 85h174l-156 -181h-157zM120 69.5q-80 84.5 -80 223.5v406h177v-408q0 -70 37.5 -106t103.5 -36t103 36t37 106v408h177v-406q0 -140 -79.5 -224t-237.5 -84t-238 84.5z" />
    <glyph glyph-name="uni01D4" unicode="&#x1d4;" horiz-adv-x="620" 
d="M86 706h175l60 -85l60 85h174l-156 -181h-157zM89.5 40q-49.5 55 -49.5 145v295h176v-275q0 -83 75 -83q34 0 62 16t46 47v295h176v-480h-170v52q-31 -33 -75 -50t-92 -17q-99 0 -148.5 55z" />
    <glyph glyph-name="uni01D5" unicode="&#x1d5;" horiz-adv-x="715" 
d="M185 1052h345v-113h-345v113zM185 774q-23 22 -23 54t23 55t55 23q31 0 53.5 -23t22.5 -55t-22 -54t-54 -22t-55 22zM421 774q-23 22 -23 54t23 55t55 23q31 0 53.5 -23t22.5 -55t-22.5 -54t-53.5 -22q-32 0 -55 22zM120 69.5q-80 84.5 -80 223.5v406h177v-408
q0 -70 37.5 -106t103.5 -36t103 36t37 106v408h177v-406q0 -140 -79.5 -224t-237.5 -84t-238 84.5z" />
    <glyph glyph-name="uni01D6" unicode="&#x1d6;" horiz-adv-x="620" 
d="M141 845h345v-113h-345v113zM141 548q-23 22 -23 54t23 55t55 23q31 0 53.5 -23t22.5 -55t-22 -54t-54 -22t-55 22zM377 548q-23 22 -23 54t23 55t55 23q31 0 53.5 -23t22.5 -55t-22.5 -54t-53.5 -22q-32 0 -55 22zM89.5 40q-49.5 55 -49.5 145v295h176v-275
q0 -83 75 -83q34 0 62 16t46 47v295h176v-480h-170v52q-31 -33 -75 -50t-92 -17q-99 0 -148.5 55z" />
    <glyph glyph-name="uni01D7" unicode="&#x1d7;" horiz-adv-x="715" 
d="M351 1047h144l-70 -127h-124zM188 774q-23 22 -23 54t23 55t55 23q31 0 53.5 -23t22.5 -55t-22 -54t-54 -22t-55 22zM424 774q-23 22 -23 54t23 55t55 23q31 0 53.5 -23t22.5 -55t-22.5 -54t-53.5 -22q-32 0 -55 22zM120 69.5q-80 84.5 -80 223.5v406h177v-408
q0 -70 37.5 -106t103.5 -36t103 36t37 106v408h177v-406q0 -140 -79.5 -224t-237.5 -84t-238 84.5z" />
    <glyph glyph-name="uni01D8" unicode="&#x1d8;" horiz-adv-x="620" 
d="M304 821h144l-70 -127h-124zM141 548q-23 22 -23 54t23 55t55 23q31 0 53.5 -23t22.5 -55t-22 -54t-54 -22t-55 22zM377 548q-23 22 -23 54t23 55t55 23q31 0 53.5 -23t22.5 -55t-22.5 -54t-53.5 -22q-32 0 -55 22zM89.5 40q-49.5 55 -49.5 145v295h176v-275
q0 -83 75 -83q34 0 62 16t46 47v295h176v-480h-170v52q-31 -33 -75 -50t-92 -17q-99 0 -148.5 55z" />
    <glyph glyph-name="uni01D9" unicode="&#x1d9;" horiz-adv-x="715" 
d="M181 1028h128l48 -55l48 55h128l-125 -129h-102zM184.5 774q-22.5 22 -22.5 54t22.5 55t53.5 23q32 0 55 -23t23 -55t-23 -54t-55 -22q-31 0 -53.5 22zM420 774q-22 22 -22 54t22.5 55t53.5 23q32 0 55 -23t23 -55t-23 -54t-55 -22t-54 22zM120 69.5q-80 84.5 -80 223.5
v406h177v-408q0 -70 37.5 -106t103.5 -36t103 36t37 106v408h177v-406q0 -140 -79.5 -224t-237.5 -84t-238 84.5z" />
    <glyph glyph-name="uni01DA" unicode="&#x1da;" horiz-adv-x="620" 
d="M136 802h128l48 -55l48 55h128l-125 -129h-102zM139.5 548q-22.5 22 -22.5 54t22.5 55t53.5 23q32 0 55 -23t23 -55t-23 -54t-55 -22q-31 0 -53.5 22zM375 548q-22 22 -22 54t22.5 55t53.5 23q32 0 55 -23t23 -55t-23 -54t-55 -22t-54 22zM89.5 40q-49.5 55 -49.5 145
v295h176v-275q0 -83 75 -83q34 0 62 16t46 47v295h176v-480h-170v52q-31 -33 -75 -50t-92 -17q-99 0 -148.5 55z" />
    <glyph glyph-name="uni01DB" unicode="&#x1db;" horiz-adv-x="715" 
d="M226 1047h144l50 -127h-124zM188.5 774q-22.5 22 -22.5 54t22.5 55t53.5 23q32 0 55 -23t23 -55t-23 -54t-55 -22q-31 0 -53.5 22zM424 774q-22 22 -22 54t22.5 55t53.5 23q32 0 55 -23t23 -55t-23 -54t-55 -22t-54 22zM120 69.5q-80 84.5 -80 223.5v406h177v-408
q0 -70 37.5 -106t103.5 -36t103 36t37 106v408h177v-406q0 -140 -79.5 -224t-237.5 -84t-238 84.5z" />
    <glyph glyph-name="uni01DC" unicode="&#x1dc;" horiz-adv-x="620" 
d="M182 821h144l50 -127h-124zM144.5 548q-22.5 22 -22.5 54t22.5 55t53.5 23q32 0 55 -23t23 -55t-23 -54t-55 -22q-31 0 -53.5 22zM380 548q-22 22 -22 54t22.5 55t53.5 23q32 0 55 -23t23 -55t-23 -54t-55 -22t-54 22zM89.5 40q-49.5 55 -49.5 145v295h176v-275
q0 -83 75 -83q34 0 62 16t46 47v295h176v-480h-170v52q-31 -33 -75 -50t-92 -17q-99 0 -148.5 55z" />
    <glyph glyph-name="Gcaron" unicode="&#x1e6;" horiz-adv-x="695" 
d="M135 923h175l60 -85l60 85h174l-156 -181h-157zM205.5 29q-86.5 44 -133.5 126.5t-47 193.5t47 193.5t133.5 127t200.5 44.5q76 0 134.5 -14.5t108.5 -46.5v-168q-44 35 -99.5 50.5t-127.5 15.5q-62 0 -110.5 -24.5t-76.5 -70.5t-28 -107q0 -95 55.5 -150t150.5 -55
q53 0 89 18v112h-107v124h275v-348q-107 -65 -264 -65q-114 0 -200.5 44z" />
    <glyph glyph-name="gcaron" unicode="&#x1e7;" horiz-adv-x="665" 
d="M41 717h175l60 -85l60 85h174l-156 -181h-157zM209.5 -221q-48.5 9 -83.5 24v122q79 -34 180 -34q73 0 105.5 30t32.5 88v29q-29 -25 -71.5 -39t-90.5 -14q-76 0 -134 32t-90.5 90t-32.5 133q0 76 32 134t90 89.5t133 31.5q103 0 170 -63v48h170v-447q0 -125 -76.5 -194
t-237.5 -69q-48 0 -96.5 9zM399 142q32 21 45 56v84q-14 35 -46 55.5t-72 20.5q-54 0 -87 -31.5t-33 -85.5q0 -55 33 -87.5t87 -32.5q41 0 73 21z" />
    <glyph glyph-name="Aringacute" unicode="&#x1fa;" horiz-adv-x="783" 
d="M463 929h-163l69 142h185zM758 0h-181l-56 144h-258l-56 -144h-182l270 673q-21 19 -32.5 45.5t-11.5 55.5q0 38 19 70.5t51.5 51t70.5 18.5t71 -18.5t52 -51t19 -70.5q0 -29 -11.5 -55.5t-32.5 -45.5zM359.5 806.5q-13.5 -13.5 -13.5 -32.5t13.5 -32.5t32.5 -13.5
t32.5 13.5t13.5 32.5q0 20 -13 33t-33 13q-19 0 -32.5 -13.5zM477 280l-85 235l-86 -235h171z" />
    <glyph glyph-name="aringacute" unicode="&#x1fb;" horiz-adv-x="593" 
d="M272 968h185l-91 -142h-163zM223.5 543.5q-32.5 18.5 -51.5 50.5t-19 70t19 70.5t51.5 51t70.5 18.5t71 -18.5t52 -51t19 -70.5t-19 -70t-52 -50.5t-71 -18.5t-70.5 18.5zM326.5 631.5q13.5 13.5 13.5 32.5q0 20 -13 33t-33 13q-19 0 -32.5 -13.5t-13.5 -32.5t13.5 -32.5
t32.5 -13.5t32.5 13.5zM80.5 28.5q-55.5 43.5 -55.5 121.5q0 81 53.5 124.5t153.5 43.5q39 0 78 -8.5t67 -22.5v10q0 77 -126 77q-88 0 -161 -34v121q32 15 84 24.5t108 9.5q134 0 202.5 -53.5t68.5 -149.5v-292h-165v41q-27 -26 -68 -41t-94 -15q-90 0 -145.5 43.5z
M336 105.5q27 12.5 41 32.5v42q-43 29 -98 29q-35 0 -54 -15t-19 -44q0 -27 18.5 -42t53.5 -15q31 0 58 12.5z" />
    <glyph glyph-name="AEacute" unicode="&#x1fc;" horiz-adv-x="917" 
d="M527 920h185l-91 -178h-163zM331 699h561v-149h-290v-131h205v-139h-205v-131h290v-149h-468v145h-145l-64 -145h-190zM424 284v237h-1l-94 -237h95z" />
    <glyph glyph-name="aeacute" unicode="&#x1fd;" horiz-adv-x="960" 
d="M438 700h185l-91 -178h-163zM83.5 28q-58.5 43 -58.5 122q0 80 55 124t152 44q39 0 78 -8.5t67 -22.5v10q0 77 -126 77q-88 0 -161 -34v121q32 15 84 24.5t108 9.5q120 0 192 -61q35 29 83.5 45t105.5 16q86 0 147.5 -32.5t93 -89t31.5 -127.5v-61h-382q21 -80 158 -80
q47 0 96.5 8t85.5 22v-116q-37 -15 -91 -24.5t-111 -9.5q-68 0 -124 18.5t-95 53.5q-44 -35 -98.5 -53.5t-133.5 -18.5q-98 0 -156.5 43zM769 289q-4 40 -32 62.5t-77 22.5q-48 0 -75.5 -23t-31.5 -62h216zM335.5 104.5q26.5 11.5 41.5 31.5v44q-43 29 -98 29q-35 0 -54 -15
t-19 -44q0 -27 18.5 -42t53.5 -15q31 0 57.5 11.5z" />
    <glyph glyph-name="Oslashacute" unicode="&#x1fe;" horiz-adv-x="800" 
d="M357 919h185l-90 -177h-163zM206 33q-84 46 -132.5 128t-48.5 188q0 107 49.5 190t135 129t191.5 46q42 0 76 -7l31 77h132l-47 -117q84 -46 133 -129t49 -189q0 -107 -49 -189.5t-134.5 -128.5t-190.5 -46q-34 0 -80 7l-31 -78h-132zM410 541h-9q-53 0 -96 -23.5
t-67.5 -67t-24.5 -101.5q0 -47 16 -84.5t45 -62.5zM401 157q52 0 94.5 23.5t67.5 67t25 101.5q0 47 -16.5 85t-46.5 64l-137 -341h13z" />
    <glyph glyph-name="oslashacute" unicode="&#x1ff;" horiz-adv-x="642" 
d="M233 700h185l-91 -178h-163zM171 14q-69 31 -107.5 90t-38.5 136q0 75 36.5 132.5t103.5 90t156 32.5q16 0 42 -2l30 73h115l-40 -99q71 -31 110 -90.5t39 -136.5q0 -75 -36.5 -132.5t-103.5 -90t-156 -32.5q-16 0 -46 2l-29 -73h-115zM309 357q-48 -4 -76 -35t-28 -82
q0 -49 25 -80zM408.5 156.5q28.5 31.5 28.5 83.5q0 50 -27 82l-80 -200q50 3 78.5 34.5z" />
    <glyph glyph-name="Scommaaccent" unicode="&#x218;" horiz-adv-x="569" 
d="M132 -2.5q-65 12.5 -107 34.5v159q54 -28 112.5 -42t111.5 -14q49 0 74 15t25 43q0 21 -13.5 36.5t-39.5 28.5t-81 36q-97 41 -141 91t-44 123q0 60 33.5 107t93.5 73t138 26q64 0 114 -10t96 -32v-155q-88 46 -177 46q-48 0 -76.5 -15.5t-28.5 -44.5t29 -47t107 -49
q71 -29 110.5 -57t57.5 -65t18 -94q0 -97 -70.5 -151.5t-210.5 -54.5q-66 0 -131 12.5zM203 -49h181l-104 -210h-160z" />
    <glyph glyph-name="scommaaccent" unicode="&#x219;" horiz-adv-x="509" 
d="M131 -3.5q-63 11.5 -100 32.5v129q41 -24 98.5 -39.5t105.5 -15.5q35 0 51 5t16 20q0 12 -10.5 19.5t-38 16t-63.5 18.5q-61 18 -96 37t-52 48t-17 73q0 78 61.5 116.5t168.5 38.5q52 0 109.5 -11t86.5 -29v-127q-30 20 -79.5 33t-92.5 13q-34 0 -53 -6.5t-19 -22.5
q0 -15 19 -23t68 -20q32 -8 27 -7q64 -17 99 -38t49.5 -49.5t14.5 -72.5q0 -69 -59.5 -109.5t-172.5 -40.5q-58 0 -121 11.5zM185 -49h181l-104 -210h-160z" />
    <glyph glyph-name="uni021A" unicode="&#x21a;" horiz-adv-x="592" 
d="M207 550h-197v149h572v-149h-198v-550h-177v550zM201 -49h182l-105 -211h-160z" />
    <glyph glyph-name="uni021B" unicode="&#x21b;" horiz-adv-x="386" 
d="M118.5 34.5q-45.5 49.5 -45.5 135.5v188h-68v122h68v144h176v-144h110v-122h-110v-164q0 -39 14.5 -56t51.5 -17q33 0 66 18v-131q-26 -12 -55.5 -17.5t-72.5 -5.5q-89 0 -134.5 49.5zM156 -49h182l-105 -211h-160z" />
    <glyph glyph-name="uni0237" unicode="&#x237;" horiz-adv-x="271" 
d="M-90 -214v140q30 -14 68 -14q72 0 72 73v495h176v-516q0 -96 -60.5 -145.5t-159.5 -49.5q-59 0 -96 17z" />
    <glyph glyph-name="uni0251" unicode="&#x251;" horiz-adv-x="665" 
d="M147 16.5q-58 31.5 -90 89t-32 133.5q0 75 32 133.5t89.5 90.5t133.5 32q50 0 92 -14t72 -40v39h176v-480h-170v48q-67 -63 -170 -63q-75 0 -133 31.5zM398 141.5q32 20.5 46 55.5v85q-14 35 -46 55.5t-72 20.5q-54 0 -87 -32t-33 -87t33 -86.5t87 -31.5q40 0 72 20.5z
" />
    <glyph glyph-name="uni0259" unicode="&#x259;" horiz-adv-x="600" 
d="M149.5 17.5q-61.5 32.5 -93 89t-31.5 127.5v65h383q-10 40 -50 58t-109 18q-47 0 -96.5 -8t-85.5 -22v116q37 15 92.5 24.5t113.5 9.5q141 0 221.5 -66t80.5 -187q0 -119 -71.5 -188t-206.5 -69q-86 0 -147.5 32.5zM376 128.5q28 22.5 32 60.5h-217q4 -39 32 -61t77 -22
q48 0 76 22.5z" />
    <glyph glyph-name="uni02BB" unicode="&#x2bb;" horiz-adv-x="282" 
d="M108 714h149l-64 -200h-168z" />
    <glyph glyph-name="uni02BC" unicode="&#x2bc;" horiz-adv-x="282" 
d="M89 714h168l-83 -200h-149z" />
    <glyph glyph-name="uni02BE" unicode="&#x2be;" 
d="M-87 623q32 0 47 11t15 36q0 24 -15.5 35.5t-46.5 11.5v118q81 0 128 -41.5t47 -123.5t-47 -124t-128 -42v119z" />
    <glyph glyph-name="uni02BF" unicode="&#x2bf;" 
d="M-40 546q-47 42 -47 124t47 123.5t128 41.5v-118q-31 0 -46.5 -11.5t-15.5 -35.5q0 -25 15 -36t47 -11v-119q-81 0 -128 42z" />
    <glyph glyph-name="circumflex" unicode="&#x2c6;" horiz-adv-x="519" 
d="M181 757h157l156 -181h-174l-60 85l-60 -85h-175z" />
    <glyph glyph-name="caron" unicode="&#x2c7;" horiz-adv-x="519" 
d="M25 757h175l60 -85l60 85h174l-156 -181h-157z" />
    <glyph glyph-name="uni02C8" unicode="&#x2c8;" 
d="M-65 771h128v-200h-128v200z" />
    <glyph glyph-name="uni02C9" unicode="&#x2c9;" horiz-adv-x="589" 
d="M113 687h359v-113h-359v113z" />
    <glyph glyph-name="uni02CA" unicode="&#x2ca;" 
d="M-64 752h185l-91 -177h-163z" />
    <glyph glyph-name="uni02CB" unicode="&#x2cb;" 
d="M-43 752h163l-69 -177h-185z" />
    <glyph glyph-name="uni02CC" unicode="&#x2cc;" 
d="M-65 -56h128v-200h-128v200z" />
    <glyph glyph-name="breve" unicode="&#x2d8;" horiz-adv-x="416" 
d="M73 612.5q-48 46.5 -48 126.5h131q0 -62 52 -62q25 0 38.5 16t13.5 46h131q0 -80 -48 -126.5t-135 -46.5t-135 46.5z" />
    <glyph glyph-name="dotaccent" unicode="&#x2d9;" horiz-adv-x="204" 
d="M48 592q-23 22 -23 54t23 55t55 23q31 0 53.5 -23t22.5 -55t-22 -54t-54 -22t-55 22z" />
    <glyph glyph-name="ring" unicode="&#x2da;" horiz-adv-x="333" 
d="M95.5 530.5q-32.5 18.5 -51.5 50.5t-19 70t19 70.5t51.5 51t70.5 18.5t71 -18.5t52 -51t19 -70.5t-19 -70t-52 -50.5t-71 -18.5t-70.5 18.5zM198.5 618.5q13.5 13.5 13.5 32.5q0 20 -13 33t-33 13q-19 0 -32.5 -13.5t-13.5 -32.5t13.5 -32.5t32.5 -13.5t32.5 13.5z" />
    <glyph glyph-name="ogonek" unicode="&#x2db;" horiz-adv-x="284" 
d="M61.5 -192q-36.5 24 -36.5 73q0 38 19 68.5t52 50.5h160q-41 -22 -60 -42t-19 -42q0 -15 9 -24t25 -9q26 0 48 12v-96q-43 -15 -103 -15q-58 0 -94.5 24z" />
    <glyph glyph-name="tilde" unicode="&#x2dc;" horiz-adv-x="457" 
d="M25 706q35 42 105 42q22 0 44 -6t57 -19q30 -12 52 -18.5t44 -6.5q63 0 105 50v-128q-34 -41 -105 -41q-25 0 -49 6.5t-56 19.5q-32 12 -51.5 18t-40.5 6q-62 0 -105 -51v128z" />
    <glyph glyph-name="hungarumlaut" unicode="&#x2dd;" horiz-adv-x="540" 
d="M94 752h170l-91 -177h-148zM346 752h169l-90 -177h-148z" />
    <glyph glyph-name="gravecomb" unicode="&#x300;" 
d="M-509 745h185l69 -178h-163z" />
    <glyph glyph-name="acutecomb" unicode="&#x301;" 
d="M-346 745h185l-91 -178h-163z" />
    <glyph glyph-name="uni0302" unicode="&#x302;" 
d="M-79 757h157l156 -181h-174l-60 85l-60 -85h-175z" />
    <glyph glyph-name="tildecomb" unicode="&#x303;" 
d="M-512 706q35 42 105 42q22 0 44 -6t57 -19q30 -12 52 -18.5t44 -6.5q63 0 105 50v-128q-34 -41 -105 -41q-25 0 -49 6.5t-56 19.5q-32 12 -51.5 18t-40.5 6q-62 0 -105 -51v128z" />
    <glyph glyph-name="uni0304" unicode="&#x304;" 
d="M-167 687h345v-113h-345v113z" />
    <glyph glyph-name="uni0306" unicode="&#x306;" 
d="M-135 612.5q-48 46.5 -48 126.5h131q0 -62 52 -62q25 0 38.5 16t13.5 46h131q0 -80 -48 -126.5t-135 -46.5t-135 46.5z" />
    <glyph glyph-name="uni0307" unicode="&#x307;" 
d="M-55 592q-23 22 -23 54t23 55t55 23q31 0 53.5 -23t22.5 -55t-22 -54t-54 -22t-55 22z" />
    <glyph glyph-name="uni0308" unicode="&#x308;" 
d="M-173 592q-23 22 -23 54t23 55t55 23q31 0 53.5 -23t22.5 -55t-22 -54t-54 -22t-55 22zM63 592q-23 22 -23 54t23 55t55 23q31 0 53.5 -23t22.5 -55t-22.5 -54t-53.5 -22q-32 0 -55 22z" />
    <glyph glyph-name="hookabovecomb" unicode="&#x309;" 
d="M-438 636q39 0 59.5 9t20.5 31q0 33 -59 33q-13 0 -30.5 -3t-26.5 -7v84q22 7 56 11.5t64 4.5q77 0 117.5 -28.5t40.5 -77.5q0 -37 -23.5 -64.5t-64.5 -37.5v-25h-154v70z" />
    <glyph glyph-name="uni030A" unicode="&#x30a;" 
d="M-62.5 530.5q-32.5 18.5 -51.5 50.5t-19 70t19 70.5t51.5 51t70.5 18.5t71 -18.5t52 -51t19 -70.5t-19 -70t-52 -50.5t-71 -18.5t-70.5 18.5zM40.5 618.5q13.5 13.5 13.5 32.5q0 20 -13 33t-33 13q-19 0 -32.5 -13.5t-13.5 -32.5t13.5 -32.5t32.5 -13.5t32.5 13.5z" />
    <glyph glyph-name="uni030B" unicode="&#x30b;" 
d="M-190 752h170l-91 -177h-148zM62 752h169l-90 -177h-148z" />
    <glyph glyph-name="uni030C" unicode="&#x30c;" 
d="M-235 757h175l60 -85l60 85h174l-156 -181h-157z" />
    <glyph glyph-name="uni031B" unicode="&#x31b;" 
d="M-103 634q45 0 63.5 18.5t18.5 60.5v34h140v-45q0 -85 -56 -137t-166 -52v121z" />
    <glyph glyph-name="dotbelowcomb" unicode="&#x323;" 
d="M-55 -177.5q-23 22.5 -23 54.5t23 54.5t55 22.5t54 -22.5t22 -54.5t-22 -54.5t-54 -22.5t-55 22.5z" />
    <glyph glyph-name="uni0324" unicode="&#x324;" 
d="M-167 -177.5q-23 22.5 -23 54.5t23 54.5t54 22.5q32 0 54.5 -22.5t22.5 -54.5t-22.5 -54.5t-54.5 -22.5q-31 0 -54 22.5zM57.5 -177.5q-22.5 22.5 -22.5 54.5t22.5 54.5t54.5 22.5t54 -22.5t22 -54.5t-22 -54.5t-54 -22.5t-54.5 22.5z" />
    <glyph glyph-name="uni0326" unicode="&#x326;" 
d="M-207 -49h182l-105 -211h-160z" />
    <glyph glyph-name="uni0327" unicode="&#x327;" 
d="M-83.5 -244q-31.5 4 -47.5 10v85q26 -14 61 -14q24 0 37 9t13 25q0 19 -22.5 29.5t-75.5 10.5l34 89h155l-18 -46q44 -7 66.5 -29.5t22.5 -65.5q0 -53 -43 -80t-117 -27q-34 0 -65.5 4z" />
    <glyph glyph-name="uni0328" unicode="&#x328;" 
d="M-77.5 -192q-36.5 24 -36.5 73q0 38 19 68.5t52 50.5h160q-41 -22 -60 -42t-19 -42q0 -15 9 -24t25 -9q26 0 48 12v-96q-43 -15 -103 -15q-58 0 -94.5 24z" />
    <glyph glyph-name="uni032E" unicode="&#x32e;" 
d="M-135 -180.5q-48 46.5 -48 126.5h131q0 -62 52 -62q25 0 38.5 16t13.5 46h131q0 -80 -48 -126.5t-135 -46.5t-135 46.5z" />
    <glyph glyph-name="uni0331" unicode="&#x331;" 
d="M-167 -59h345v-113h-345v113z" />
    <glyph glyph-name="uni0394" unicode="&#x394;" horiz-adv-x="685" 
d="M25 125l245 589h145l245 -589v-125h-635v125zM485 151l-143 347l-143 -347h286z" />
    <glyph glyph-name="uni03A9" unicode="&#x3a9;" horiz-adv-x="802" 
d="M25 149h103q-47 40 -74.5 98.5t-27.5 128.5q0 101 46.5 177.5t131.5 118.5t197 42q113 0 198 -42t131 -118.5t46 -177.5q0 -70 -27.5 -128.5t-74.5 -98.5h103v-149h-330v133q148 83 148 221q0 88 -53 140.5t-141 52.5q-87 0 -140 -52.5t-53 -140.5q0 -138 148 -221v-133
h-331v149z" />
    <glyph glyph-name="uni03BC" unicode="&#x3bc;" horiz-adv-x="625" 
d="M45 480h176v-275q0 -83 75 -83q34 0 62 16t46 47v295h176v-480h-170v52q-31 -33 -75 -50t-92 -17q-15 0 -22 1v-205h-176v699z" />
    <glyph glyph-name="pi" unicode="&#x3c0;" horiz-adv-x="675" 
d="M518 -12q-77 7 -115 55t-38 130v158h-100v-331h-177v331h-73v149h600v-149h-73v-140q0 -36 13 -52t44 -16q32 0 61 17v-134q-47 -20 -108 -20q-10 0 -34 2z" />
    <glyph glyph-name="uni0E01" unicode="&#xe01;" horiz-adv-x="653" 
d="M70 312l-50 87q122 151 311 151q133 0 205 -58.5t72 -161.5v-330h-176v316q0 97 -101 97q-74 0 -122 -41l37 -63v-309h-176v312z" />
    <glyph glyph-name="uni0E02" unicode="&#xe02;" horiz-adv-x="618" 
d="M157 10q-61 25 -93 69t-32 100v26q0 37 13 64.5t37 62.5q15 21 22 33.5t7 24.5q0 26 -31 26h-55v119h165q47 0 74 -26t27 -68q0 -30 -11 -55t-32 -55q-20 -33 -30 -54.5t-10 -48.5v-18q0 -43 24 -65.5t71 -22.5q49 0 71.5 24.5t22.5 67.5v321h176v-310q0 -112 -68.5 -176
t-201.5 -64q-85 0 -146 25z" />
    <glyph glyph-name="uni0E03" unicode="&#xe03;" horiz-adv-x="634" 
d="M173 10q-61 25 -92.5 69t-31.5 100v28q0 37 16.5 67.5t47.5 71.5q21 26 27 38q-17 -7 -41 -7q-74 0 -74 86v72h121v-35q0 -27 25 -27q18 0 27 9v53h122v-84q0 -33 -13 -60t-39 -64q-22 -32 -32.5 -52.5t-10.5 -43.5v-22q0 -43 24 -65t70 -22q48 0 71 24t23 67v322h176
v-310q0 -112 -68.5 -176t-201.5 -64q-85 0 -146 25z" />
    <glyph glyph-name="uni0E04" unicode="&#xe04;" horiz-adv-x="658" 
d="M45 319q0 114 77 172.5t207 58.5q131 0 207.5 -58.5t76.5 -172.5v-319h-176v316q0 97 -108 97t-108 -97v-64q13 14 34 22.5t45 8.5h74v-127h-81q-32 0 -52 -18.5t-20 -51.5v-86h-176v319z" />
    <glyph glyph-name="uni0E05" unicode="&#xe05;" horiz-adv-x="658" 
d="M45 373q0 80 43 128.5t125 48.5q40 0 70 -12.5t46 -36.5q16 24 46 36.5t70 12.5q83 0 125.5 -48.5t42.5 -128.5v-373h-176v359q0 28 -8 41t-30 13q-17 0 -25.5 -11.5t-13.5 -34.5h-62q-5 24 -13.5 35t-25.5 11q-22 0 -30 -13t-8 -41v-107q12 14 32.5 22.5t46.5 8.5h74
v-127h-81q-33 0 -52.5 -19.5t-19.5 -50.5v-86h-176v373z" />
    <glyph glyph-name="uni0E06" unicode="&#xe06;" horiz-adv-x="643" 
d="M295 3.5q-46 18.5 -79 51.5v-55h-167v207q0 37 16.5 67.5t47.5 71.5q21 26 27 38q-17 -7 -41 -7q-74 0 -74 86v72h121v-35q0 -27 25 -27q18 0 27 9v53h122v-84q0 -33 -13 -60t-39 -64q-22 -32 -32.5 -52.5t-10.5 -43.5v-46q19 -32 45 -47.5t63 -15.5q43 0 66 21t23 63
v329h176v-340q0 -60 -24 -107.5t-71 -75t-113 -27.5q-49 0 -95 18.5z" />
    <glyph glyph-name="uni0E07" unicode="&#xe07;" horiz-adv-x="649" 
d="M25 468h175l110 -340q63 0 98 41.5t35 117.5q0 126 -97 126q-33 0 -60 -10v132q19 7 46.5 11t53.5 4q121 0 179.5 -68t58.5 -195q0 -90 -40 -155t-107 -98.5t-148 -33.5h-153z" />
    <glyph glyph-name="uni0E08" unicode="&#xe08;" horiz-adv-x="590" 
d="M35 294h175l41 -166q56 0 94.5 36.5t38.5 100.5q0 72 -39.5 110t-142.5 38q-46 0 -95.5 -10t-81.5 -26v136q40 17 96.5 27t114.5 10q159 0 244 -73.5t85 -208.5q0 -82 -40.5 -143t-109 -93t-150.5 -32h-157z" />
    <glyph glyph-name="uni0E09" unicode="&#xe09;" horiz-adv-x="620" 
d="M82 41q-52 56 -52 152v109h176v-98q0 -82 84 -82q35 0 64 16.5t45 46.5v89q0 71 -37 105t-134 34q-49 0 -110.5 -10t-92.5 -26v136q40 16 105.5 26.5t123.5 10.5q172 0 246.5 -68t74.5 -201v-281h-167v55q-29 -33 -75.5 -51.5t-100.5 -18.5q-98 0 -150 56z" />
    <glyph glyph-name="uni0E0A" unicode="&#xe0a;" horiz-adv-x="621" 
d="M157 10q-61 25 -93 69t-32 100v26q0 37 13 64.5t37 62.5q15 21 22 33.5t7 24.5q0 26 -31 26h-55v119h165q47 0 74 -26t27 -68q0 -30 -11 -55t-32 -55q-20 -33 -30 -54.5t-10 -48.5v-18q0 -43 24 -65.5t71 -22.5q98 0 98 106q0 56 -21.5 84.5t-62.5 28.5v80l93 129h186
l-108 -149q48 -27 69 -69t21 -107q0 -71 -32 -125t-94 -84.5t-149 -30.5q-85 0 -146 25z" />
    <glyph glyph-name="uni0E0B" unicode="&#xe0b;" horiz-adv-x="645" 
d="M181 10q-61 25 -93 69t-32 100v28q0 38 16.5 70.5t44.5 71.5l23 35q-17 -7 -41 -7q-74 0 -74 86v72h121v-35q0 -27 25 -27q18 0 27 9v53h122v-84q0 -33 -12 -60t-36 -64q-20 -31 -30 -52t-10 -44v-21q0 -43 24 -65.5t71 -22.5q98 0 98 106q0 56 -21.5 84.5t-62.5 28.5v80
l93 129h186l-108 -149q48 -27 69 -69t21 -107q0 -71 -32 -125t-94 -84.5t-149 -30.5q-85 0 -146 25z" />
    <glyph glyph-name="uni0E0C" unicode="&#xe0c;" horiz-adv-x="993" 
d="M652.5 3q-43.5 18 -76.5 52v-55h-164v316q0 50 -22.5 73.5t-68.5 23.5q-33 0 -60 -9.5t-52 -31.5l37 -63v-141q0 -22 10.5 -31.5t33.5 -9.5h47v-127h-145q-58 0 -90 33.5t-32 92.5v186l-50 87q122 151 301 151q128 0 196 -59t68 -161v-145q38 -63 103 -63q39 0 61.5 21.5
t22.5 62.5v329h176v-340q0 -93 -52.5 -151.5t-150.5 -58.5q-49 0 -92.5 18z" />
    <glyph glyph-name="uni0E0D" unicode="&#xe0d;" horiz-adv-x="1003" 
d="M576.5 -88q-55.5 10 -92.5 28v128q95 -48 208 -48q58 0 96 14t38 41q0 8 -3 17q-60 -27 -140 -27q-85 0 -146 29t-93 80.5t-32 119.5v22q0 50 -22.5 73.5t-68.5 23.5q-33 0 -60 -9.5t-52 -31.5l37 -63v-141q0 -22 10.5 -31.5t33.5 -9.5h47v-127h-145q-58 0 -90 33.5
t-32 92.5v186l-50 87q122 151 301 151q128 0 196 -59t68 -161v-18q0 -55 22.5 -82.5t75.5 -27.5q52 0 75 28t23 82v223h176v-241q0 -65 -32 -117q48 -44 48 -109q0 -52 -37 -89.5t-101 -57t-143 -19.5q-60 0 -115.5 10z" />
    <glyph glyph-name="uni0E0E" unicode="&#xe0e;" horiz-adv-x="667" 
d="M154 -96q32 25 77.5 38.5t93.5 13.5q72 0 121 -26v386q0 97 -102 97q-68 0 -117 -39l52 -65v-182q0 -59 -31.5 -93t-90.5 -34h-132v127h41q23 0 30 7.5t7 30.5v147l-70 87q55 72 134 111.5t178 39.5q133 0 205 -58.5t72 -161.5v-551h-148q-58 49 -149 49
q-47 0 -92.5 -14.5t-78.5 -41.5v132z" />
    <glyph glyph-name="uni0E0F" unicode="&#xe0f;" horiz-adv-x="667" 
d="M148 -215q-32 9 -53 25v127q44 -30 102 -30q32 0 55 15.5t30 45.5h83l81 -47v395q0 97 -102 97q-68 0 -117 -39l52 -65v-182q0 -59 -31.5 -93t-90.5 -34h-132v127h41q23 0 30 7.5t7 30.5v147l-70 87q55 72 134 111.5t178 39.5q133 0 205 -58.5t72 -161.5v-551h-157
l-109 63q-45 -66 -142 -66q-34 0 -66 9z" />
    <glyph glyph-name="uni0E10" unicode="&#xe10;" horiz-adv-x="619" 
d="M35 294h175l41 -166q56 0 94.5 36.5t38.5 100.5q0 72 -39.5 110t-142.5 38q-46 0 -95.5 -10t-81.5 -26v136q40 17 96.5 27t114.5 10q90 0 160 -25l43 50h190l-118 -136q54 -63 54 -171q0 -82 -40.5 -143t-109 -93t-150.5 -32h-157zM81.5 -215q-32.5 9 -53.5 25v117
q44 -30 102 -30q66 0 85 64h79l85 -50v69h175v-201h-154l-111 65q-23 -36 -56.5 -52t-84.5 -16q-34 0 -66.5 9z" />
    <glyph glyph-name="uni0E11" unicode="&#xe11;" horiz-adv-x="647" 
d="M60 207q0 38 16 72t43 72q18 27 21 33q-17 -7 -41 -7q-74 0 -74 86v72h121v-35q0 -27 25 -27q18 0 27 9v53h122v-35q26 23 62.5 36.5t75.5 13.5q73 0 108.5 -44.5t35.5 -124.5v-381h-176v362q0 22 -11 35.5t-33 13.5q-21 0 -42.5 -9.5t-38.5 -27.5q-9 -24 -28 -54
q-19 -29 -28 -53t-9 -61v-206h-176v207z" />
    <glyph glyph-name="uni0E12" unicode="&#xe12;" horiz-adv-x="1051" 
d="M98.5 54q-73.5 69 -73.5 202q0 91 28 157.5t76.5 101.5t110.5 35q36 0 63.5 -13.5t44.5 -35.5q18 25 50.5 37t73.5 12q81 0 126 -47.5t45 -123.5v-194q38 -63 103 -63q39 0 61.5 21.5t22.5 62.5v329h176v-340q0 -93 -52.5 -151.5t-150.5 -58.5q-49 0 -92.5 18t-76.5 52
v-55h-164v359q0 28 -8.5 41t-29.5 13q-20 0 -30.5 -12.5t-16.5 -36.5h-71q-3 24 -12 36.5t-27 12.5q-31 0 -50 -40t-19 -117q0 -68 31 -101t95 -33q34 0 67 12v-135q-45 -14 -101 -14q-126 0 -199.5 69z" />
    <glyph glyph-name="uni0E13" unicode="&#xe13;" horiz-adv-x="990" 
d="M463.5 43.5q-51.5 58.5 -51.5 151.5v121q0 50 -22.5 73.5t-68.5 23.5q-33 0 -60 -9.5t-52 -31.5l37 -63v-141q0 -22 10.5 -31.5t33.5 -9.5h47v-127h-145q-58 0 -90 33.5t-32 92.5v186l-50 87q122 151 301 151q128 0 196 -59t68 -161v-124q0 -41 22.5 -62.5t61.5 -21.5
q62 0 100 63v350h176v-535h-164v55q-33 -34 -76.5 -52t-92.5 -18q-97 0 -148.5 58.5z" />
    <glyph glyph-name="uni0E14" unicode="&#xe14;" horiz-adv-x="696" 
d="M99 52q-74 67 -74 199q0 93 39 160t111 103t171 36q156 0 230.5 -71.5t74.5 -191.5v-287h-176v288q0 61 -30 93t-99 32q-63 0 -101.5 -42t-38.5 -120q0 -68 31.5 -98.5t94.5 -30.5q34 0 67 12v-135q-45 -14 -101 -14q-125 0 -199 67z" />
    <glyph glyph-name="uni0E15" unicode="&#xe15;" horiz-adv-x="696" 
d="M94.5 52.5q-69.5 67.5 -69.5 203.5q0 91 28 157.5t77.5 101.5t110.5 35q37 0 65 -13.5t45 -35.5q36 49 125 49q81 0 128 -47.5t47 -123.5v-379h-176v359q0 27 -9 40.5t-30 13.5q-38 0 -48 -49h-71q-7 49 -42 49q-31 0 -50 -40t-19 -117q0 -69 30 -101.5t96 -32.5
q34 0 67 12v-135q-45 -14 -101 -14q-134 0 -203.5 67.5z" />
    <glyph glyph-name="uni0E16" unicode="&#xe16;" horiz-adv-x="653" 
d="M102 33.5q-32 33.5 -32 92.5v186l-50 87q122 151 311 151q133 0 205 -58.5t72 -161.5v-330h-176v316q0 97 -101 97q-74 0 -122 -41l37 -63v-141q0 -22 10.5 -31.5t33.5 -9.5h47v-127h-145q-58 0 -90 33.5z" />
    <glyph glyph-name="uni0E17" unicode="&#xe17;" horiz-adv-x="639" 
d="M45 535h167v-56q34 34 81.5 52.5t95.5 18.5q102 0 153.5 -54t51.5 -144v-352h-176v332q0 81 -83 81q-36 0 -65.5 -15.5t-48.5 -47.5v-350h-176v535z" />
    <glyph glyph-name="uni0E18" unicode="&#xe18;" horiz-adv-x="566" 
d="M95 29.5q-68 44.5 -68 119.5v63h173v-46q0 -31 22.5 -45t61.5 -14q36 0 56.5 13.5t20.5 37.5q0 25 -11.5 38t-38 21.5t-86.5 21.5q-103 21 -151.5 54.5t-48.5 98.5q0 79 70 118.5t181 39.5q65 0 131 -12.5t101 -31.5v-133q-34 22 -91.5 36t-112.5 14q-49 0 -74 -6.5
t-25 -24.5q0 -16 20 -24.5t71 -19.5l64 -15q69 -18 108.5 -40.5t56 -54.5t16.5 -80q0 -50 -29.5 -89t-87.5 -61.5t-140 -22.5q-121 0 -189 44.5z" />
    <glyph glyph-name="uni0E19" unicode="&#xe19;" horiz-adv-x="639" 
d="M140 12.5q-47 27.5 -71 75t-24 107.5v340h176v-329q0 -42 23 -63t66 -21q37 0 63 15.5t45 47.5v350h176v-535h-167v55q-33 -33 -79 -51.5t-95 -18.5q-66 0 -113 27.5z" />
    <glyph glyph-name="uni0E1A" unicode="&#xe1a;" horiz-adv-x="656" 
d="M179 14.5q-64 29.5 -99 82.5t-35 120v318h176v-303q0 -54 25.5 -82t81.5 -28q107 0 107 110v303h176v-318q0 -67 -35 -120t-99 -82.5t-149 -29.5t-149 29.5z" />
    <glyph glyph-name="uni0E1B" unicode="&#xe1b;" horiz-adv-x="656" 
d="M179 14.5q-64 29.5 -99 82.5t-35 120v318h176v-303q0 -54 25.5 -82t81.5 -28q107 0 107 110v482h176v-497q0 -67 -35 -120t-99 -82.5t-149 -29.5t-149 29.5z" />
    <glyph glyph-name="uni0E1C" unicode="&#xe1c;" horiz-adv-x="670" 
d="M45 406q0 61 33 95t94 34h126v-127h-36q-23 0 -32.5 -9.5t-9.5 -33.5v-149l88 129h55l87 -129v319h175v-535h-158l-132 192l-132 -192h-158v406z" />
    <glyph glyph-name="uni0E1D" unicode="&#xe1d;" horiz-adv-x="670" 
d="M45 406q0 61 33 95t94 34h126v-127h-36q-23 0 -32.5 -9.5t-9.5 -33.5v-149l88 129h55l87 -129v498h175v-714h-158l-132 192l-132 -192h-158v406z" />
    <glyph glyph-name="uni0E1E" unicode="&#xe1e;" horiz-adv-x="797" 
d="M15 535h176l64 -295l81 295h125l81 -295l64 295h176l-149 -535h-150l-85 299l-84 -299h-150z" />
    <glyph glyph-name="uni0E1F" unicode="&#xe1f;" horiz-adv-x="774" 
d="M15 535h176l64 -295l81 295h125l81 -295l101 474h166l-176 -714h-150l-85 299l-84 -299h-150z" />
    <glyph glyph-name="uni0E20" unicode="&#xe20;" horiz-adv-x="662" 
d="M20 127h41q23 0 30 7.5t7 30.5v147l-70 87q55 72 134 111.5t178 39.5q133 0 205 -58.5t72 -161.5v-330h-176v316q0 97 -102 97q-68 0 -117 -39l52 -65v-182q0 -59 -31.5 -93t-90.5 -34h-132v127z" />
    <glyph glyph-name="uni0E21" unicode="&#xe21;" horiz-adv-x="639" 
d="M291 3.5q-46 18.5 -79 51.5v-55h-167v535h176v-350q19 -32 45 -47.5t63 -15.5q43 0 66 21t23 63v329h176v-340q0 -60 -24 -107.5t-71 -75t-113 -27.5q-49 0 -95 18.5z" />
    <glyph glyph-name="uni0E22" unicode="&#xe22;" horiz-adv-x="652" 
d="M102.5 29.5q-77.5 44.5 -77.5 131.5q0 38 19 67.5t52 45.5q-30 17 -48.5 48.5t-18.5 68.5q0 72 52.5 115.5t152.5 43.5q29 0 60 -4.5t47 -9.5v-128q-14 7 -33.5 11t-35.5 4q-62 0 -62 -46q0 -48 63 -48h68v-110h-68q-67 0 -67 -51q0 -58 105 -58q62 0 91 25.5t29 76.5
v324h176v-323q0 -57 -30 -109t-96 -85.5t-170 -33.5q-131 0 -208.5 44.5z" />
    <glyph glyph-name="uni0E23" unicode="&#xe23;" horiz-adv-x="524" 
d="M130 -3.5q-63 11.5 -99 33.5v132q43 -25 98.5 -40t99.5 -15q46 0 68 8.5t22 29.5q0 19 -21 30t-78 29l-31 10q-85 28 -124.5 65.5t-39.5 103.5q0 80 64 123.5t171 43.5q60 0 116 -12t90 -31v-134q-32 22 -80.5 36t-92.5 14q-88 0 -88 -40q0 -20 22.5 -31t74.5 -26l38 -12
q91 -28 125 -68.5t34 -103.5q0 -71 -61.5 -114t-183.5 -43q-61 0 -124 11.5z" />
    <glyph glyph-name="uni0E24" unicode="&#xe24;" horiz-adv-x="653" 
d="M432 316q0 97 -101 97q-74 0 -122 -41l37 -63v-141q0 -22 10.5 -31.5t33.5 -9.5h47v-127h-145q-58 0 -90 33.5t-32 92.5v186l-50 87q122 151 311 151q133 0 205 -58.5t72 -161.5v-526h-176v512z" />
    <glyph glyph-name="uni0E25" unicode="&#xe25;" horiz-adv-x="631" 
d="M77.5 29.5q-52.5 44.5 -52.5 129.5q0 87 59.5 135.5t162.5 48.5q44 0 87.5 -8t75.5 -22v17q0 46 -33 68.5t-109 22.5q-49 0 -98 -10.5t-86 -27.5v128q34 17 93 28t123 11q147 0 216.5 -59t69.5 -162v-329h-176v192q-52 27 -118 27q-45 0 -65.5 -14.5t-20.5 -45.5
q0 -57 77 -57q30 0 53 10v-113q-42 -14 -116 -14q-90 0 -142.5 44.5z" />
    <glyph glyph-name="uni0E26" unicode="&#xe26;" horiz-adv-x="662" 
d="M441 316q0 97 -102 97q-68 0 -117 -39l52 -65v-182q0 -59 -31.5 -93t-90.5 -34h-132v127h41q23 0 30 7.5t7 30.5v147l-70 87q55 72 134 111.5t178 39.5q133 0 205 -58.5t72 -161.5v-526h-176v512z" />
    <glyph glyph-name="uni0E27" unicode="&#xe27;" horiz-adv-x="559" 
d="M114 -4q-53 11 -89 33v136q63 -43 167 -43q76 0 118.5 35.5t42.5 109.5t-42.5 110t-118.5 36q-102 0 -163 -43v136q35 21 88.5 32.5t113.5 11.5q143 0 223 -74t80 -209q0 -134 -80 -208t-223 -74q-64 0 -117 11z" />
    <glyph glyph-name="uni0E28" unicode="&#xe28;" horiz-adv-x="672" 
d="M45 319q0 114 77 172.5t207 58.5q59 0 110 -16l33 41h190l-98 -115q49 -49 49 -141v-319h-176v316q0 97 -108 97t-108 -97v-64q13 14 34 22.5t45 8.5h74v-127h-81q-32 0 -52 -18.5t-20 -51.5v-86h-176v319z" />
    <glyph glyph-name="uni0E29" unicode="&#xe29;" horiz-adv-x="668" 
d="M179 14.5q-64 29.5 -99 82.5t-35 120v318h176v-303q0 -54 25.5 -82t81.5 -28q107 0 107 110v26h-98v127h98v150h176v-150h47v-127h-47v-41q0 -67 -35 -120t-99 -82.5t-149 -29.5t-149 29.5z" />
    <glyph glyph-name="uni0E2A" unicode="&#xe2a;" horiz-adv-x="644" 
d="M77.5 29.5q-52.5 44.5 -52.5 129.5q0 87 59.5 135.5t162.5 48.5q44 0 87.5 -8t75.5 -22v17q0 46 -33 68.5t-109 22.5q-49 0 -98 -10.5t-86 -27.5v128q34 17 93 28t123 11q66 0 111 -15l33 40h190l-97 -111q25 -24 37 -62.5t12 -80.5v-321h-176v192q-52 27 -118 27
q-45 0 -65.5 -14.5t-20.5 -45.5q0 -57 77 -57q30 0 53 10v-113q-42 -14 -116 -14q-90 0 -142.5 44.5z" />
    <glyph glyph-name="uni0E2B" unicode="&#xe2b;" horiz-adv-x="636" 
d="M45 535h176v-171l175 171h200l-142 -139q76 -23 106.5 -67.5t30.5 -119.5v-209h-176v192q0 44 -14.5 65.5t-53.5 31.5l-126 -118v-171h-176v535z" />
    <glyph glyph-name="uni0E2C" unicode="&#xe2c;" horiz-adv-x="677" 
d="M45 535h175v-314l89 139h58l88 -139v168q0 48 -20.5 69.5t-73.5 21.5v85l103 149h198l-115 -161q49 -21 66 -56.5t17 -99.5v-397h-158l-134 205l-135 -205h-158v535z" />
    <glyph glyph-name="uni0E2D" unicode="&#xe2d;" horiz-adv-x="622" 
d="M137.5 -1.5q-68.5 13.5 -112.5 35.5v282h266v-118h-96v-62q13 -6 35 -10t45 -4q70 0 105.5 37.5t35.5 110.5q0 76 -41.5 109.5t-142.5 33.5q-52 0 -107.5 -10t-91.5 -28v136q41 18 105 28.5t130 10.5q159 0 244 -73t85 -207q0 -88 -37.5 -152t-110 -98.5t-174.5 -34.5
q-69 0 -137.5 13.5z" />
    <glyph glyph-name="uni0E2E" unicode="&#xe2e;" horiz-adv-x="640" 
d="M137.5 -1.5q-68.5 13.5 -112.5 35.5v282h266v-118h-96v-62q13 -6 35 -10t45 -4q70 0 105.5 37.5t35.5 110.5q0 76 -41.5 109.5t-142.5 33.5q-52 0 -107.5 -10t-91.5 -28v136q41 18 105 28.5t130 10.5q79 0 136 -21l36 46h190l-102 -118q69 -66 69 -187q0 -88 -37.5 -152
t-110 -98.5t-174.5 -34.5q-69 0 -137.5 13.5z" />
    <glyph glyph-name="uni0E2F" unicode="&#xe2f;" horiz-adv-x="600" 
d="M379 228q-30 -14 -69.5 -22t-80.5 -8q-92 0 -148 46.5t-56 129.5q0 84 53 130t138 46q67 0 108 -15v-112q-25 9 -53 9q-30 0 -47.5 -13.5t-17.5 -41.5q0 -55 73 -55q56 0 100 28v185h176v-535h-176v228z" />
    <glyph glyph-name="uni0E30" unicode="&#xe30;" horiz-adv-x="350" 
d="M49.5 330q-24.5 23 -24.5 70v92h157v-45q0 -23 25 -23h118v-117h-199q-52 0 -76.5 23zM49.5 62.5q-24.5 23.5 -24.5 70.5v92h157v-46q0 -23 25 -23h118v-117h-199q-52 0 -76.5 23.5z" />
    <glyph glyph-name="uni0E31" unicode="&#xe31;" 
d="M-357 692v89h157v-53q0 -13 5.5 -18t18.5 -5h218v-110h-297q-102 0 -102 97z" />
    <glyph glyph-name="uni0E32" unicode="&#xe32;" horiz-adv-x="416" 
d="M195 324q0 45 -20.5 67t-70.5 22q-49 0 -99 -25v132q23 12 64.5 21t79.5 9q108 0 165 -56.5t57 -163.5v-330h-176v324z" />
    <glyph glyph-name="uni0E33" unicode="&#xe33;" horiz-adv-x="413" 
d="M-230 608.5q-37 36.5 -37 89.5q0 35 17 64.5t46.5 46.5t63.5 17t63.5 -17t46.5 -46.5t17 -64.5q0 -53 -37 -89.5t-90 -36.5t-90 36.5zM-114 670.5q11 11.5 11 26.5q0 16 -10.5 27t-26.5 11t-26.5 -11t-10.5 -27q0 -15 11 -26.5t26 -11.5t26 11.5zM192 324q0 45 -20.5 67
t-70.5 22q-49 0 -99 -25v132q23 12 64.5 21t79.5 9q108 0 165 -56.5t57 -163.5v-330h-176v324z" />
    <glyph glyph-name="uni0E34" unicode="&#xe34;" 
d="M-524 705h478v-110h-478v110z" />
    <glyph glyph-name="uni0E35" unicode="&#xe35;" 
d="M-524 705h319v105h159v-215h-478v110z" />
    <glyph glyph-name="uni0E36" unicode="&#xe36;" 
d="M-524 705h269q-2 50 30 84.5t83 34.5q52 0 84 -33t32 -81q0 -50 -35 -82.5t-88 -32.5h-375v110zM-113.5 682.5q11.5 11.5 11.5 27.5t-11.5 28t-27.5 12q-17 0 -28.5 -11.5t-11.5 -28.5q0 -16 12 -27.5t28 -11.5t27.5 11.5z" />
    <glyph glyph-name="uni0E37" unicode="&#xe37;" 
d="M-524 705h178v105h121v-105h58v105h121v-215h-478v110z" />
    <glyph glyph-name="uni0E38" unicode="&#xe38;" 
d="M-202 -186q0 19 -7 26.5t-26 7.5h-31v110h116q57 0 81 -26t24 -83v-128h-157v93z" />
    <glyph glyph-name="uni0E39" unicode="&#xe39;" 
d="M-320.5 -254.5q-43.5 30.5 -43.5 81.5v17q0 13 -4.5 18t-16.5 5h-33v91h126q32 0 44 -14t12 -44v-54q0 -15 8.5 -23.5t24.5 -8.5q32 0 32 32v112h128v-127q0 -51 -40 -83.5t-114 -32.5q-80 0 -123.5 30.5z" />
    <glyph glyph-name="uni0E3A" unicode="&#xe3a;" 
d="M-190.5 -188.5q-25.5 25.5 -25.5 61.5t25.5 61.5t61.5 25.5t62 -25.5t26 -61.5t-26 -61.5t-62 -25.5t-61.5 25.5z" />
    <glyph glyph-name="uni0E3F" unicode="&#xe3f;" horiz-adv-x="664" 
d="M208 0h-163v699h163v103h161v-103h30q101 0 159.5 -50t58.5 -143q0 -44 -20 -82t-57 -60q51 -20 75 -57.5t24 -97.5q0 -64 -30 -111.5t-80.5 -72.5t-112.5 -25h-47v-103h-161v103zM360 422q78 0 78 73q0 41 -20 56.5t-61 15.5h-135v-145h138zM371 132q45 0 67 17t22 60
t-23 62.5t-70 19.5h-145v-159h149z" />
    <glyph glyph-name="uni0E40" unicode="&#xe40;" horiz-adv-x="316" 
d="M76.5 33.5q-31.5 33.5 -31.5 92.5v409h176v-367q0 -23 9 -32t31 -9h35v-127h-130q-58 0 -89.5 33.5z" />
    <glyph glyph-name="uni0E41" unicode="&#xe41;" horiz-adv-x="608" 
d="M76.5 33.5q-31.5 33.5 -31.5 92.5v409h176v-367q0 -23 9 -32t31 -9h35v-127h-130q-58 0 -89.5 33.5zM368.5 33.5q-31.5 33.5 -31.5 92.5v409h176v-367q0 -23 9 -32t31 -9h35v-127h-130q-58 0 -89.5 33.5z" />
    <glyph glyph-name="uni0E42" unicode="&#xe42;" horiz-adv-x="352" 
d="M119.5 33.5q-31.5 33.5 -31.5 92.5v354q0 64 -25.5 100.5t-82.5 57.5v114h377v-127h-151q31 -26 44.5 -62t13.5 -86v-309q0 -23 9 -32t31 -9h35v-127h-130q-58 0 -89.5 33.5z" />
    <glyph glyph-name="uni0E43" unicode="&#xe43;" horiz-adv-x="318" 
d="M65.5 33.5q-31.5 33.5 -31.5 92.5v228q0 47 18 80t50 69q20 23 30 39t10 32q0 27 -14 39.5t-47 12.5q-58 0 -106 -40v136q32 19 76 29.5t91 10.5q91 0 136 -40t45 -106q0 -38 -14.5 -67.5t-43.5 -69.5q-28 -39 -41.5 -66t-13.5 -61v-184q0 -23 9 -32t31 -9h35v-127h-130
q-58 0 -89.5 33.5z" />
    <glyph glyph-name="uni0E44" unicode="&#xe44;" horiz-adv-x="352" 
d="M105.5 33.5q-31.5 33.5 -31.5 92.5v330q0 116 65 169h-159v127h377v-114q-57 -23 -82 -66.5t-25 -113.5v-290q0 -23 9 -32t31 -9h35v-127h-130q-58 0 -89.5 33.5z" />
    <glyph glyph-name="uni0E45" unicode="&#xe45;" horiz-adv-x="416" 
d="M195 324q0 45 -20.5 67t-70.5 22q-49 0 -99 -25v132q23 12 64.5 21t79.5 9q108 0 165 -56.5t57 -163.5v-526h-176v520z" />
    <glyph glyph-name="uni0E46" unicode="&#xe46;" horiz-adv-x="660" 
d="M439 363q0 26 -9 38t-30 12q-20 0 -30.5 -13t-14.5 -36h-71q-5 49 -37 49q-21 0 -31 -14.5t-10 -46.5t18.5 -48t52.5 -16q36 0 67 12v-135q-45 -14 -101 -14q-96 0 -157 49t-61 145q0 92 48.5 148.5t138.5 56.5q36 0 63.5 -13.5t44.5 -35.5q16 24 46 36.5t70 12.5
q85 0 132 -49.5t47 -129.5v-371h-176v363z" />
    <glyph glyph-name="uni0E47" unicode="&#xe47;" 
d="M-466.5 623.5q-36.5 32.5 -36.5 87.5q0 70 40.5 105.5t110.5 35.5h260v-89h-248q-49 0 -49 -39q0 -19 10.5 -29t28.5 -10q21 0 31.5 12t10.5 32h89q0 -40 47 -40h63v-94h-60q-35 0 -61.5 11.5t-34.5 30.5q-10 -19 -38.5 -32.5t-64.5 -13.5q-62 0 -98.5 32.5z" />
    <glyph glyph-name="uni0E48" unicode="&#xe48;" 
d="M-221 778h176v-183h-176v183z" />
    <glyph glyph-name="uni0E49" unicode="&#xe49;" 
d="M-306 660q0 10 -4 14.5t-15 4.5h-48v118h104q73 0 73 -63v-28h198v-111h-308v65z" />
    <glyph glyph-name="uni0E4A" unicode="&#xe4a;" 
d="M-517 690q0 58 30 94t79 36q31 0 49 -10.5t29 -29.5q25 37 77 37q89 0 89 -94v-36h7q12 0 16.5 6t4.5 20v98h90v-112q0 -47 -29.5 -75.5t-79.5 -28.5h-92v83q0 31 -22 31q-14 0 -19.5 -7.5t-5.5 -23.5v-19h-69v18q0 16 -5 24t-17 8q-28 0 -28 -45q0 -17 6.5 -36t16.5 -33
h-103q-24 37 -24 95z" />
    <glyph glyph-name="uni0E4B" unicode="&#xe4b;" 
d="M-220 638h-51v105h51v44h169v-44h51v-105h-51v-44h-169v44z" />
    <glyph glyph-name="uni0E4C" unicode="&#xe4c;" 
d="M-333 682q0 91 104 91h228v-109h-149q-26 0 -26 -25v-44h-157v87z" />
    <glyph glyph-name="uni0E4D" unicode="&#xe4d;" 
d="M-230 618.5q-37 36.5 -37 89.5q0 35 17 64.5t46.5 46.5t63.5 17t63.5 -17t46.5 -46.5t17 -64.5q0 -53 -37 -89.5t-90 -36.5t-90 36.5zM-114 680.5q11 11.5 11 26.5q0 16 -10.5 27t-26.5 11t-26.5 -11t-10.5 -27q0 -15 11 -26.5t26 -11.5t26 11.5z" />
    <glyph glyph-name="uni0E4E" unicode="&#xe4e;" 
d="M-281.5 619.5q-30.5 24.5 -30.5 65.5q0 40 21.5 62.5t59.5 26.5q-13 16 -13 41q0 35 27.5 54.5t69.5 19.5q44 0 69 -15v-66q-20 17 -45 17q-26 0 -26 -19t30 -27v-64q-27 8 -46 8q-21 0 -31 -7.5t-10 -24.5q0 -29 40 -29q32 0 55 17v-66q-27 -18 -86 -18
q-54 0 -84.5 24.5z" />
    <glyph glyph-name="uni0E4F" unicode="&#xe4f;" horiz-adv-x="559" 
d="M151.5 18.5q-58.5 33.5 -92.5 92t-34 129.5t34 129.5t92.5 92t128.5 33.5t128 -33.5t92 -92t34 -129.5t-34 -129.5t-92 -92t-128 -33.5t-128.5 33.5zM357.5 106q34.5 20 54.5 55t20 79q0 43 -20 78t-55 55t-77 20q-43 0 -77.5 -20t-54.5 -55t-20 -78q0 -44 20 -79
t54.5 -55t77.5 -20t77.5 20zM192 150.5q-36 34.5 -36 89.5q0 54 36 89t89 35q52 0 88 -35t36 -89q0 -55 -35.5 -89.5t-88.5 -34.5t-89 34.5zM314 206q13 13 13 34t-13 34t-33 13t-33.5 -13t-13.5 -34t13.5 -34t33.5 -13t33 13z" />
    <glyph glyph-name="uni0E50" unicode="&#xe50;" horiz-adv-x="601" 
d="M158 17q-63 32 -98 90t-35 133t35 133t98 90t143 32t142.5 -32t97.5 -90t35 -133t-35 -133t-97.5 -90t-142.5 -32t-143 32zM386.5 151.5q33.5 32.5 33.5 88.5q0 54 -34 87t-85 33q-52 0 -85.5 -33t-33.5 -87q0 -56 33.5 -88.5t85.5 -32.5t85.5 32.5z" />
    <glyph glyph-name="uni0E51" unicode="&#xe51;" horiz-adv-x="598" 
d="M242 50q69 15 105 39.5t49 59.5t13 89q0 123 -119 123q-46 0 -74.5 -19.5t-28.5 -57.5q0 -35 20 -53.5t57 -18.5t65 14v-116q-37 -25 -107 -25q-88 0 -142.5 51t-54.5 139q0 67 33.5 117t94 76.5t138.5 26.5q139 0 210.5 -69t71.5 -188q0 -253 -331 -328v140z" />
    <glyph glyph-name="uni0E52" unicode="&#xe52;" horiz-adv-x="719" 
d="M204.5 13q-72.5 28 -116 86.5t-43.5 146.5v304h133v-299q0 -72 49 -112.5t138 -40.5q86 0 130 30.5t44 87.5v110q0 18 -8 29.5t-24 11.5q-18 0 -25.5 -14t-9.5 -43h-83q-2 29 -9 44t-23 15q-35 0 -35 -60q0 -33 18.5 -50t51.5 -17q39 0 66 10v-106q-20 -7 -37.5 -9.5
t-45.5 -2.5q-83 0 -130 47t-47 134q0 80 37.5 130t102.5 50q33 0 56.5 -15t36.5 -40q14 23 45 39t67 16q71 0 101 -41.5t30 -117.5v-122q0 -70 -42.5 -122t-113.5 -79.5t-153 -27.5q-88 0 -160.5 28z" />
    <glyph glyph-name="uni0E53" unicode="&#xe53;" horiz-adv-x="661" 
d="M87.5 49.5q-62.5 64.5 -62.5 184.5q0 128 55.5 194.5t145.5 66.5q68 0 102 -45q18 21 48 33t66 12q80 0 127 -44t47 -112v-339h-157v317q0 43 -39 43q-20 0 -29 -11t-9 -34v-128h-113v128q0 23 -7.5 34t-26.5 11q-27 0 -40 -30.5t-13 -99.5q0 -59 23 -85t71 -26
q20 0 46.5 3.5t39.5 8.5v-134q-52 -12 -106 -12q-106 0 -168.5 64.5z" />
    <glyph glyph-name="uni0E54" unicode="&#xe54;" horiz-adv-x="620" 
d="M94.5 60q-69.5 60 -69.5 179q0 78 35 139.5t103 96t163 34.5q54 0 80.5 3.5t40 15t20.5 36.5h148q-22 -89 -74.5 -132.5t-161.5 -43.5q-98 0 -147.5 -35.5t-49.5 -113.5q0 -59 26.5 -91t68.5 -32h20q-13 13 -20.5 33t-7.5 44q0 68 44.5 105.5t123.5 37.5q82 0 125 -21
v-110q-32 20 -75 20q-30 0 -45.5 -14t-15.5 -40q0 -55 67 -55h89v-116h-293q-125 0 -194.5 60z" />
    <glyph glyph-name="uni0E55" unicode="&#xe55;" horiz-adv-x="620" 
d="M94.5 60q-69.5 60 -69.5 179q0 93 48 160t138 94q-3 12 -3 26q0 48 28.5 78.5t80.5 30.5q54 0 81.5 -29.5t27.5 -79.5v-2q22 4 29.5 14t11.5 33h148q-21 -89 -76.5 -132.5t-164.5 -43.5q-97 0 -144.5 -35t-47.5 -114q0 -59 26.5 -91t68.5 -32h20q-13 13 -20.5 33t-7.5 44
q0 68 44.5 105.5t123.5 37.5q82 0 125 -21v-110q-32 20 -75 20q-30 0 -45.5 -14t-15.5 -40q0 -55 67 -55h89v-116h-293q-125 0 -194.5 60zM343 500.5q9 9.5 9 22.5q0 14 -9 23t-23 9q-13 0 -22.5 -9t-9.5 -23q0 -13 9.5 -22.5t22.5 -9.5q14 0 23 9.5z" />
    <glyph glyph-name="uni0E56" unicode="&#xe56;" horiz-adv-x="628" 
d="M194.5 0q-53.5 15 -87.5 44v137q41 -35 91.5 -52t103.5 -17q67 0 102 31.5t35 93.5q0 63 -30 93.5t-92 30.5q-47 0 -83 -23.5t-52 -69.5h-108l-69 283h133l29 -131q28 35 74 55t103 20q135 0 197 -70.5t62 -187.5q0 -72 -33.5 -129t-100 -90t-161.5 -33q-60 0 -113.5 15z
" />
    <glyph glyph-name="uni0E57" unicode="&#xe57;" horiz-adv-x="812" 
d="M85.5 49.5q-60.5 64.5 -60.5 184.5q0 126 51 193.5t139 67.5q66 0 102 -45q18 21 48 33t66 12q78 0 115.5 -43t37.5 -113v-212q27 0 39 12.5t12 40.5v370h132v-356q0 -105 -61 -149.5t-159 -44.5h-100v321q0 22 -9 32.5t-30 10.5q-38 0 -38 -45v-132h-110v132
q0 23 -7.5 34t-26.5 11q-27 0 -40 -32.5t-13 -101.5q0 -62 23.5 -91t70.5 -29q20 0 45.5 3.5t38.5 8.5v-125q-52 -12 -107 -12q-98 0 -158.5 64.5z" />
    <glyph glyph-name="uni0E58" unicode="&#xe58;" horiz-adv-x="649" 
d="M79 48q-54 63 -54 185q0 78 35.5 141t103.5 99t162 36q55 0 81 3.5t39.5 15t20.5 36.5h148q-22 -89 -74.5 -132.5t-161.5 -43.5q-101 0 -149 -39t-48 -123q0 -68 14 -95.5t39 -27.5q21 0 30 10.5t9 33.5v42h123v-41q0 -22 8.5 -33.5t28.5 -11.5q22 0 33 16.5t11 55.5
q0 30 -12.5 46t-36.5 16q-31 0 -54 -12v110q36 13 88 13q76 0 118.5 -44.5t42.5 -128.5q0 -90 -47 -140t-125 -50q-32 0 -64.5 12.5t-51.5 33.5q-19 -22 -49 -34t-67 -12q-87 0 -141 63z" />
    <glyph glyph-name="uni0E59" unicode="&#xe59;" horiz-adv-x="743" 
d="M123.5 13.5q-45.5 28.5 -72 84.5t-26.5 135q0 84 27 143t73.5 89t105.5 30q34 0 60.5 -13t42.5 -32q17 20 46.5 32.5t62.5 12.5q36 0 61 -10.5t42 -32.5l40 98h152l-126 -309h-113l25 62q-2 27 -11 42t-31 15q-19 0 -30.5 -10.5t-11.5 -28.5q0 -9 3 -20l98 -301h-145
l-99 306q-10 30 -19.5 42t-32.5 12q-30 0 -46.5 -32t-16.5 -97q0 -61 19 -86.5t58 -25.5q30 0 57 12v-134q-45 -12 -91 -12q-56 0 -101.5 28.5z" />
    <glyph glyph-name="uni0E5A" unicode="&#xe5a;" horiz-adv-x="925" 
d="M379 228q-30 -14 -69.5 -22t-80.5 -8q-92 0 -148 46.5t-56 129.5q0 84 53 130t138 46q67 0 108 -15v-112q-25 9 -53 9q-31 0 -48 -13.5t-17 -41.5q0 -55 73 -55q56 0 100 28v185h176v-191q17 -22 54 -22q53 0 95 28v185h176v-535h-176v228q-47 -28 -112 -30q-25 0 -37 2
v-200h-176v228z" />
    <glyph glyph-name="uni0E5B" unicode="&#xe5b;" horiz-adv-x="1133" 
d="M100 50.5q-75 65.5 -75 187.5q0 73 29.5 131.5t84 92t126.5 33.5q106 0 164.5 -51.5t58.5 -144.5q0 -90 -50.5 -131.5t-128.5 -41.5q-55 0 -90 21v105q13 -10 33.5 -16t41.5 -6q39 0 57.5 13t18.5 56q0 41 -24 61.5t-79 20.5q-57 0 -89.5 -36t-32.5 -107q0 -74 39 -109
t117 -35q113 0 164.5 48t51.5 158v109h128l43 -135h2l22 121h97l29 -112h2l18 92h83l33 -92h2l21 41h111v-105h-74l-25 -70h-70l-30 64h-2l-25 -89h-83l-35 105h-2l-29 -126h-85l-35 126h-2q-5 -77 -46.5 -132t-109.5 -83.5t-154 -28.5q-126 0 -201 65.5z" />
    <glyph glyph-name="uni1E0C" unicode="&#x1e0c;" horiz-adv-x="701" 
d="M45 699h251q115 0 201 -42t132.5 -120.5t46.5 -183.5q0 -174 -102 -263.5t-283 -89.5h-246v699zM306 149q91 0 139.5 55t48.5 149q0 86 -48.5 141.5t-133.5 55.5h-90v-401h84zM253 -177.5q-23 22.5 -23 54.5t23 54.5t55 22.5t54 -22.5t22 -54.5t-22 -54.5t-54 -22.5
t-55 22.5z" />
    <glyph glyph-name="uni1E0D" unicode="&#x1e0d;" horiz-adv-x="665" 
d="M147 16.5q-58 31.5 -90 89t-32 133.5q0 75 32 133.5t89.5 90.5t133.5 32q50 0 92 -14t72 -40v298h176v-739h-170v48q-67 -63 -170 -63q-75 0 -133 31.5zM398 141.5q32 20.5 46 55.5v85q-14 35 -46 55.5t-72 20.5q-54 0 -87 -32t-33 -87t33 -86.5t87 -31.5q40 0 72 20.5z
M291 -177.5q-23 22.5 -23 54.5t23 54.5t55 22.5t54 -22.5t22 -54.5t-22 -54.5t-54 -22.5t-55 22.5z" />
    <glyph glyph-name="uni1E0E" unicode="&#x1e0e;" horiz-adv-x="701" 
d="M45 699h251q115 0 201 -42t132.5 -120.5t46.5 -183.5q0 -174 -102 -263.5t-283 -89.5h-246v699zM306 149q91 0 139.5 55t48.5 149q0 86 -48.5 141.5t-133.5 55.5h-90v-401h84zM141 -59h345v-113h-345v113z" />
    <glyph glyph-name="uni1E0F" unicode="&#x1e0f;" horiz-adv-x="665" 
d="M147 16.5q-58 31.5 -90 89t-32 133.5q0 75 32 133.5t89.5 90.5t133.5 32q50 0 92 -14t72 -40v298h176v-739h-170v48q-67 -63 -170 -63q-75 0 -133 31.5zM398 141.5q32 20.5 46 55.5v85q-14 35 -46 55.5t-72 20.5q-54 0 -87 -32t-33 -87t33 -86.5t87 -31.5q40 0 72 20.5z
M191 -59h345v-113h-345v113z" />
    <glyph glyph-name="uni1E20" unicode="&#x1e20;" horiz-adv-x="695" 
d="M240 865h345v-113h-345v113zM205.5 29q-86.5 44 -133.5 126.5t-47 193.5t47 193.5t133.5 127t200.5 44.5q76 0 134.5 -14.5t108.5 -46.5v-168q-44 35 -99.5 50.5t-127.5 15.5q-62 0 -110.5 -24.5t-76.5 -70.5t-28 -107q0 -95 55.5 -150t150.5 -55q53 0 89 18v112h-107
v124h275v-348q-107 -65 -264 -65q-114 0 -200.5 44z" />
    <glyph glyph-name="uni1E21" unicode="&#x1e21;" horiz-adv-x="665" 
d="M180 649h345v-113h-345v113zM209.5 -221q-48.5 9 -83.5 24v122q79 -34 180 -34q73 0 105.5 30t32.5 88v29q-29 -25 -71.5 -39t-90.5 -14q-76 0 -134 32t-90.5 90t-32.5 133q0 76 32 134t90 89.5t133 31.5q103 0 170 -63v48h170v-447q0 -125 -76.5 -194t-237.5 -69
q-48 0 -96.5 9zM399 142q32 21 45 56v84q-14 35 -46 55.5t-72 20.5q-54 0 -87 -31.5t-33 -85.5q0 -55 33 -87.5t87 -32.5q41 0 73 21z" />
    <glyph glyph-name="uni1E24" unicode="&#x1e24;" horiz-adv-x="718" 
d="M45 699h177v-270h274v270h177v-699h-177v282h-274v-282h-177v699zM305 -177.5q-23 22.5 -23 54.5t23 54.5t55 22.5t54 -22.5t22 -54.5t-22 -54.5t-54 -22.5t-55 22.5z" />
    <glyph glyph-name="uni1E25" unicode="&#x1e25;" horiz-adv-x="620" 
d="M45 739h176v-308q32 32 73.5 48t87.5 16q101 0 149.5 -52.5t48.5 -142.5v-300h-176v277q0 81 -74 81q-34 0 -62 -15.5t-47 -47.5v-295h-176v739zM268 -177.5q-23 22.5 -23 54.5t23 54.5t55 22.5t54 -22.5t22 -54.5t-22 -54.5t-54 -22.5t-55 22.5z" />
    <glyph glyph-name="uni1E2A" unicode="&#x1e2a;" horiz-adv-x="718" 
d="M45 699h177v-270h274v270h177v-699h-177v282h-274v-282h-177v699zM224 -180.5q-48 46.5 -48 126.5h131q0 -62 52 -62q25 0 38.5 16t13.5 46h131q0 -80 -48 -126.5t-135 -46.5t-135 46.5z" />
    <glyph glyph-name="uni1E2B" unicode="&#x1e2b;" horiz-adv-x="620" 
d="M45 739h176v-308q32 32 73.5 48t87.5 16q101 0 149.5 -52.5t48.5 -142.5v-300h-176v277q0 81 -74 81q-34 0 -62 -15.5t-47 -47.5v-295h-176v739zM193 -180.5q-48 46.5 -48 126.5h131q0 -62 52 -62q25 0 38.5 16t13.5 46h131q0 -80 -48 -126.5t-135 -46.5t-135 46.5z" />
    <glyph glyph-name="uni1E36" unicode="&#x1e36;" horiz-adv-x="531" 
d="M45 699h177v-550h304v-149h-481v699zM223 -177.5q-23 22.5 -23 54.5t23 54.5t55 22.5t54 -22.5t22 -54.5t-22 -54.5t-54 -22.5t-55 22.5z" />
    <glyph glyph-name="uni1E37" unicode="&#x1e37;" horiz-adv-x="267" 
d="M45 739h176v-739h-176v739zM79 -177.5q-23 22.5 -23 54.5t23 54.5t55 22.5t54 -22.5t22 -54.5t-22 -54.5t-54 -22.5t-55 22.5z" />
    <glyph glyph-name="uni1E38" unicode="&#x1e38;" horiz-adv-x="513" 
d="M5 865h345v-113h-345v113zM27 699h177v-550h304v-149h-481v699zM216 -177.5q-23 22.5 -23 54.5t23 54.5t55 22.5t54 -22.5t22 -54.5t-22 -54.5t-54 -22.5t-55 22.5z" />
    <glyph glyph-name="uni1E39" unicode="&#x1e39;" horiz-adv-x="266" 
d="M-40 886h345v-113h-345v113zM45 739h176v-739h-176v739zM79 -177.5q-23 22.5 -23 54.5t23 54.5t55 22.5t54 -22.5t22 -54.5t-22 -54.5t-54 -22.5t-55 22.5z" />
    <glyph glyph-name="uni1E3A" unicode="&#x1e3a;" horiz-adv-x="531" 
d="M45 699h177v-550h304v-149h-481v699zM112 -59h345v-113h-345v113z" />
    <glyph glyph-name="uni1E3B" unicode="&#x1e3b;" horiz-adv-x="266" 
d="M45 739h176v-739h-176v739zM-39 -59h345v-113h-345v113z" />
    <glyph glyph-name="uni1E42" unicode="&#x1e42;" horiz-adv-x="834" 
d="M45 699h170l202 -433l203 433h169v-699h-165v351l-167 -351h-80l-166 351v-351h-166v699zM363 -177.5q-23 22.5 -23 54.5t23 54.5t55 22.5t54 -22.5t22 -54.5t-22 -54.5t-54 -22.5t-55 22.5z" />
    <glyph glyph-name="uni1E43" unicode="&#x1e43;" horiz-adv-x="874" 
d="M45 480h163v-52q30 32 69 49.5t83 17.5q54 0 86.5 -16t52.5 -48q30 30 73 47t87 17q95 0 135 -48.5t40 -139.5v-307h-168v282q0 40 -15 58t-50 18q-45 0 -73 -32q1 -17 1 -52v-274h-168v289q0 37 -13 53t-46 16q-51 0 -88 -57v-301h-169v480zM389 -177.5
q-23 22.5 -23 54.5t23 54.5t55 22.5t54 -22.5t22 -54.5t-22 -54.5t-54 -22.5t-55 22.5z" />
    <glyph glyph-name="uni1E44" unicode="&#x1e44;" horiz-adv-x="699" 
d="M309 774q-23 22 -23 54t23 55t55 23q31 0 53.5 -23t22.5 -55t-22 -54t-54 -22t-55 22zM45 699h175l257 -416v416h177v-699h-174l-258 417v-417h-177v699z" />
    <glyph glyph-name="uni1E45" unicode="&#x1e45;" horiz-adv-x="620" 
d="M267 548q-23 22 -23 54t23 55t55 23q31 0 53.5 -23t22.5 -55t-22 -54t-54 -22t-55 22zM45 480h170v-53q31 34 75 51t92 17q101 0 149.5 -52.5t48.5 -142.5v-300h-176v277q0 81 -74 81q-34 0 -62 -15.5t-47 -47.5v-295h-176v480z" />
    <glyph glyph-name="uni1E46" unicode="&#x1e46;" horiz-adv-x="699" 
d="M45 699h175l257 -416v416h177v-699h-174l-258 417v-417h-177v699zM308 -177.5q-23 22.5 -23 54.5t23 54.5t55 22.5t54 -22.5t22 -54.5t-22 -54.5t-54 -22.5t-55 22.5z" />
    <glyph glyph-name="uni1E47" unicode="&#x1e47;" horiz-adv-x="620" 
d="M45 480h170v-53q31 34 75 51t92 17q101 0 149.5 -52.5t48.5 -142.5v-300h-176v277q0 81 -74 81q-34 0 -62 -15.5t-47 -47.5v-295h-176v480zM273 -177.5q-23 22.5 -23 54.5t23 54.5t55 22.5t54 -22.5t22 -54.5t-22 -54.5t-54 -22.5t-55 22.5z" />
    <glyph glyph-name="uni1E48" unicode="&#x1e48;" horiz-adv-x="699" 
d="M45 699h175l257 -416v416h177v-699h-174l-258 417v-417h-177v699zM193 -59h345v-113h-345v113z" />
    <glyph glyph-name="uni1E49" unicode="&#x1e49;" horiz-adv-x="620" 
d="M45 480h170v-53q31 34 75 51t92 17q101 0 149.5 -52.5t48.5 -142.5v-300h-176v277q0 81 -74 81q-34 0 -62 -15.5t-47 -47.5v-295h-176v480zM164 -59h345v-113h-345v113z" />
    <glyph glyph-name="uni1E5A" unicode="&#x1e5a;" horiz-adv-x="646" 
d="M45 699h314q123 0 192.5 -62t69.5 -178q0 -78 -34 -133t-96 -82l124 -244h-182l-111 219h-100v-219h-177v699zM328 368q53 0 82 20.5t29 70.5q0 52 -28.5 71.5t-82.5 19.5h-106v-182h106zM269 -177.5q-23 22.5 -23 54.5t23 54.5t55 22.5t54 -22.5t22 -54.5t-22 -54.5
t-54 -22.5t-55 22.5z" />
    <glyph glyph-name="uni1E5B" unicode="&#x1e5b;" horiz-adv-x="412" 
d="M45 480h170v-60q28 32 79 49.5t113 17.5v-135q-66 0 -116.5 -19t-69.5 -57v-276h-176v480zM84 -177.5q-23 22.5 -23 54.5t23 54.5t55 22.5t54 -22.5t22 -54.5t-22 -54.5t-54 -22.5t-55 22.5z" />
    <glyph glyph-name="uni1E5C" unicode="&#x1e5c;" horiz-adv-x="646" 
d="M134 865h345v-113h-345v113zM45 699h314q123 0 192.5 -62t69.5 -178q0 -78 -34 -133t-96 -82l124 -244h-182l-111 219h-100v-219h-177v699zM328 368q53 0 82 20.5t29 70.5q0 52 -28.5 71.5t-82.5 19.5h-106v-182h106zM252 -177.5q-23 22.5 -23 54.5t23 54.5t55 22.5
t54 -22.5t22 -54.5t-22 -54.5t-54 -22.5t-55 22.5z" />
    <glyph glyph-name="uni1E5D" unicode="&#x1e5d;" horiz-adv-x="412" 
d="M49 649h345v-113h-345v113zM45 480h170v-60q28 32 79 49.5t113 17.5v-135q-66 0 -116.5 -19t-69.5 -57v-276h-176v480zM86 -177.5q-23 22.5 -23 54.5t23 54.5t55 22.5t54 -22.5t22 -54.5t-22 -54.5t-54 -22.5t-55 22.5z" />
    <glyph glyph-name="uni1E5E" unicode="&#x1e5e;" horiz-adv-x="646" 
d="M45 699h314q123 0 192.5 -62t69.5 -178q0 -78 -34 -133t-96 -82l124 -244h-182l-111 219h-100v-219h-177v699zM328 368q53 0 82 20.5t29 70.5q0 52 -28.5 71.5t-82.5 19.5h-106v-182h106zM151 -59h345v-113h-345v113z" />
    <glyph glyph-name="uni1E5F" unicode="&#x1e5f;" horiz-adv-x="421" 
d="M54 480h170v-60q28 32 79 49.5t113 17.5v-135q-66 0 -116.5 -19t-69.5 -57v-276h-176v480zM45 -59h345v-113h-345v113z" />
    <glyph glyph-name="uni1E60" unicode="&#x1e60;" horiz-adv-x="569" 
d="M245 774q-23 22 -23 54t23 55t55 23q31 0 53.5 -23t22.5 -55t-22 -54t-54 -22t-55 22zM132 -2.5q-65 12.5 -107 34.5v159q54 -28 112.5 -42t111.5 -14q49 0 74 15t25 43q0 21 -13.5 36.5t-39.5 28.5t-81 36q-97 41 -141 91t-44 123q0 60 33.5 107t93.5 73t138 26
q64 0 114 -10t96 -32v-155q-88 46 -177 46q-48 0 -76.5 -15.5t-28.5 -44.5t29 -47t107 -49q71 -29 110.5 -57t57.5 -65t18 -94q0 -97 -70.5 -151.5t-210.5 -54.5q-66 0 -131 12.5z" />
    <glyph glyph-name="uni1E61" unicode="&#x1e61;" horiz-adv-x="509" 
d="M206 548q-23 22 -23 54t23 55t55 23q31 0 53.5 -23t22.5 -55t-22 -54t-54 -22t-55 22zM131 -3.5q-63 11.5 -100 32.5v129q41 -24 98.5 -39.5t105.5 -15.5q35 0 51 5t16 20q0 12 -10.5 19.5t-38 16t-63.5 18.5q-61 18 -96 37t-52 48t-17 73q0 78 61.5 116.5t168.5 38.5
q52 0 109.5 -11t86.5 -29v-127q-30 20 -79.5 33t-92.5 13q-34 0 -53 -6.5t-19 -22.5q0 -15 19 -23t68 -20q32 -8 27 -7q64 -17 99 -38t49.5 -49.5t14.5 -72.5q0 -69 -59.5 -109.5t-172.5 -40.5q-58 0 -121 11.5z" />
    <glyph glyph-name="uni1E62" unicode="&#x1e62;" horiz-adv-x="569" 
d="M132 -2.5q-65 12.5 -107 34.5v159q54 -28 112.5 -42t111.5 -14q49 0 74 15t25 43q0 21 -13.5 36.5t-39.5 28.5t-81 36q-97 41 -141 91t-44 123q0 60 33.5 107t93.5 73t138 26q64 0 114 -10t96 -32v-155q-88 46 -177 46q-48 0 -76.5 -15.5t-28.5 -44.5t29 -47t107 -49
q71 -29 110.5 -57t57.5 -65t18 -94q0 -97 -70.5 -151.5t-210.5 -54.5q-66 0 -131 12.5zM231 -177.5q-23 22.5 -23 54.5t23 54.5t55 22.5t54 -22.5t22 -54.5t-22 -54.5t-54 -22.5t-55 22.5z" />
    <glyph glyph-name="uni1E63" unicode="&#x1e63;" horiz-adv-x="509" 
d="M131 -3.5q-63 11.5 -100 32.5v129q41 -24 98.5 -39.5t105.5 -15.5q35 0 51 5t16 20q0 12 -10.5 19.5t-38 16t-63.5 18.5q-61 18 -96 37t-52 48t-17 73q0 78 61.5 116.5t168.5 38.5q52 0 109.5 -11t86.5 -29v-127q-30 20 -79.5 33t-92.5 13q-34 0 -53 -6.5t-19 -22.5
q0 -15 19 -23t68 -20q32 -8 27 -7q64 -17 99 -38t49.5 -49.5t14.5 -72.5q0 -69 -59.5 -109.5t-172.5 -40.5q-58 0 -121 11.5zM212 -177.5q-23 22.5 -23 54.5t23 54.5t55 22.5t54 -22.5t22 -54.5t-22 -54.5t-54 -22.5t-55 22.5z" />
    <glyph glyph-name="uni1E6C" unicode="&#x1e6c;" horiz-adv-x="592" 
d="M207 550h-197v149h572v-149h-198v-550h-177v550zM242 -177.5q-23 22.5 -23 54.5t23 54.5t55 22.5t54 -22.5t22 -54.5t-22 -54.5t-54 -22.5t-55 22.5z" />
    <glyph glyph-name="uni1E6D" unicode="&#x1e6d;" horiz-adv-x="386" 
d="M118.5 34.5q-45.5 49.5 -45.5 135.5v188h-68v122h68v144h176v-144h110v-122h-110v-164q0 -39 14.5 -56t51.5 -17q33 0 66 18v-131q-26 -12 -55.5 -17.5t-72.5 -5.5q-89 0 -134.5 49.5zM189 -177.5q-23 22.5 -23 54.5t23 54.5t55 22.5t54 -22.5t22 -54.5t-22 -54.5
t-54 -22.5t-55 22.5z" />
    <glyph glyph-name="uni1E6E" unicode="&#x1e6e;" horiz-adv-x="592" 
d="M207 550h-197v149h572v-149h-198v-550h-177v550zM124 -59h345v-113h-345v113z" />
    <glyph glyph-name="uni1E6F" unicode="&#x1e6f;" horiz-adv-x="391" 
d="M118.5 34.5q-45.5 49.5 -45.5 135.5v188h-68v122h68v144h176v-144h110v-122h-110v-164q0 -39 14.5 -56t51.5 -17q33 0 66 18v-131q-26 -12 -55.5 -17.5t-72.5 -5.5q-89 0 -134.5 49.5zM41 -59h345v-113h-345v113z" />
    <glyph glyph-name="Wgrave" unicode="&#x1e80;" horiz-adv-x="992" 
d="M327 920h185l69 -178h-163zM25 699h182l117 -414l113 414h126l106 -415l116 415h182l-193 -699h-163l-115 406l-114 -406h-164z" />
    <glyph glyph-name="wgrave" unicode="&#x1e81;" horiz-adv-x="852" 
d="M265 696h185l69 -178h-163zM25 480h176l77 -275l77 275h142l77 -275l77 275h176l-161 -480h-158l-82 270l-82 -270h-158z" />
    <glyph glyph-name="Wacute" unicode="&#x1e82;" horiz-adv-x="992" 
d="M491 920h185l-91 -178h-163zM25 699h182l117 -414l113 414h126l106 -415l116 415h182l-193 -699h-163l-115 406l-114 -406h-164z" />
    <glyph glyph-name="wacute" unicode="&#x1e83;" horiz-adv-x="852" 
d="M428 696h185l-91 -178h-163zM25 480h176l77 -275l77 275h142l77 -275l77 275h176l-161 -480h-158l-82 270l-82 -270h-158z" />
    <glyph glyph-name="Wdieresis" unicode="&#x1e84;" horiz-adv-x="992" 
d="M324 774q-23 22 -23 54t23 55t55 23q31 0 53.5 -23t22.5 -55t-22 -54t-54 -22t-55 22zM560 774q-23 22 -23 54t23 55t55 23q31 0 53.5 -23t22.5 -55t-22.5 -54t-53.5 -22q-32 0 -55 22zM25 699h182l117 -414l113 414h126l106 -415l116 415h182l-193 -699h-163l-115 406
l-114 -406h-164z" />
    <glyph glyph-name="wdieresis" unicode="&#x1e85;" horiz-adv-x="852" 
d="M254 548q-23 22 -23 54t23 55t55 23q31 0 53.5 -23t22.5 -55t-22 -54t-54 -22t-55 22zM490 548q-23 22 -23 54t23 55t55 23q31 0 53.5 -23t22.5 -55t-22.5 -54t-53.5 -22q-32 0 -55 22zM25 480h176l77 -275l77 275h142l77 -275l77 275h176l-161 -480h-158l-82 270
l-82 -270h-158z" />
    <glyph glyph-name="uni1E8E" unicode="&#x1e8e;" horiz-adv-x="750" 
d="M318 774q-23 22 -23 54t23 55t55 23q31 0 53.5 -23t22.5 -55t-22 -54t-54 -22t-55 22zM283 266l-258 433h189l158 -271l165 271h188l-265 -433v-266h-177v266z" />
    <glyph glyph-name="uni1E8F" unicode="&#x1e8f;" horiz-adv-x="625" 
d="M284 548q-23 22 -23 54t23 55t55 23q31 0 53.5 -23t22.5 -55t-22 -54t-54 -22t-55 22zM126 -193.5q-35 4.5 -52 12.5v131q29 -12 66 -12q33 0 51.5 14.5t29.5 45.5l12 32l-208 450h176l125 -312l118 312h176l-198 -502q-35 -90 -89.5 -133t-139.5 -43q-32 0 -67 4.5z" />
    <glyph glyph-name="uni1E92" unicode="&#x1e92;" horiz-adv-x="611" 
d="M25 120l318 430h-310v149h531v-121l-316 -429h338v-149h-561v120zM256 -177.5q-23 22.5 -23 54.5t23 54.5t55 22.5t54 -22.5t22 -54.5t-22 -54.5t-54 -22.5t-55 22.5z" />
    <glyph glyph-name="uni1E93" unicode="&#x1e93;" horiz-adv-x="518" 
d="M25 96l228 262h-222v122h454v-96l-226 -262h234v-122h-468v96zM205 -177.5q-23 22.5 -23 54.5t23 54.5t55 22.5t54 -22.5t22 -54.5t-22 -54.5t-54 -22.5t-55 22.5z" />
    <glyph glyph-name="uni1E97" unicode="&#x1e97;" horiz-adv-x="398" 
d="M4 682q-23 22 -23 54t23 55t55 23q31 0 53.5 -23t22.5 -55t-22 -54t-54 -22t-55 22zM240 682q-23 22 -23 54t23 55t55 23q31 0 53.5 -23t22.5 -55t-22.5 -54t-53.5 -22q-32 0 -55 22zM130.5 34.5q-45.5 49.5 -45.5 135.5v188h-68v122h68v144h176v-144h110v-122h-110v-164
q0 -39 14.5 -56t51.5 -17q33 0 66 18v-131q-26 -12 -55.5 -17.5t-72.5 -5.5q-89 0 -134.5 49.5z" />
    <glyph glyph-name="uni1E9E" unicode="&#x1e9e;" horiz-adv-x="652" 
d="M264 3v146q31 -20 82 -20q48 0 75 21t27 62q0 44 -25.5 63.5t-81.5 19.5h-58v90l109 119q-5 30 -25.5 48t-56.5 18q-46 0 -70 -25t-24 -73v-472h-176v454q0 123 69 191.5t201 68.5q87 0 146.5 -30.5t91 -80.5t36.5 -110l-99 -108q142 -37 142 -189q0 -99 -62 -155
t-175 -56q-83 0 -126 18z" />
    <glyph glyph-name="uni1EA0" unicode="&#x1ea0;" horiz-adv-x="783" 
d="M305 699h174l279 -699h-181l-56 144h-258l-56 -144h-182zM477 280l-85 235l-86 -235h171zM338 -177.5q-23 22.5 -23 54.5t23 54.5t55 22.5t54 -22.5t22 -54.5t-22 -54.5t-54 -22.5t-55 22.5z" />
    <glyph glyph-name="uni1EA1" unicode="&#x1ea1;" horiz-adv-x="593" 
d="M80.5 28.5q-55.5 43.5 -55.5 121.5q0 81 53.5 124.5t153.5 43.5q39 0 78 -8.5t67 -22.5v10q0 77 -126 77q-88 0 -161 -34v121q32 15 84 24.5t108 9.5q134 0 202.5 -53.5t68.5 -149.5v-292h-165v41q-27 -26 -68 -41t-94 -15q-90 0 -145.5 43.5zM336 105.5q27 12.5 41 32.5
v42q-43 29 -98 29q-35 0 -54 -15t-19 -44q0 -27 18.5 -42t53.5 -15q31 0 58 12.5zM260 -177.5q-23 22.5 -23 54.5t23 54.5t55 22.5t54 -22.5t22 -54.5t-22 -54.5t-54 -22.5t-55 22.5z" />
    <glyph glyph-name="uni1EA2" unicode="&#x1ea2;" horiz-adv-x="783" 
d="M317 812q39 0 59.5 9t20.5 31q0 33 -59 33q-13 0 -30.5 -3t-26.5 -7v84q22 7 56 11.5t64 4.5q77 0 117.5 -28.5t40.5 -77.5q0 -37 -23.5 -64.5t-64.5 -37.5v-25h-154v70zM305 699h174l279 -699h-181l-56 144h-258l-56 -144h-182zM477 280l-85 235l-86 -235h171z" />
    <glyph glyph-name="uni1EA3" unicode="&#x1ea3;" horiz-adv-x="593" 
d="M242 596q39 0 59.5 9t20.5 31q0 33 -59 33q-13 0 -30.5 -3t-26.5 -7v84q22 7 56 11.5t64 4.5q77 0 117.5 -28.5t40.5 -77.5q0 -37 -23.5 -64.5t-64.5 -37.5v-25h-154v70zM80.5 28.5q-55.5 43.5 -55.5 121.5q0 81 53.5 124.5t153.5 43.5q39 0 78 -8.5t67 -22.5v10
q0 77 -126 77q-88 0 -161 -34v121q32 15 84 24.5t108 9.5q134 0 202.5 -53.5t68.5 -149.5v-292h-165v41q-27 -26 -68 -41t-94 -15q-90 0 -145.5 43.5zM336 105.5q27 12.5 41 32.5v42q-43 29 -98 29q-35 0 -54 -15t-19 -44q0 -27 18.5 -42t53.5 -15q31 0 58 12.5z" />
    <glyph glyph-name="uni1EA4" unicode="&#x1ea4;" horiz-adv-x="781" 
d="M586 997h162l-81 -139h-140zM336 899h124l152 -157h-156l-58 67l-58 -67h-156zM305 699h174l279 -699h-181l-56 144h-258l-56 -144h-182zM477 280l-85 235l-86 -235h171z" />
    <glyph glyph-name="uni1EA5" unicode="&#x1ea5;" horiz-adv-x="579" 
d="M508 780h162l-81 -139h-140zM258 682h124l152 -157h-156l-58 67l-58 -67h-156zM80.5 28.5q-55.5 43.5 -55.5 121.5q0 81 53.5 124.5t153.5 43.5q39 0 78 -8.5t67 -22.5v10q0 77 -126 77q-88 0 -161 -34v121q32 15 84 24.5t108 9.5q134 0 202.5 -53.5t68.5 -149.5v-292
h-165v41q-27 -26 -68 -41t-94 -15q-90 0 -145.5 43.5zM336 105.5q27 12.5 41 32.5v42q-43 29 -98 29q-35 0 -54 -15t-19 -44q0 -27 18.5 -42t53.5 -15q31 0 58 12.5z" />
    <glyph glyph-name="uni1EA6" unicode="&#x1ea6;" horiz-adv-x="776" 
d="M40 997h162l59 -139h-140zM328 899h124l152 -157h-156l-58 67l-58 -67h-156zM298 699h174l279 -699h-181l-56 144h-258l-56 -144h-182zM470 280l-85 235l-86 -235h171z" />
    <glyph glyph-name="uni1EA7" unicode="&#x1ea7;" horiz-adv-x="549" 
d="M-75 780h162l59 -139h-140zM213 682h124l152 -157h-156l-58 67l-58 -67h-156zM36.5 28.5q-55.5 43.5 -55.5 121.5q0 81 53.5 124.5t153.5 43.5q39 0 78 -8.5t67 -22.5v10q0 77 -126 77q-88 0 -161 -34v121q32 15 84 24.5t108 9.5q134 0 202.5 -53.5t68.5 -149.5v-292
h-165v41q-27 -26 -68 -41t-94 -15q-90 0 -145.5 43.5zM292 105.5q27 12.5 41 32.5v42q-43 29 -98 29q-35 0 -54 -15t-19 -44q0 -27 18.5 -42t53.5 -15q31 0 58 12.5z" />
    <glyph glyph-name="uni1EA8" unicode="&#x1ea8;" horiz-adv-x="783" 
d="M522 898q26 0 39 6t13 20q0 23 -40 23q-21 0 -37 -7v59q17 5 42 8.5t44 3.5q51 0 79.5 -20t28.5 -54q0 -24 -16 -41t-45 -24v-25h-108v51zM328 899h124l152 -157h-156l-58 67l-58 -67h-156zM305 699h174l279 -699h-181l-56 144h-258l-56 -144h-182zM477 280l-85 235
l-86 -235h171z" />
    <glyph glyph-name="uni1EA9" unicode="&#x1ea9;" horiz-adv-x="608" 
d="M444 681q26 0 39 6t13 20q0 23 -40 23q-21 0 -37 -7v59q17 5 42 8.5t44 3.5q51 0 79.5 -20t28.5 -54q0 -24 -16 -41t-45 -24v-25h-108v51zM250 682h124l152 -157h-156l-58 67l-58 -67h-156zM80.5 28.5q-55.5 43.5 -55.5 121.5q0 81 53.5 124.5t153.5 43.5q39 0 78 -8.5
t67 -22.5v10q0 77 -126 77q-88 0 -161 -34v121q32 15 84 24.5t108 9.5q134 0 202.5 -53.5t68.5 -149.5v-292h-165v41q-27 -26 -68 -41t-94 -15q-90 0 -145.5 43.5zM336 105.5q27 12.5 41 32.5v42q-43 29 -98 29q-35 0 -54 -15t-19 -44q0 -27 18.5 -42t53.5 -15q31 0 58 12.5
z" />
    <glyph glyph-name="uni1EAA" unicode="&#x1eaa;" horiz-adv-x="783" 
d="M441 915.5q-19 5.5 -47 16.5q-25 10 -41.5 15t-32.5 5q-49 0 -83 -41v101q27 34 83 34q17 0 34.5 -5t46.5 -16q25 -10 43 -15.5t35 -5.5q50 0 83 41v-102q-27 -33 -83 -33q-19 0 -38 5.5zM330 899h124l152 -157h-156l-58 67l-58 -67h-156zM305 699h174l279 -699h-181
l-56 144h-258l-56 -144h-182zM477 280l-85 235l-86 -235h171z" />
    <glyph glyph-name="uni1EAB" unicode="&#x1eab;" horiz-adv-x="593" 
d="M366 698.5q-19 5.5 -47 16.5q-25 10 -41.5 15t-32.5 5q-49 0 -83 -41v101q27 34 83 34q17 0 34.5 -5t46.5 -16q25 -10 43 -15.5t35 -5.5q50 0 83 41v-102q-27 -33 -83 -33q-19 0 -38 5.5zM255 682h124l152 -157h-156l-58 67l-58 -67h-156zM80.5 28.5
q-55.5 43.5 -55.5 121.5q0 81 53.5 124.5t153.5 43.5q39 0 78 -8.5t67 -22.5v10q0 77 -126 77q-88 0 -161 -34v121q32 15 84 24.5t108 9.5q134 0 202.5 -53.5t68.5 -149.5v-292h-165v41q-27 -26 -68 -41t-94 -15q-90 0 -145.5 43.5zM336 105.5q27 12.5 41 32.5v42
q-43 29 -98 29q-35 0 -54 -15t-19 -44q0 -27 18.5 -42t53.5 -15q31 0 58 12.5z" />
    <glyph glyph-name="uni1EAC" unicode="&#x1eac;" horiz-adv-x="783" 
d="M314 923h157l156 -181h-174l-60 85l-60 -85h-175zM305 699h174l279 -699h-181l-56 144h-258l-56 -144h-182zM477 280l-85 235l-86 -235h171zM338 -177.5q-23 22.5 -23 54.5t23 54.5t55 22.5t54 -22.5t22 -54.5t-22 -54.5t-54 -22.5t-55 22.5z" />
    <glyph glyph-name="uni1EAD" unicode="&#x1ead;" horiz-adv-x="593" 
d="M228 706h157l156 -181h-174l-60 85l-60 -85h-175zM80.5 28.5q-55.5 43.5 -55.5 121.5q0 81 53.5 124.5t153.5 43.5q39 0 78 -8.5t67 -22.5v10q0 77 -126 77q-88 0 -161 -34v121q32 15 84 24.5t108 9.5q134 0 202.5 -53.5t68.5 -149.5v-292h-165v41q-27 -26 -68 -41
t-94 -15q-90 0 -145.5 43.5zM336 105.5q27 12.5 41 32.5v42q-43 29 -98 29q-35 0 -54 -15t-19 -44q0 -27 18.5 -42t53.5 -15q31 0 58 12.5zM258 -177.5q-23 22.5 -23 54.5t23 54.5t55 22.5t54 -22.5t22 -54.5t-22 -54.5t-54 -22.5t-55 22.5z" />
    <glyph glyph-name="uni1EAE" unicode="&#x1eae;" horiz-adv-x="783" 
d="M381 1041h144l-70 -127h-124zM266 782q-47 40 -47 110h115q0 -28 14.5 -41t43.5 -13t43 13t14 41h116q0 -70 -47 -110t-126 -40t-126 40zM305 699h174l279 -699h-181l-56 144h-258l-56 -144h-182zM477 280l-85 235l-86 -235h171z" />
    <glyph glyph-name="uni1EAF" unicode="&#x1eaf;" horiz-adv-x="593" 
d="M308 824h144l-70 -127h-124zM193 565q-47 40 -47 110h115q0 -28 14.5 -41t43.5 -13t43 13t14 41h116q0 -70 -47 -110t-126 -40t-126 40zM80.5 28.5q-55.5 43.5 -55.5 121.5q0 81 53.5 124.5t153.5 43.5q39 0 78 -8.5t67 -22.5v10q0 77 -126 77q-88 0 -161 -34v121
q32 15 84 24.5t108 9.5q134 0 202.5 -53.5t68.5 -149.5v-292h-165v41q-27 -26 -68 -41t-94 -15q-90 0 -145.5 43.5zM336 105.5q27 12.5 41 32.5v42q-43 29 -98 29q-35 0 -54 -15t-19 -44q0 -27 18.5 -42t53.5 -15q31 0 58 12.5z" />
    <glyph glyph-name="uni1EB0" unicode="&#x1eb0;" horiz-adv-x="783" 
d="M259 1041h144l50 -127h-124zM266 782q-47 40 -47 110h116q0 -28 14 -41t43 -13t43.5 13t14.5 41h115q0 -70 -47 -110t-126 -40t-126 40zM305 699h174l279 -699h-181l-56 144h-258l-56 -144h-182zM477 280l-85 235l-86 -235h171z" />
    <glyph glyph-name="uni1EB1" unicode="&#x1eb1;" horiz-adv-x="593" 
d="M188 822h144l50 -127h-124zM195 563q-47 40 -47 110h116q0 -28 14 -41t43 -13t43.5 13t14.5 41h115q0 -70 -47 -110t-126 -40t-126 40zM80.5 28.5q-55.5 43.5 -55.5 121.5q0 81 53.5 124.5t153.5 43.5q39 0 78 -8.5t67 -22.5v10q0 77 -126 77q-88 0 -161 -34v121
q32 15 84 24.5t108 9.5q134 0 202.5 -53.5t68.5 -149.5v-292h-165v41q-27 -26 -68 -41t-94 -15q-90 0 -145.5 43.5zM336 105.5q27 12.5 41 32.5v42q-43 29 -98 29q-35 0 -54 -15t-19 -44q0 -27 18.5 -42t53.5 -15q31 0 58 12.5z" />
    <glyph glyph-name="uni1EB2" unicode="&#x1eb2;" horiz-adv-x="783" 
d="M342 950q25 0 38 6t13 20q0 12 -9.5 17.5t-30.5 5.5q-9 0 -20 -2t-16 -5v59q16 5 40 8.5t45 3.5q54 0 81.5 -19.5t27.5 -53.5q0 -56 -61 -69v-19h-108v48zM266 782q-47 40 -47 110h116q0 -28 14 -41t43 -13t43.5 13t14.5 41h115q0 -70 -47 -110t-126 -40t-126 40z
M305 699h174l279 -699h-181l-56 144h-258l-56 -144h-182zM477 280l-85 235l-86 -235h171z" />
    <glyph glyph-name="uni1EB3" unicode="&#x1eb3;" horiz-adv-x="593" 
d="M269 731q25 0 38 6t13 20q0 12 -9.5 17.5t-30.5 5.5q-9 0 -20 -2t-16 -5v59q16 5 40 8.5t45 3.5q54 0 81.5 -19.5t27.5 -53.5q0 -56 -61 -69v-19h-108v48zM193 563q-47 40 -47 110h116q0 -28 14 -41t43 -13t43.5 13t14.5 41h115q0 -70 -47 -110t-126 -40t-126 40z
M80.5 28.5q-55.5 43.5 -55.5 121.5q0 81 53.5 124.5t153.5 43.5q39 0 78 -8.5t67 -22.5v10q0 77 -126 77q-88 0 -161 -34v121q32 15 84 24.5t108 9.5q134 0 202.5 -53.5t68.5 -149.5v-292h-165v41q-27 -26 -68 -41t-94 -15q-90 0 -145.5 43.5zM336 105.5q27 12.5 41 32.5v42
q-43 29 -98 29q-35 0 -54 -15t-19 -44q0 -27 18.5 -42t53.5 -15q31 0 58 12.5z" />
    <glyph glyph-name="uni1EB4" unicode="&#x1eb4;" horiz-adv-x="783" 
d="M432.5 927.5q-19.5 5.5 -45.5 16.5q-27 10 -43 15t-32 5q-49 0 -83 -41v101q27 34 83 34q16 0 32 -4.5t30.5 -9.5t19.5 -7q50 -21 78 -21q49 0 83 41v-102q-27 -33 -83 -33q-20 0 -39.5 5.5zM266 782q-47 40 -47 110h116q0 -28 14 -41t43 -13t43.5 13t14.5 41h115
q0 -70 -47 -110t-126 -40t-126 40zM305 699h174l279 -699h-181l-56 144h-258l-56 -144h-182zM477 280l-85 235l-86 -235h171z" />
    <glyph glyph-name="uni1EB5" unicode="&#x1eb5;" horiz-adv-x="593" 
d="M369 711q-20 6 -46 16q-27 10 -43 15t-32 5q-49 0 -83 -41v101q27 34 83 34q16 0 32 -4.5t30.5 -9.5t19.5 -7q50 -21 78 -21q49 0 83 41v-102q-27 -33 -83 -33q-19 0 -39 6zM202 565q-47 40 -47 110h116q0 -28 14 -41t43 -13t43.5 13t14.5 41h115q0 -70 -47 -110
t-126 -40t-126 40zM80.5 28.5q-55.5 43.5 -55.5 121.5q0 81 53.5 124.5t153.5 43.5q39 0 78 -8.5t67 -22.5v10q0 77 -126 77q-88 0 -161 -34v121q32 15 84 24.5t108 9.5q134 0 202.5 -53.5t68.5 -149.5v-292h-165v41q-27 -26 -68 -41t-94 -15q-90 0 -145.5 43.5zM336 105.5
q27 12.5 41 32.5v42q-43 29 -98 29q-35 0 -54 -15t-19 -44q0 -27 18.5 -42t53.5 -15q31 0 58 12.5z" />
    <glyph glyph-name="uni1EB6" unicode="&#x1eb6;" horiz-adv-x="783" 
d="M257 788.5q-48 46.5 -48 126.5h131q0 -62 52 -62q25 0 38.5 16t13.5 46h131q0 -80 -48 -126.5t-135 -46.5t-135 46.5zM305 699h174l279 -699h-181l-56 144h-258l-56 -144h-182zM477 280l-85 235l-86 -235h171zM338 -177.5q-23 22.5 -23 54.5t23 54.5t55 22.5t54 -22.5
t22 -54.5t-22 -54.5t-54 -22.5t-55 22.5z" />
    <glyph glyph-name="uni1EB7" unicode="&#x1eb7;" horiz-adv-x="593" 
d="M176 571.5q-48 46.5 -48 126.5h131q0 -62 52 -62q25 0 38.5 16t13.5 46h131q0 -80 -48 -126.5t-135 -46.5t-135 46.5zM80.5 28.5q-55.5 43.5 -55.5 121.5q0 81 53.5 124.5t153.5 43.5q39 0 78 -8.5t67 -22.5v10q0 77 -126 77q-88 0 -161 -34v121q32 15 84 24.5t108 9.5
q134 0 202.5 -53.5t68.5 -149.5v-292h-165v41q-27 -26 -68 -41t-94 -15q-90 0 -145.5 43.5zM336 105.5q27 12.5 41 32.5v42q-43 29 -98 29q-35 0 -54 -15t-19 -44q0 -27 18.5 -42t53.5 -15q31 0 58 12.5zM257 -177.5q-23 22.5 -23 54.5t23 54.5t55 22.5t54 -22.5t22 -54.5
t-22 -54.5t-54 -22.5t-55 22.5z" />
    <glyph glyph-name="uni1EB8" unicode="&#x1eb8;" horiz-adv-x="566" 
d="M45 699h496v-149h-319v-131h233v-139h-233v-131h319v-149h-496v699zM241 -177.5q-23 22.5 -23 54.5t23 54.5t55 22.5t54 -22.5t22 -54.5t-22 -54.5t-54 -22.5t-55 22.5z" />
    <glyph glyph-name="uni1EB9" unicode="&#x1eb9;" horiz-adv-x="600" 
d="M105.5 51q-80.5 66 -80.5 187q0 119 71.5 188t206.5 69q86 0 147.5 -32.5t93 -89t31.5 -127.5v-65h-383q10 -40 50 -58t109 -18q47 0 96.5 8t85.5 22v-116q-37 -15 -92.5 -24.5t-113.5 -9.5q-141 0 -221.5 66zM409 291q-4 39 -32 61t-77 22q-48 0 -76 -22.5t-32 -60.5
h217zM274 -177.5q-23 22.5 -23 54.5t23 54.5t55 22.5t54 -22.5t22 -54.5t-22 -54.5t-54 -22.5t-55 22.5z" />
    <glyph glyph-name="uni1EBA" unicode="&#x1eba;" horiz-adv-x="566" 
d="M214 812q39 0 59.5 9t20.5 31q0 33 -59 33q-13 0 -30.5 -3t-26.5 -7v84q22 7 56 11.5t64 4.5q77 0 117.5 -28.5t40.5 -77.5q0 -37 -23.5 -64.5t-64.5 -37.5v-25h-154v70zM45 699h496v-149h-319v-131h233v-139h-233v-131h319v-149h-496v699z" />
    <glyph glyph-name="uni1EBB" unicode="&#x1ebb;" horiz-adv-x="600" 
d="M233 596q39 0 59.5 9t20.5 31q0 33 -59 33q-13 0 -30.5 -3t-26.5 -7v84q22 7 56 11.5t64 4.5q77 0 117.5 -28.5t40.5 -77.5q0 -37 -23.5 -64.5t-64.5 -37.5v-25h-154v70zM105.5 51q-80.5 66 -80.5 187q0 119 71.5 188t206.5 69q86 0 147.5 -32.5t93 -89t31.5 -127.5v-65
h-383q10 -40 50 -58t109 -18q47 0 96.5 8t85.5 22v-116q-37 -15 -92.5 -24.5t-113.5 -9.5q-141 0 -221.5 66zM409 291q-4 39 -32 61t-77 22q-48 0 -76 -22.5t-32 -60.5h217z" />
    <glyph glyph-name="uni1EBC" unicode="&#x1ebc;" horiz-adv-x="566" 
d="M106 870q35 42 105 42q22 0 44 -6t57 -19q30 -12 52 -18.5t44 -6.5q63 0 105 50v-128q-34 -41 -105 -41q-25 0 -49 6.5t-56 19.5q-32 12 -51.5 18t-40.5 6q-62 0 -105 -51v128zM45 699h496v-149h-319v-131h233v-139h-233v-131h319v-149h-496v699z" />
    <glyph glyph-name="uni1EBD" unicode="&#x1ebd;" horiz-adv-x="600" 
d="M121 654q35 42 105 42q22 0 44 -6t57 -19q30 -12 52 -18.5t44 -6.5q63 0 105 50v-128q-34 -41 -105 -41q-25 0 -49 6.5t-56 19.5q-32 12 -51.5 18t-40.5 6q-62 0 -105 -51v128zM105.5 51q-80.5 66 -80.5 187q0 119 71.5 188t206.5 69q86 0 147.5 -32.5t93 -89
t31.5 -127.5v-65h-383q10 -40 50 -58t109 -18q47 0 96.5 8t85.5 22v-116q-37 -15 -92.5 -24.5t-113.5 -9.5q-141 0 -221.5 66zM409 291q-4 39 -32 61t-77 22q-48 0 -76 -22.5t-32 -60.5h217z" />
    <glyph glyph-name="uni1EBE" unicode="&#x1ebe;" horiz-adv-x="566" 
d="M485 997h162l-81 -139h-140zM235 899h124l152 -157h-156l-58 67l-58 -67h-156zM45 699h496v-149h-319v-131h233v-139h-233v-131h319v-149h-496v699z" />
    <glyph glyph-name="uni1EBF" unicode="&#x1ebf;" horiz-adv-x="570" 
d="M505 780h162l-81 -139h-140zM255 682h124l152 -157h-156l-58 67l-58 -67h-156zM105.5 51q-80.5 66 -80.5 187q0 119 71.5 188t206.5 69q86 0 147.5 -32.5t93 -89t31.5 -127.5v-65h-383q10 -40 50 -58t109 -18q47 0 96.5 8t85.5 22v-116q-37 -15 -92.5 -24.5t-113.5 -9.5
q-141 0 -221.5 66zM409 291q-4 39 -32 61t-77 22q-48 0 -76 -22.5t-32 -60.5h217z" />
    <glyph glyph-name="uni1EC0" unicode="&#x1ec0;" horiz-adv-x="566" 
d="M-58 997h162l59 -139h-140zM246 899h124l152 -157h-156l-58 67l-58 -67h-156zM45 699h496v-149h-319v-131h233v-139h-233v-131h319v-149h-496v699z" />
    <glyph glyph-name="uni1EC1" unicode="&#x1ec1;" horiz-adv-x="540" 
d="M-89 780h162l59 -139h-140zM199 682h124l152 -157h-156l-58 67l-58 -67h-156zM45.5 51q-80.5 66 -80.5 187q0 119 71.5 188t206.5 69q86 0 147.5 -32.5t93 -89t31.5 -127.5v-65h-383q10 -40 50 -58t109 -18q47 0 96.5 8t85.5 22v-116q-37 -15 -92.5 -24.5t-113.5 -9.5
q-141 0 -221.5 66zM349 291q-4 39 -32 61t-77 22q-48 0 -76 -22.5t-32 -60.5h217z" />
    <glyph glyph-name="uni1EC2" unicode="&#x1ec2;" horiz-adv-x="566" 
d="M430 898q26 0 39 6t13 20q0 23 -40 23q-21 0 -37 -7v59q17 5 42 8.5t44 3.5q51 0 79.5 -20t28.5 -54q0 -24 -16 -41t-45 -24v-25h-108v51zM236 899h124l152 -157h-156l-58 67l-58 -67h-156zM45 699h496v-149h-319v-131h233v-139h-233v-131h319v-149h-496v699z" />
    <glyph glyph-name="uni1EC3" unicode="&#x1ec3;" horiz-adv-x="616" 
d="M442 686q26 0 39 6t13 20q0 23 -40 23q-21 0 -37 -7v59q17 5 42 8.5t44 3.5q51 0 79.5 -20t28.5 -54q0 -24 -16 -41t-45 -24v-25h-108v51zM248 687h124l152 -157h-156l-58 67l-58 -67h-156zM105.5 51q-80.5 66 -80.5 187q0 119 71.5 188t206.5 69q86 0 147.5 -32.5
t93 -89t31.5 -127.5v-65h-383q10 -40 50 -58t109 -18q47 0 96.5 8t85.5 22v-116q-37 -15 -92.5 -24.5t-113.5 -9.5q-141 0 -221.5 66zM409 291q-4 39 -32 61t-77 22q-48 0 -76 -22.5t-32 -60.5h217z" />
    <glyph glyph-name="uni1EC4" unicode="&#x1ec4;" horiz-adv-x="566" 
d="M352 915.5q-19 5.5 -47 16.5q-25 10 -41.5 15t-32.5 5q-49 0 -83 -41v101q27 34 83 34q17 0 34.5 -5t46.5 -16q25 -10 43 -15.5t35 -5.5q50 0 83 41v-102q-27 -33 -83 -33q-19 0 -38 5.5zM241 899h124l152 -157h-156l-58 67l-58 -67h-156zM45 699h496v-149h-319v-131h233
v-139h-233v-131h319v-149h-496v699z" />
    <glyph glyph-name="uni1EC5" unicode="&#x1ec5;" horiz-adv-x="600" 
d="M364 698.5q-19 5.5 -47 16.5q-25 10 -41.5 15t-32.5 5q-49 0 -83 -41v101q27 34 83 34q17 0 34.5 -5t46.5 -16q25 -10 43 -15.5t35 -5.5q50 0 83 41v-102q-27 -33 -83 -33q-19 0 -38 5.5zM253 682h124l152 -157h-156l-58 67l-58 -67h-156zM105.5 51q-80.5 66 -80.5 187
q0 119 71.5 188t206.5 69q86 0 147.5 -32.5t93 -89t31.5 -127.5v-65h-383q10 -40 50 -58t109 -18q47 0 96.5 8t85.5 22v-116q-37 -15 -92.5 -24.5t-113.5 -9.5q-141 0 -221.5 66zM409 291q-4 39 -32 61t-77 22q-48 0 -76 -22.5t-32 -60.5h217z" />
    <glyph glyph-name="uni1EC6" unicode="&#x1ec6;" horiz-adv-x="566" 
d="M226 923h157l156 -181h-174l-60 85l-60 -85h-175zM45 699h496v-149h-319v-131h233v-139h-233v-131h319v-149h-496v699zM251 -177.5q-23 22.5 -23 54.5t23 54.5t55 22.5t54 -22.5t22 -54.5t-22 -54.5t-54 -22.5t-55 22.5z" />
    <glyph glyph-name="uni1EC7" unicode="&#x1ec7;" horiz-adv-x="614" 
d="M251 706h157l156 -181h-174l-60 85l-60 -85h-175zM119.5 51q-80.5 66 -80.5 187q0 119 71.5 188t206.5 69q86 0 147.5 -32.5t93 -89t31.5 -127.5v-65h-383q10 -40 50 -58t109 -18q47 0 96.5 8t85.5 22v-116q-37 -15 -92.5 -24.5t-113.5 -9.5q-141 0 -221.5 66zM423 291
q-4 39 -32 61t-77 22q-48 0 -76 -22.5t-32 -60.5h217zM276 -177.5q-23 22.5 -23 54.5t23 54.5t55 22.5t54 -22.5t22 -54.5t-22 -54.5t-54 -22.5t-55 22.5z" />
    <glyph glyph-name="uni1EC8" unicode="&#x1ec8;" horiz-adv-x="267" 
d="M56 812q39 0 59.5 9t20.5 31q0 33 -59 33q-13 0 -30.5 -3t-26.5 -7v84q22 7 56 11.5t64 4.5q77 0 117.5 -28.5t40.5 -77.5q0 -37 -23.5 -64.5t-64.5 -37.5v-25h-154v70zM45 699h177v-699h-177v699z" />
    <glyph glyph-name="uni1EC9" unicode="&#x1ec9;" horiz-adv-x="266" 
d="M56 596q39 0 59.5 9t20.5 31q0 33 -59 33q-13 0 -30.5 -3t-26.5 -7v84q22 7 56 11.5t64 4.5q77 0 117.5 -28.5t40.5 -77.5q0 -37 -23.5 -64.5t-64.5 -37.5v-25h-154v70zM45 480h176v-480h-176v480z" />
    <glyph glyph-name="uni1ECA" unicode="&#x1eca;" horiz-adv-x="267" 
d="M45 699h177v-699h-177v699zM79 -177.5q-23 22.5 -23 54.5t23 54.5t55 22.5t54 -22.5t22 -54.5t-22 -54.5t-54 -22.5t-55 22.5z" />
    <glyph glyph-name="uni1ECB" unicode="&#x1ecb;" horiz-adv-x="278" 
d="M72 570q-27 26 -27 66q0 39 27 65.5t67 26.5q39 0 66.5 -26.5t27.5 -65.5t-27.5 -65.5t-66.5 -26.5q-40 0 -67 26zM51 480h176v-480h-176v480zM85 -177.5q-23 22.5 -23 54.5t23 54.5t55 22.5t54 -22.5t22 -54.5t-22 -54.5t-54 -22.5t-55 22.5z" />
    <glyph glyph-name="uni1ECC" unicode="&#x1ecc;" horiz-adv-x="800" 
d="M209.5 31q-85.5 46 -135 128.5t-49.5 189.5t49.5 190t135 129t191.5 46q105 0 190.5 -46t134.5 -129t49 -190t-49 -189.5t-134.5 -128.5t-190.5 -46q-106 0 -191.5 46zM498 175q44 24 70 69t26 105t-25.5 104.5t-69.5 69t-98 24.5q-55 0 -99 -24.5t-69.5 -69
t-25.5 -104.5t25.5 -105t70 -69t98.5 -24q53 0 97 24zM346 -177.5q-23 22.5 -23 54.5t23 54.5t55 22.5t54 -22.5t22 -54.5t-22 -54.5t-54 -22.5t-55 22.5z" />
    <glyph glyph-name="uni1ECD" unicode="&#x1ecd;" horiz-adv-x="642" 
d="M165 17.5q-67 32.5 -103.5 90t-36.5 132.5t36.5 132.5t103.5 90t156 32.5t156 -32.5t103.5 -90t36.5 -132.5t-36.5 -132.5t-103.5 -90t-156 -32.5t-156 32.5zM405.5 153.5q31.5 31.5 31.5 86.5t-31.5 86.5t-84.5 31.5t-84.5 -31.5t-31.5 -86.5t31.5 -86.5t84.5 -31.5
t84.5 31.5zM267 -177.5q-23 22.5 -23 54.5t23 54.5t55 22.5t54 -22.5t22 -54.5t-22 -54.5t-54 -22.5t-55 22.5z" />
    <glyph glyph-name="uni1ECE" unicode="&#x1ece;" horiz-adv-x="800" 
d="M322 812q39 0 59.5 9t20.5 31q0 33 -59 33q-13 0 -30.5 -3t-26.5 -7v84q22 7 56 11.5t64 4.5q77 0 117.5 -28.5t40.5 -77.5q0 -37 -23.5 -64.5t-64.5 -37.5v-25h-154v70zM209.5 31q-85.5 46 -135 128.5t-49.5 189.5t49.5 190t135 129t191.5 46q105 0 190.5 -46
t134.5 -129t49 -190t-49 -189.5t-134.5 -128.5t-190.5 -46q-106 0 -191.5 46zM498 175q44 24 70 69t26 105t-25.5 104.5t-69.5 69t-98 24.5q-55 0 -99 -24.5t-69.5 -69t-25.5 -104.5t25.5 -105t70 -69t98.5 -24q53 0 97 24z" />
    <glyph glyph-name="uni1ECF" unicode="&#x1ecf;" horiz-adv-x="642" 
d="M257 596q39 0 59.5 9t20.5 31q0 33 -59 33q-13 0 -30.5 -3t-26.5 -7v84q22 7 56 11.5t64 4.5q77 0 117.5 -28.5t40.5 -77.5q0 -37 -23.5 -64.5t-64.5 -37.5v-25h-154v70zM165 17.5q-67 32.5 -103.5 90t-36.5 132.5t36.5 132.5t103.5 90t156 32.5t156 -32.5t103.5 -90
t36.5 -132.5t-36.5 -132.5t-103.5 -90t-156 -32.5t-156 32.5zM405.5 153.5q31.5 31.5 31.5 86.5t-31.5 86.5t-84.5 31.5t-84.5 -31.5t-31.5 -86.5t31.5 -86.5t84.5 -31.5t84.5 31.5z" />
    <glyph glyph-name="uni1ED0" unicode="&#x1ed0;" horiz-adv-x="778" 
d="M593 997h162l-81 -139h-140zM343 899h124l152 -157h-156l-58 67l-58 -67h-156zM209.5 31q-85.5 46 -135 128.5t-49.5 189.5t49.5 190t135 129t191.5 46q105 0 190.5 -46t134.5 -129t49 -190t-49 -189.5t-134.5 -128.5t-190.5 -46q-106 0 -191.5 46zM498 175q44 24 70 69
t26 105t-25.5 104.5t-69.5 69t-98 24.5q-55 0 -99 -24.5t-69.5 -69t-25.5 -104.5t25.5 -105t70 -69t98.5 -24q53 0 97 24z" />
    <glyph glyph-name="uni1ED1" unicode="&#x1ed1;" horiz-adv-x="642" 
d="M508 780h162l-81 -139h-140zM258 682h124l152 -157h-156l-58 67l-58 -67h-156zM165 17.5q-67 32.5 -103.5 90t-36.5 132.5t36.5 132.5t103.5 90t156 32.5t156 -32.5t103.5 -90t36.5 -132.5t-36.5 -132.5t-103.5 -90t-156 -32.5t-156 32.5zM405.5 153.5
q31.5 31.5 31.5 86.5t-31.5 86.5t-84.5 31.5t-84.5 -31.5t-31.5 -86.5t31.5 -86.5t84.5 -31.5t84.5 31.5z" />
    <glyph glyph-name="uni1ED2" unicode="&#x1ed2;" horiz-adv-x="778" 
d="M31 997h162l59 -139h-140zM319 899h124l152 -157h-156l-58 67l-58 -67h-156zM187.5 31q-85.5 46 -135 128.5t-49.5 189.5t49.5 190t135 129t191.5 46q105 0 190.5 -46t134.5 -129t49 -190t-49 -189.5t-134.5 -128.5t-190.5 -46q-106 0 -191.5 46zM476 175q44 24 70 69
t26 105t-25.5 104.5t-69.5 69t-98 24.5q-55 0 -99 -24.5t-69.5 -69t-25.5 -104.5t25.5 -105t70 -69t98.5 -24q53 0 97 24z" />
    <glyph glyph-name="uni1ED3" unicode="&#x1ed3;" horiz-adv-x="642" 
d="M-27 780h162l59 -139h-140zM265 682h124l152 -157h-156l-58 67l-58 -67h-156zM165 17.5q-67 32.5 -103.5 90t-36.5 132.5t36.5 132.5t103.5 90t156 32.5t156 -32.5t103.5 -90t36.5 -132.5t-36.5 -132.5t-103.5 -90t-156 -32.5t-156 32.5zM405.5 153.5
q31.5 31.5 31.5 86.5t-31.5 86.5t-84.5 31.5t-84.5 -31.5t-31.5 -86.5t31.5 -86.5t84.5 -31.5t84.5 31.5z" />
    <glyph glyph-name="uni1ED4" unicode="&#x1ed4;" horiz-adv-x="800" 
d="M534 898q26 0 39 6t13 20q0 23 -40 23q-21 0 -37 -7v59q17 5 42 8.5t44 3.5q51 0 79.5 -20t28.5 -54q0 -24 -16 -41t-45 -24v-25h-108v51zM340 899h124l152 -157h-156l-58 67l-58 -67h-156zM209.5 31q-85.5 46 -135 128.5t-49.5 189.5t49.5 190t135 129t191.5 46
q105 0 190.5 -46t134.5 -129t49 -190t-49 -189.5t-134.5 -128.5t-190.5 -46q-106 0 -191.5 46zM498 175q44 24 70 69t26 105t-25.5 104.5t-69.5 69t-98 24.5q-55 0 -99 -24.5t-69.5 -69t-25.5 -104.5t25.5 -105t70 -69t98.5 -24q53 0 97 24z" />
    <glyph glyph-name="uni1ED5" unicode="&#x1ed5;" horiz-adv-x="642" 
d="M465 681q26 0 39 6t13 20q0 23 -40 23q-21 0 -37 -7v59q17 5 42 8.5t44 3.5q51 0 79.5 -20t28.5 -54q0 -24 -16 -41t-45 -24v-25h-108v51zM271 682h124l152 -157h-156l-58 67l-58 -67h-156zM165 17.5q-67 32.5 -103.5 90t-36.5 132.5t36.5 132.5t103.5 90t156 32.5
t156 -32.5t103.5 -90t36.5 -132.5t-36.5 -132.5t-103.5 -90t-156 -32.5t-156 32.5zM405.5 153.5q31.5 31.5 31.5 86.5t-31.5 86.5t-84.5 31.5t-84.5 -31.5t-31.5 -86.5t31.5 -86.5t84.5 -31.5t84.5 31.5z" />
    <glyph glyph-name="uni1ED6" unicode="&#x1ed6;" horiz-adv-x="800" 
d="M440.5 927.5q-19.5 5.5 -45.5 16.5q-27 10 -43 15t-32 5q-49 0 -83 -41v101q27 34 83 34q16 0 32 -4.5t30.5 -9.5t19.5 -7q50 -21 78 -21q49 0 83 41v-102q-27 -33 -83 -33q-20 0 -39.5 5.5zM274 782q-47 40 -47 110h116q0 -28 14 -41t43 -13t43.5 13t14.5 41h115
q0 -70 -47 -110t-126 -40t-126 40zM209.5 31q-85.5 46 -135 128.5t-49.5 189.5t49.5 190t135 129t191.5 46q105 0 190.5 -46t134.5 -129t49 -190t-49 -189.5t-134.5 -128.5t-190.5 -46q-106 0 -191.5 46zM498 175q44 24 70 69t26 105t-25.5 104.5t-69.5 69t-98 24.5
q-55 0 -99 -24.5t-69.5 -69t-25.5 -104.5t25.5 -105t70 -69t98.5 -24q53 0 97 24z" />
    <glyph glyph-name="uni1ED7" unicode="&#x1ed7;" horiz-adv-x="642" 
d="M362 711q-20 6 -46 16q-27 10 -43 15t-32 5q-49 0 -83 -41v101q27 34 83 34q16 0 32 -4.5t30.5 -9.5t19.5 -7q50 -21 78 -21q49 0 83 41v-102q-27 -33 -83 -33q-19 0 -39 6zM195 565q-47 40 -47 110h116q0 -28 14 -41t43 -13t43.5 13t14.5 41h115q0 -70 -47 -110
t-126 -40t-126 40zM165 17.5q-67 32.5 -103.5 90t-36.5 132.5t36.5 132.5t103.5 90t156 32.5t156 -32.5t103.5 -90t36.5 -132.5t-36.5 -132.5t-103.5 -90t-156 -32.5t-156 32.5zM405.5 153.5q31.5 31.5 31.5 86.5t-31.5 86.5t-84.5 31.5t-84.5 -31.5t-31.5 -86.5t31.5 -86.5
t84.5 -31.5t84.5 31.5z" />
    <glyph glyph-name="uni1ED8" unicode="&#x1ed8;" horiz-adv-x="800" 
d="M322 923h157l156 -181h-174l-60 85l-60 -85h-175zM209.5 31q-85.5 46 -135 128.5t-49.5 189.5t49.5 190t135 129t191.5 46q105 0 190.5 -46t134.5 -129t49 -190t-49 -189.5t-134.5 -128.5t-190.5 -46q-106 0 -191.5 46zM498 175q44 24 70 69t26 105t-25.5 104.5t-69.5 69
t-98 24.5q-55 0 -99 -24.5t-69.5 -69t-25.5 -104.5t25.5 -105t70 -69t98.5 -24q53 0 97 24zM348 -177.5q-23 22.5 -23 54.5t23 54.5t55 22.5t54 -22.5t22 -54.5t-22 -54.5t-54 -22.5t-55 22.5z" />
    <glyph glyph-name="uni1ED9" unicode="&#x1ed9;" horiz-adv-x="642" 
d="M243 706h157l156 -181h-174l-60 85l-60 -85h-175zM165 17.5q-67 32.5 -103.5 90t-36.5 132.5t36.5 132.5t103.5 90t156 32.5t156 -32.5t103.5 -90t36.5 -132.5t-36.5 -132.5t-103.5 -90t-156 -32.5t-156 32.5zM405.5 153.5q31.5 31.5 31.5 86.5t-31.5 86.5t-84.5 31.5
t-84.5 -31.5t-31.5 -86.5t31.5 -86.5t84.5 -31.5t84.5 31.5zM268 -177.5q-23 22.5 -23 54.5t23 54.5t55 22.5t54 -22.5t22 -54.5t-22 -54.5t-54 -22.5t-55 22.5z" />
    <glyph glyph-name="uni1EDA" unicode="&#x1eda;" horiz-adv-x="896" 
d="M400 920h185l-91 -178h-163zM209.5 31q-85.5 46 -135 128.5t-49.5 189.5t49.5 190t135 129t191.5 46q71 0 135 -22t113 -63q52 1 73 21t21 63v34h148v-45q0 -73 -39.5 -124.5t-111.5 -66.5q35 -76 35 -162q0 -107 -49 -189.5t-134.5 -128.5t-190.5 -46q-106 0 -191.5 46z
M495.5 180.5q42.5 23.5 67.5 67t25 101.5t-24.5 101.5t-67 67t-95.5 23.5t-96 -23.5t-67.5 -67t-24.5 -101.5t25 -102t67.5 -67t95.5 -23q52 0 94.5 23.5z" />
    <glyph glyph-name="uni1EDB" unicode="&#x1edb;" horiz-adv-x="753" 
d="M304 696h185l-91 -178h-163zM165 17.5q-67 32.5 -103.5 90t-36.5 132.5t36.5 132.5t103.5 90t156 32.5q116 0 195 -55q50 1 70 21t20 63v34h142v-45q0 -71 -38 -122.5t-107 -67.5q14 -40 14 -83q0 -75 -36.5 -132.5t-103.5 -90t-156 -32.5t-156 32.5zM405.5 153.5
q31.5 31.5 31.5 86.5t-31.5 86.5t-84.5 31.5t-84.5 -31.5t-31.5 -86.5t31.5 -86.5t84.5 -31.5t84.5 31.5z" />
    <glyph glyph-name="uni1EDC" unicode="&#x1edc;" horiz-adv-x="896" 
d="M234 920h185l69 -178h-163zM209.5 31q-85.5 46 -135 128.5t-49.5 189.5t49.5 190t135 129t191.5 46q71 0 135 -22t113 -63q52 1 73 21t21 63v34h148v-45q0 -73 -39.5 -124.5t-111.5 -66.5q35 -76 35 -162q0 -107 -49 -189.5t-134.5 -128.5t-190.5 -46q-106 0 -191.5 46z
M495.5 180.5q42.5 23.5 67.5 67t25 101.5t-24.5 101.5t-67 67t-95.5 23.5t-96 -23.5t-67.5 -67t-24.5 -101.5t25 -102t67.5 -67t95.5 -23q52 0 94.5 23.5z" />
    <glyph glyph-name="uni1EDD" unicode="&#x1edd;" horiz-adv-x="753" 
d="M154 696h185l69 -178h-163zM165 17.5q-67 32.5 -103.5 90t-36.5 132.5t36.5 132.5t103.5 90t156 32.5q116 0 195 -55q50 1 70 21t20 63v34h142v-45q0 -71 -38 -122.5t-107 -67.5q14 -40 14 -83q0 -75 -36.5 -132.5t-103.5 -90t-156 -32.5t-156 32.5zM405.5 153.5
q31.5 31.5 31.5 86.5t-31.5 86.5t-84.5 31.5t-84.5 -31.5t-31.5 -86.5t31.5 -86.5t84.5 -31.5t84.5 31.5z" />
    <glyph glyph-name="uni1EDE" unicode="&#x1ede;" horiz-adv-x="896" 
d="M332 812q39 0 59.5 9t20.5 31q0 33 -59 33q-13 0 -30.5 -3t-26.5 -7v84q22 7 56 11.5t64 4.5q77 0 117.5 -28.5t40.5 -77.5q0 -37 -23.5 -64.5t-64.5 -37.5v-25h-154v70zM209.5 31q-85.5 46 -135 128.5t-49.5 189.5t49.5 190t135 129t191.5 46q71 0 135 -22t113 -63
q52 1 73 21t21 63v34h148v-45q0 -73 -39.5 -124.5t-111.5 -66.5q35 -76 35 -162q0 -107 -49 -189.5t-134.5 -128.5t-190.5 -46q-106 0 -191.5 46zM495.5 180.5q42.5 23.5 67.5 67t25 101.5t-24.5 101.5t-67 67t-95.5 23.5t-96 -23.5t-67.5 -67t-24.5 -101.5t25 -102
t67.5 -67t95.5 -23q52 0 94.5 23.5z" />
    <glyph glyph-name="uni1EDF" unicode="&#x1edf;" horiz-adv-x="753" 
d="M239 596q39 0 59.5 9t20.5 31q0 33 -59 33q-13 0 -30.5 -3t-26.5 -7v84q22 7 56 11.5t64 4.5q77 0 117.5 -28.5t40.5 -77.5q0 -37 -23.5 -64.5t-64.5 -37.5v-25h-154v70zM165 17.5q-67 32.5 -103.5 90t-36.5 132.5t36.5 132.5t103.5 90t156 32.5q116 0 195 -55
q50 1 70 21t20 63v34h142v-45q0 -71 -38 -122.5t-107 -67.5q14 -40 14 -83q0 -75 -36.5 -132.5t-103.5 -90t-156 -32.5t-156 32.5zM405.5 153.5q31.5 31.5 31.5 86.5t-31.5 86.5t-84.5 31.5t-84.5 -31.5t-31.5 -86.5t31.5 -86.5t84.5 -31.5t84.5 31.5z" />
    <glyph glyph-name="uni1EE0" unicode="&#x1ee0;" horiz-adv-x="896" 
d="M208 870q35 42 105 42q22 0 44 -6t57 -19q30 -12 52 -18.5t44 -6.5q63 0 105 50v-128q-34 -41 -105 -41q-25 0 -49 6.5t-56 19.5q-32 12 -51.5 18t-40.5 6q-62 0 -105 -51v128zM209.5 31q-85.5 46 -135 128.5t-49.5 189.5t49.5 190t135 129t191.5 46q71 0 135 -22
t113 -63q52 1 73 21t21 63v34h148v-45q0 -73 -39.5 -124.5t-111.5 -66.5q35 -76 35 -162q0 -107 -49 -189.5t-134.5 -128.5t-190.5 -46q-106 0 -191.5 46zM495.5 180.5q42.5 23.5 67.5 67t25 101.5t-24.5 101.5t-67 67t-95.5 23.5t-96 -23.5t-67.5 -67t-24.5 -101.5t25 -102
t67.5 -67t95.5 -23q52 0 94.5 23.5z" />
    <glyph glyph-name="uni1EE1" unicode="&#x1ee1;" horiz-adv-x="753" 
d="M125 660q35 42 105 42q22 0 44 -6t57 -19q30 -12 52 -18.5t44 -6.5q63 0 105 50v-128q-34 -41 -105 -41q-25 0 -49 6.5t-56 19.5q-32 12 -51.5 18t-40.5 6q-62 0 -105 -51v128zM165 17.5q-67 32.5 -103.5 90t-36.5 132.5t36.5 132.5t103.5 90t156 32.5q116 0 195 -55
q50 1 70 21t20 63v34h142v-45q0 -71 -38 -122.5t-107 -67.5q14 -40 14 -83q0 -75 -36.5 -132.5t-103.5 -90t-156 -32.5t-156 32.5zM405.5 153.5q31.5 31.5 31.5 86.5t-31.5 86.5t-84.5 31.5t-84.5 -31.5t-31.5 -86.5t31.5 -86.5t84.5 -31.5t84.5 31.5z" />
    <glyph glyph-name="uni1EE2" unicode="&#x1ee2;" horiz-adv-x="896" 
d="M209.5 31q-85.5 46 -135 128.5t-49.5 189.5t49.5 190t135 129t191.5 46q71 0 135 -22t113 -63q52 1 73 21t21 63v34h148v-45q0 -73 -39.5 -124.5t-111.5 -66.5q35 -76 35 -162q0 -107 -49 -189.5t-134.5 -128.5t-190.5 -46q-106 0 -191.5 46zM495.5 180.5
q42.5 23.5 67.5 67t25 101.5t-24.5 101.5t-67 67t-95.5 23.5t-96 -23.5t-67.5 -67t-24.5 -101.5t25 -102t67.5 -67t95.5 -23q52 0 94.5 23.5zM358 -177.5q-23 22.5 -23 54.5t23 54.5t55 22.5t54 -22.5t22 -54.5t-22 -54.5t-54 -22.5t-55 22.5z" />
    <glyph glyph-name="uni1EE3" unicode="&#x1ee3;" horiz-adv-x="753" 
d="M165 17.5q-67 32.5 -103.5 90t-36.5 132.5t36.5 132.5t103.5 90t156 32.5q116 0 195 -55q50 1 70 21t20 63v34h142v-45q0 -71 -38 -122.5t-107 -67.5q14 -40 14 -83q0 -75 -36.5 -132.5t-103.5 -90t-156 -32.5t-156 32.5zM405.5 153.5q31.5 31.5 31.5 86.5t-31.5 86.5
t-84.5 31.5t-84.5 -31.5t-31.5 -86.5t31.5 -86.5t84.5 -31.5t84.5 31.5zM277 -177.5q-23 22.5 -23 54.5t23 54.5t55 22.5t54 -22.5t22 -54.5t-22 -54.5t-54 -22.5t-55 22.5z" />
    <glyph glyph-name="uni1EE4" unicode="&#x1ee4;" horiz-adv-x="715" 
d="M120 69.5q-80 84.5 -80 223.5v406h177v-408q0 -70 37.5 -106t103.5 -36t103 36t37 106v408h177v-406q0 -140 -79.5 -224t-237.5 -84t-238 84.5zM303 -177.5q-23 22.5 -23 54.5t23 54.5t55 22.5t54 -22.5t22 -54.5t-22 -54.5t-54 -22.5t-55 22.5z" />
    <glyph glyph-name="uni1EE5" unicode="&#x1ee5;" horiz-adv-x="620" 
d="M89.5 40q-49.5 55 -49.5 145v295h176v-275q0 -83 75 -83q34 0 62 16t46 47v295h176v-480h-170v52q-31 -33 -75 -50t-92 -17q-99 0 -148.5 55zM262 -177.5q-23 22.5 -23 54.5t23 54.5t55 22.5t54 -22.5t22 -54.5t-22 -54.5t-54 -22.5t-55 22.5z" />
    <glyph glyph-name="uni1EE6" unicode="&#x1ee6;" horiz-adv-x="715" 
d="M284 812q39 0 59.5 9t20.5 31q0 33 -59 33q-13 0 -30.5 -3t-26.5 -7v84q22 7 56 11.5t64 4.5q77 0 117.5 -28.5t40.5 -77.5q0 -37 -23.5 -64.5t-64.5 -37.5v-25h-154v70zM120 69.5q-80 84.5 -80 223.5v406h177v-408q0 -70 37.5 -106t103.5 -36t103 36t37 106v408h177
v-406q0 -140 -79.5 -224t-237.5 -84t-238 84.5z" />
    <glyph glyph-name="uni1EE7" unicode="&#x1ee7;" horiz-adv-x="620" 
d="M234 596q39 0 59.5 9t20.5 31q0 33 -59 33q-13 0 -30.5 -3t-26.5 -7v84q22 7 56 11.5t64 4.5q77 0 117.5 -28.5t40.5 -77.5q0 -37 -23.5 -64.5t-64.5 -37.5v-25h-154v70zM89.5 40q-49.5 55 -49.5 145v295h176v-275q0 -83 75 -83q34 0 62 16t46 47v295h176v-480h-170v52
q-31 -33 -75 -50t-92 -17q-99 0 -148.5 55z" />
    <glyph glyph-name="uni1EE8" unicode="&#x1ee8;" horiz-adv-x="907" 
d="M348 920h185l-91 -178h-163zM120 69.5q-80 84.5 -80 223.5v406h185v-403q0 -71 34 -106.5t99 -35.5t98.5 35.5t33.5 106.5v403h186v-67q46 0 62 18t16 63v34h148v-45q0 -89 -55 -142.5t-171 -53.5v-213q0 -139 -80 -223.5t-238 -84.5t-238 84.5z" />
    <glyph glyph-name="uni1EE9" unicode="&#x1ee9;" horiz-adv-x="801" 
d="M273 700h185l-91 -178h-163zM89.5 40q-49.5 55 -49.5 145v295h176v-275q0 -83 75 -83q34 0 62 16t46 47v295h176v-39q46 0 62.5 19t16.5 64v34h142v-45q0 -90 -52.5 -143t-168.5 -53v-317h-170v52q-31 -33 -75 -50t-92 -17q-99 0 -148.5 55z" />
    <glyph glyph-name="uni1EEA" unicode="&#x1eea;" horiz-adv-x="907" 
d="M202 920h185l69 -178h-163zM120 69.5q-80 84.5 -80 223.5v406h185v-403q0 -71 34 -106.5t99 -35.5t98.5 35.5t33.5 106.5v403h186v-67q46 0 62 18t16 63v34h148v-45q0 -89 -55 -142.5t-171 -53.5v-213q0 -139 -80 -223.5t-238 -84.5t-238 84.5z" />
    <glyph glyph-name="uni1EEB" unicode="&#x1eeb;" horiz-adv-x="801" 
d="M137 720h185l69 -178h-163zM89.5 40q-49.5 55 -49.5 145v295h176v-275q0 -83 75 -83q34 0 62 16t46 47v295h176v-39q46 0 62.5 19t16.5 64v34h142v-45q0 -90 -52.5 -143t-168.5 -53v-317h-170v52q-31 -33 -75 -50t-92 -17q-99 0 -148.5 55z" />
    <glyph glyph-name="uni1EEC" unicode="&#x1eec;" horiz-adv-x="907" 
d="M284 812q39 0 59.5 9t20.5 31q0 33 -59 33q-13 0 -30.5 -3t-26.5 -7v84q22 7 56 11.5t64 4.5q77 0 117.5 -28.5t40.5 -77.5q0 -37 -23.5 -64.5t-64.5 -37.5v-25h-154v70zM120 69.5q-80 84.5 -80 223.5v406h185v-403q0 -71 34 -106.5t99 -35.5t98.5 35.5t33.5 106.5v403
h186v-67q46 0 62 18t16 63v34h148v-45q0 -89 -55 -142.5t-171 -53.5v-213q0 -139 -80 -223.5t-238 -84.5t-238 84.5z" />
    <glyph glyph-name="uni1EED" unicode="&#x1eed;" horiz-adv-x="801" 
d="M214 615q39 0 59.5 9t20.5 31q0 33 -59 33q-13 0 -30.5 -3t-26.5 -7v84q22 7 56 11.5t64 4.5q77 0 117.5 -28.5t40.5 -77.5q0 -37 -23.5 -64.5t-64.5 -37.5v-25h-154v70zM89.5 40q-49.5 55 -49.5 145v295h176v-275q0 -83 75 -83q34 0 62 16t46 47v295h176v-39
q46 0 62.5 19t16.5 64v34h142v-45q0 -90 -52.5 -143t-168.5 -53v-317h-170v52q-31 -33 -75 -50t-92 -17q-99 0 -148.5 55z" />
    <glyph glyph-name="uni1EEE" unicode="&#x1eee;" horiz-adv-x="907" 
d="M173 870q35 42 105 42q22 0 44 -6t57 -19q30 -12 52 -18.5t44 -6.5q63 0 105 50v-128q-34 -41 -105 -41q-25 0 -49 6.5t-56 19.5q-32 12 -51.5 18t-40.5 6q-62 0 -105 -51v128zM120 69.5q-80 84.5 -80 223.5v406h185v-403q0 -71 34 -106.5t99 -35.5t98.5 35.5t33.5 106.5
v403h186v-67q46 0 62 18t16 63v34h148v-45q0 -89 -55 -142.5t-171 -53.5v-213q0 -139 -80 -223.5t-238 -84.5t-238 84.5z" />
    <glyph glyph-name="uni1EEF" unicode="&#x1eef;" horiz-adv-x="801" 
d="M96 677q35 42 105 42q22 0 44 -6t57 -19q30 -12 52 -18.5t44 -6.5q63 0 105 50v-128q-34 -41 -105 -41q-25 0 -49 6.5t-56 19.5q-32 12 -51.5 18t-40.5 6q-62 0 -105 -51v128zM89.5 40q-49.5 55 -49.5 145v295h176v-275q0 -83 75 -83q34 0 62 16t46 47v295h176v-39
q46 0 62.5 19t16.5 64v34h142v-45q0 -90 -52.5 -143t-168.5 -53v-317h-170v52q-31 -33 -75 -50t-92 -17q-99 0 -148.5 55z" />
    <glyph glyph-name="uni1EF0" unicode="&#x1ef0;" horiz-adv-x="907" 
d="M120 69.5q-80 84.5 -80 223.5v406h185v-403q0 -71 34 -106.5t99 -35.5t98.5 35.5t33.5 106.5v403h186v-67q46 0 62 18t16 63v34h148v-45q0 -89 -55 -142.5t-171 -53.5v-213q0 -139 -80 -223.5t-238 -84.5t-238 84.5zM315 -177.5q-23 22.5 -23 54.5t23 54.5t55 22.5
t54 -22.5t22 -54.5t-22 -54.5t-54 -22.5t-55 22.5z" />
    <glyph glyph-name="uni1EF1" unicode="&#x1ef1;" horiz-adv-x="801" 
d="M89.5 40q-49.5 55 -49.5 145v295h176v-275q0 -83 75 -83q34 0 62 16t46 47v295h176v-39q46 0 62.5 19t16.5 64v34h142v-45q0 -90 -52.5 -143t-168.5 -53v-317h-170v52q-31 -33 -75 -50t-92 -17q-99 0 -148.5 55zM242 -177.5q-23 22.5 -23 54.5t23 54.5t55 22.5t54 -22.5
t22 -54.5t-22 -54.5t-54 -22.5t-55 22.5z" />
    <glyph glyph-name="Ygrave" unicode="&#x1ef2;" horiz-adv-x="750" 
d="M217 920h185l69 -178h-163zM283 266l-258 433h189l158 -271l165 271h188l-265 -433v-266h-177v266z" />
    <glyph glyph-name="ygrave" unicode="&#x1ef3;" horiz-adv-x="625" 
d="M170 696h185l69 -178h-163zM126 -193.5q-35 4.5 -52 12.5v131q29 -12 66 -12q33 0 51.5 14.5t29.5 45.5l12 32l-208 450h176l125 -312l118 312h176l-198 -502q-35 -90 -89.5 -133t-139.5 -43q-32 0 -67 4.5z" />
    <glyph glyph-name="uni1EF4" unicode="&#x1ef4;" horiz-adv-x="750" 
d="M283 266l-258 433h189l158 -271l165 271h188l-265 -433v-266h-177v266zM319 -177.5q-23 22.5 -23 54.5t23 54.5t55 22.5t54 -22.5t22 -54.5t-22 -54.5t-54 -22.5t-55 22.5z" />
    <glyph glyph-name="uni1EF5" unicode="&#x1ef5;" horiz-adv-x="625" 
d="M126 -193.5q-35 4.5 -52 12.5v131q29 -12 66 -12q33 0 51.5 14.5t29.5 45.5l12 32l-208 450h176l125 -312l118 312h176l-198 -502q-35 -90 -89.5 -133t-139.5 -43q-32 0 -67 4.5zM469 -170.5q-23 22.5 -23 54.5t23 54.5t55 22.5t54 -22.5t22 -54.5t-22 -54.5t-54 -22.5
t-55 22.5z" />
    <glyph glyph-name="uni1EF6" unicode="&#x1ef6;" horiz-adv-x="750" 
d="M304 812q39 0 59.5 9t20.5 31q0 33 -59 33q-13 0 -30.5 -3t-26.5 -7v84q22 7 56 11.5t64 4.5q77 0 117.5 -28.5t40.5 -77.5q0 -37 -23.5 -64.5t-64.5 -37.5v-25h-154v70zM283 266l-258 433h189l158 -271l165 271h188l-265 -433v-266h-177v266z" />
    <glyph glyph-name="uni1EF7" unicode="&#x1ef7;" horiz-adv-x="625" 
d="M256 596q39 0 59.5 9t20.5 31q0 33 -59 33q-13 0 -30.5 -3t-26.5 -7v84q22 7 56 11.5t64 4.5q77 0 117.5 -28.5t40.5 -77.5q0 -37 -23.5 -64.5t-64.5 -37.5v-25h-154v70zM126 -193.5q-35 4.5 -52 12.5v131q29 -12 66 -12q33 0 51.5 14.5t29.5 45.5l12 32l-208 450h176
l125 -312l118 312h176l-198 -502q-35 -90 -89.5 -133t-139.5 -43q-32 0 -67 4.5z" />
    <glyph glyph-name="uni1EF8" unicode="&#x1ef8;" horiz-adv-x="750" 
d="M169 870q35 42 105 42q22 0 44 -6t57 -19q30 -12 52 -18.5t44 -6.5q63 0 105 50v-128q-34 -41 -105 -41q-25 0 -49 6.5t-56 19.5q-32 12 -51.5 18t-40.5 6q-62 0 -105 -51v128zM283 266l-258 433h189l158 -271l165 271h188l-265 -433v-266h-177v266z" />
    <glyph glyph-name="uni1EF9" unicode="&#x1ef9;" horiz-adv-x="625" 
d="M141 654q35 42 105 42q22 0 44 -6t57 -19q30 -12 52 -18.5t44 -6.5q63 0 105 50v-128q-34 -41 -105 -41q-25 0 -49 6.5t-56 19.5q-32 12 -51.5 18t-40.5 6q-62 0 -105 -51v128zM126 -193.5q-35 4.5 -52 12.5v131q29 -12 66 -12q33 0 51.5 14.5t29.5 45.5l12 32l-208 450
h176l125 -312l118 312h176l-198 -502q-35 -90 -89.5 -133t-139.5 -43q-32 0 -67 4.5z" />
    <glyph glyph-name="uni2007" unicode="&#x2007;" 
 />
    <glyph glyph-name="uni2010" unicode="&#x2010;" horiz-adv-x="431" 
d="M25 373h381v-140h-381v140z" />
    <glyph glyph-name="figuredash" unicode="&#x2012;" horiz-adv-x="691" 
d="M25 373h641v-140h-641v140z" />
    <glyph glyph-name="endash" unicode="&#x2013;" horiz-adv-x="659" 
d="M25 373h609v-140h-609v140z" />
    <glyph glyph-name="emdash" unicode="&#x2014;" horiz-adv-x="794" 
d="M25 373h744v-140h-744v140z" />
    <glyph glyph-name="uni2015" unicode="&#x2015;" horiz-adv-x="978" 
d="M25 373h928v-140h-928v140z" />
    <glyph glyph-name="quoteleft" unicode="&#x2018;" horiz-adv-x="278" 
d="M108 714h145l-64 -200h-164z" />
    <glyph glyph-name="quoteright" unicode="&#x2019;" horiz-adv-x="282" 
d="M89 714h168l-83 -200h-149z" />
    <glyph glyph-name="quotesinglbase" unicode="&#x201a;" horiz-adv-x="282" 
d="M89 71h168l-83 -200h-149z" />
    <glyph glyph-name="quotedblleft" unicode="&#x201c;" horiz-adv-x="481" 
d="M108 714h149l-64 -200h-168zM307 714h149l-64 -200h-168z" />
    <glyph glyph-name="quotedblright" unicode="&#x201d;" horiz-adv-x="481" 
d="M89 714h168l-83 -200h-149zM288 714h168l-83 -200h-149z" />
    <glyph glyph-name="quotedblbase" unicode="&#x201e;" horiz-adv-x="481" 
d="M89 71h168l-83 -200h-149zM288 71h168l-83 -200h-149z" />
    <glyph glyph-name="dagger" unicode="&#x2020;" horiz-adv-x="538" 
d="M181 385h-156v149h156v165h177v-165h155v-149h-155v-455h-177v455z" />
    <glyph glyph-name="daggerdbl" unicode="&#x2021;" horiz-adv-x="531" 
d="M177 140h-152v148h152v124h-152v149h152v138h177v-138h152v-149h-152v-124h152v-148h-152v-140h-177v140z" />
    <glyph glyph-name="bullet" unicode="&#x2022;" horiz-adv-x="257" 
d="M55.5 224.5q-30.5 30.5 -30.5 73.5t30 73t74 30t73.5 -29.5t29.5 -73.5t-30 -74t-73 -30t-73.5 30.5z" />
    <glyph glyph-name="ellipsis" unicode="&#x2026;" horiz-adv-x="579" 
d="M43.5 18q-18.5 18 -18.5 44q0 27 18.5 46t44.5 19q27 0 45.5 -19t18.5 -46q0 -26 -18.5 -44t-45.5 -18q-26 0 -44.5 18zM244.5 18q-18.5 18 -18.5 44q0 27 18.5 46t44.5 19q27 0 45.5 -19t18.5 -46q0 -26 -18.5 -44t-45.5 -18q-26 0 -44.5 18zM445.5 18
q-18.5 18 -18.5 44q0 27 18.5 46t44.5 19t45 -19t19 -46q0 -26 -19 -44t-45 -18t-44.5 18z" />
    <glyph glyph-name="perthousand" unicode="&#x2030;" horiz-adv-x="1294" 
d="M116 371.5q-42 24.5 -66.5 66.5t-24.5 92t24.5 92.5t66.5 67t92 24.5t92.5 -24.5t67 -67t24.5 -92.5t-24.5 -92t-67 -66.5t-92.5 -24.5t-92 24.5zM551 699h179l-387 -699h-179zM260 475.5q21 20.5 21 51.5q0 32 -21 53t-52 21t-51.5 -21t-20.5 -53q0 -31 20.5 -51.5
t51.5 -20.5t52 20.5zM592 9.5q-42 24.5 -66.5 66.5t-24.5 92t24.5 92.5t66.5 67t92 24.5t92.5 -24.5t67 -67t24.5 -92.5t-24.5 -92t-67 -66.5t-92.5 -24.5t-92 24.5zM993 9.5q-42 24.5 -66.5 66.5t-24.5 92t24.5 92.5t66.5 67t92 24.5t92.5 -24.5t67 -67t24.5 -92.5
t-24.5 -92t-67 -66.5t-92.5 -24.5t-92 24.5zM735 113.5q21 20.5 21 51.5q0 32 -21 53t-52 21t-51.5 -21t-20.5 -53q0 -31 20.5 -51.5t51.5 -20.5t52 20.5zM1136 113.5q21 20.5 21 51.5q0 32 -21 53t-52 21t-51.5 -21t-20.5 -53q0 -31 20.5 -51.5t51.5 -20.5t52 20.5z" />
    <glyph glyph-name="minute" unicode="&#x2032;" horiz-adv-x="187" 
d="M25 699h137v-205h-137v205z" />
    <glyph glyph-name="second" unicode="&#x2033;" horiz-adv-x="369" 
d="M25 699h137v-205h-137v205zM207 699h137v-205h-137v205z" />
    <glyph glyph-name="guilsinglleft" unicode="&#x2039;" horiz-adv-x="395" 
d="M25 307v37l247 223l98 -100l-160 -142l160 -141l-98 -100z" />
    <glyph glyph-name="guilsinglright" unicode="&#x203a;" horiz-adv-x="395" 
d="M25 184l160 141l-160 142l98 100l247 -223v-37l-247 -223z" />
    <glyph glyph-name="fraction" unicode="&#x2044;" horiz-adv-x="255" 
d="M230 714h180l-385 -729h-180z" />
    <glyph glyph-name="uni2070" unicode="&#x2070;" horiz-adv-x="405" 
d="M72.5 405.5q-47.5 46.5 -47.5 128.5t47.5 128.5t130.5 46.5t130 -46.5t47 -128.5t-47.5 -128.5t-129.5 -46.5q-83 0 -130.5 46.5zM249 468q16 22 16 65q0 44 -16 66.5t-46 22.5t-46.5 -22.5t-16.5 -66.5t16 -65.5t47 -21.5q30 0 46 22z" />
    <glyph glyph-name="uni2074" unicode="&#x2074;" horiz-adv-x="328" 
d="M151 428h-146v80l144 191h129v-185h45v-86h-45v-58h-127v58zM185 514v87l-67 -87h67z" />
    <glyph glyph-name="uni2075" unicode="&#x2075;" horiz-adv-x="343" 
d="M79.5 366.5q-33.5 6.5 -54.5 17.5v87q21 -13 47.5 -19.5t51.5 -6.5q33 0 49 11t16 27q0 38 -61 38q-37 0 -67 -11l-32 19l13 170h254v-85h-151l-2 -31q28 6 59 6q56 0 86 -28t30 -79q0 -57 -47.5 -89.5t-125.5 -32.5q-32 0 -65.5 6.5z" />
    <glyph glyph-name="uni2076" unicode="&#x2076;" horiz-adv-x="363" 
d="M67.5 402q-42.5 42 -42.5 114q0 92 51 142.5t136 50.5q21 0 44.5 -3t34.5 -7v-79q-19 10 -66 10q-32 0 -55 -13t-30 -41q12 10 32 15t42 5q60 0 92 -30.5t32 -84.5q0 -53 -39 -87t-114 -34t-117.5 42zM216 444q12 12 12 33t-12 33.5t-33 12.5q-20 0 -32.5 -12.5
t-12.5 -33.5q0 -20 12.5 -32.5t32.5 -12.5q21 0 33 12z" />
    <glyph glyph-name="uni2077" unicode="&#x2077;" horiz-adv-x="311" 
d="M156 601h-141v98h281v-66l-120 -263h-126z" />
    <glyph glyph-name="uni2078" unicode="&#x2078;" horiz-adv-x="371" 
d="M66.5 387q-41.5 27 -41.5 76q0 28 14 48.5t36 28.5q-38 23 -38 70q0 48 39.5 73.5t109.5 25.5t109.5 -25.5t39.5 -73.5q0 -46 -38 -70q22 -8 35.5 -28.5t13.5 -48.5q0 -49 -41 -76t-119 -27t-119.5 27zM212.5 577q10.5 10 10.5 25t-10.5 25t-26.5 10t-27 -10t-11 -25
t11 -25t27 -10t26.5 10zM217 442.5q12 11.5 12 28.5q0 18 -12 29.5t-31 11.5t-31.5 -11.5t-12.5 -29.5q0 -17 12.5 -28.5t31.5 -11.5t31 11.5z" />
    <glyph glyph-name="uni2079" unicode="&#x2079;" horiz-adv-x="363" 
d="M106 362.5q-23 2.5 -34 6.5v79q10 -5 29.5 -7.5t37.5 -2.5q32 0 54.5 13.5t29.5 41.5q-12 -9 -31.5 -14.5t-41.5 -5.5q-60 0 -92.5 30t-32.5 84q0 53 39 87.5t114 34.5t117.5 -42t42.5 -115q0 -92 -51 -142t-135 -50q-23 0 -46 2.5zM212.5 558q12.5 13 12.5 33t-12 32.5
t-33 12.5t-33 -12t-12 -33t12 -33.5t33 -12.5q20 0 32.5 13z" />
    <glyph glyph-name="uni207D" unicode="&#x207d;" horiz-adv-x="240" 
d="M40 437q-15 45 -15 97q0 104 58 175h132q-59 -76 -59 -175t59 -174h-132q-28 32 -43 77z" />
    <glyph glyph-name="uni207E" unicode="&#x207e;" horiz-adv-x="240" 
d="M84 534q0 99 -59 175h132q58 -71 58 -175q0 -52 -15 -97t-43 -77h-132q59 75 59 174z" />
    <glyph glyph-name="uni207F" unicode="&#x207f;" horiz-adv-x="442" 
d="M30 699h124v-33q23 23 54 35.5t65 12.5q74 0 109 -36.5t35 -101.5v-216h-128v196q0 58 -55 58q-48 0 -76 -45v-209h-128v339z" />
    <glyph glyph-name="uni2080" unicode="&#x2080;" horiz-adv-x="405" 
d="M72.5 -123.5q-47.5 46.5 -47.5 127.5q0 82 47.5 128.5t130.5 46.5t130 -46.5t47 -128.5q0 -81 -47.5 -127.5t-129.5 -46.5q-83 0 -130.5 46.5zM249 -62q16 22 16 66t-16 66.5t-46 22.5t-46.5 -22.5t-16.5 -66.5q0 -88 63 -88q30 0 46 22z" />
    <glyph glyph-name="uni2081" unicode="&#x2081;" horiz-adv-x="231" 
d="M99 44l-74 -53v114l87 64h114v-329h-127v204z" />
    <glyph glyph-name="uni2082" unicode="&#x2082;" horiz-adv-x="339" 
d="M25 -93q89 62 121 89.5t32 50.5q0 15 -10.5 22t-32.5 7q-25 0 -52 -9t-46 -23v103q20 13 57 22t71 9q70 0 106.5 -31.5t36.5 -78.5q0 -38 -24.5 -66.5t-85.5 -73.5h116v-89h-289v68z" />
    <glyph glyph-name="uni2083" unicode="&#x2083;" horiz-adv-x="343" 
d="M85.5 -164.5q-36.5 5.5 -60.5 15.5v83q22 -11 48.5 -16.5t49.5 -5.5q29 0 43.5 7t14.5 23t-13.5 22.5t-45.5 6.5h-45v69h44q51 0 51 27q0 14 -13.5 21.5t-38.5 7.5q-48 0 -89 -26v84q23 11 58.5 18t72.5 7q68 0 107.5 -27t39.5 -73q0 -47 -40 -74q49 -20 49 -73
q0 -47 -41.5 -74.5t-116.5 -27.5q-38 0 -74.5 5.5z" />
    <glyph glyph-name="uni2084" unicode="&#x2084;" horiz-adv-x="328" 
d="M151 -102h-146v80l144 191h129v-185h45v-86h-45v-58h-127v58zM185 -16v87l-67 -87h67z" />
    <glyph glyph-name="uni2085" unicode="&#x2085;" horiz-adv-x="343" 
d="M79.5 -163.5q-33.5 6.5 -54.5 17.5v88q21 -13 47.5 -20t51.5 -7q33 0 48.5 11t15.5 28q0 36 -60 36q-35 0 -67 -10l-32 19l13 170h254v-85h-151l-2 -31q29 6 59 6q56 0 86 -28t30 -79q0 -57 -47.5 -89.5t-125.5 -32.5q-32 0 -65.5 6.5z" />
    <glyph glyph-name="uni2086" unicode="&#x2086;" horiz-adv-x="363" 
d="M67.5 -128q-42.5 42 -42.5 114q0 92 51 142.5t136 50.5q21 0 44.5 -3t34.5 -7v-79q-19 10 -66 10q-32 0 -55 -13t-30 -41q12 10 32 15t42 5q60 0 92 -30.5t32 -84.5q0 -53 -39 -87t-114 -34t-117.5 42zM216 -86q12 12 12 33t-12 33.5t-33 12.5q-20 0 -32.5 -12.5
t-12.5 -33.5q0 -20 12.5 -32.5t32.5 -12.5q21 0 33 12z" />
    <glyph glyph-name="uni2087" unicode="&#x2087;" horiz-adv-x="311" 
d="M156 71h-141v98h281v-66l-120 -263h-126z" />
    <glyph glyph-name="uni2088" unicode="&#x2088;" horiz-adv-x="371" 
d="M66.5 -143q-41.5 27 -41.5 76q0 28 14 48.5t36 28.5q-38 23 -38 70q0 48 39.5 73.5t109.5 25.5t109.5 -25.5t39.5 -73.5q0 -46 -38 -70q22 -8 35.5 -28.5t13.5 -48.5q0 -49 -41 -76t-119 -27t-119.5 27zM212.5 47q10.5 10 10.5 25t-10.5 25t-26.5 10t-27 -10t-11 -25
t11 -25t27 -10t26.5 10zM217 -87.5q12 11.5 12 28.5q0 18 -12 29.5t-31 11.5t-31.5 -11.5t-12.5 -29.5q0 -17 12.5 -28.5t31.5 -11.5t31 11.5z" />
    <glyph glyph-name="uni2089" unicode="&#x2089;" horiz-adv-x="366" 
d="M106 -156.5q-23 2.5 -34 6.5v79q10 -5 29.5 -7.5t37.5 -2.5q32 0 54.5 13.5t29.5 41.5q-12 -9 -31.5 -14.5t-41.5 -5.5q-60 0 -92.5 30t-32.5 84q0 53 39 87.5t114 34.5t117.5 -42t42.5 -115q0 -92 -51 -142t-135 -50q-23 0 -46 2.5zM212.5 39q12.5 13 12.5 33t-12 32.5
t-33 12.5t-33 -12t-12 -33t12 -33.5t33 -12.5q20 0 32.5 13z" />
    <glyph glyph-name="uni208D" unicode="&#x208d;" horiz-adv-x="240" 
d="M40 -103q-15 45 -15 97q0 104 58 175h132q-59 -76 -59 -175t59 -174h-132q-28 32 -43 77z" />
    <glyph glyph-name="uni208E" unicode="&#x208e;" horiz-adv-x="240" 
d="M84 -6q0 99 -59 175h132q58 -71 58 -175q0 -52 -15 -97t-43 -77h-132q59 75 59 174z" />
    <glyph glyph-name="colonmonetary" unicode="&#x20a1;" horiz-adv-x="674" 
d="M98 114q-73 93 -73 235q0 140 71.5 233.5t195.5 120.5l30 81h137l-26 -72q18 -1 50 -5l29 77h137l-44 -121l19 -11v-168q-45 36 -96 51.5t-121 15.5q-101 0 -150.5 -53t-49.5 -149q0 -97 50 -150t150 -53q71 0 123 16.5t102 54.5v-167q-49 -34 -107.5 -49.5t-133.5 -15.5
l-13 1l-22 -61h-138l30 82q-28 11 -45 19l-37 -101h-138z" />
    <glyph glyph-name="lira" unicode="&#x20a4;" horiz-adv-x="483" 
d="M25 126h69v43h-66v117h66v48h-66v117h66v54q0 66 30.5 113.5t83.5 71.5t118 24q56 0 97 -18v-140q-30 14 -64 14q-41 0 -64.5 -20.5t-23.5 -59.5v-39h136v-117h-136v-48h136v-117h-136v-43h187v-126h-433v126z" />
    <glyph glyph-name="uni20A6" unicode="&#x20a6;" horiz-adv-x="722" 
d="M88 173h-63v133h63v88h-63v140h63v165h171l195 -395v395h180v-165h63v-140h-63v-88h63v-133h-63v-173h-171l-195 395v-395h-180v173z" />
    <glyph glyph-name="peseta" unicode="&#x20a7;" horiz-adv-x="1406" 
d="M666.5 34.5q-45.5 49.5 -45.5 135.5v188h-70q-27 -66 -90 -99t-155 -33h-76v-226h-185v699h261q119 0 188.5 -55.5t74.5 -163.5h52v144h176v-144h99v-122h-99v-168q0 -40 15.5 -54.5t50.5 -14.5q17 0 37 6.5t36 17.5q44 -20 95.5 -31t100.5 -11q36 0 52 5t16 20
q0 14 -16 21.5t-63 21.5q-9 2 -17 4.5t-16 4.5q-90 26 -127.5 60.5t-37.5 99.5q0 78 61 116.5t168 38.5q52 0 110 -11t87 -29v-127q-30 20 -79.5 33t-92.5 13q-73 0 -73 -29q0 -14 16.5 -21t60.5 -18l37 -9q64 -17 99.5 -38.5t49.5 -50.5t14 -73q0 -69 -59.5 -109.5
t-172.5 -40.5q-62 0 -120.5 7.5t-92.5 24.5q-50 -32 -135 -32q-89 0 -134.5 49.5zM276 366q52 0 79.5 21t27.5 75q0 58 -29.5 77t-88.5 19h-35v-192h46z" />
    </font>
</defs>
</svg>
