<?xml version="1.0" standalone="no"?>
<!DOCTYPE svg PUBLIC "-//W3C//DTD SVG 1.1//EN" "http://www.w3.org/Graphics/SVG/1.1/DTD/svg11.dtd" >
<svg xmlns="http://www.w3.org/2000/svg" xmlns:xlink="http://www.w3.org/1999/xlink" version="1.1">
<metadata>
Created by FontForge 20170731 at Tue May 24 20:51:37 2016
 By Aleksey,,,
Copyright (c) 2015, Cadson Demak (info@cadsondemak.com)
</metadata>
<defs>
<font id="Prompt-Black" horiz-adv-x="0" >
  <font-face 
    font-family="Prompt Black"
    font-weight="900"
    font-stretch="normal"
    units-per-em="1000"
    panose-1="0 0 10 0 0 0 0 0 0 0"
    ascent="750"
    descent="-250"
    x-height="480"
    cap-height="699"
    bbox="-706 -422 1493 1110"
    underline-thickness="50"
    underline-position="-150"
    unicode-range="U+000D-FB02"
  />
<missing-glyph horiz-adv-x="490" 
d="M15 714h460v-714h-460v714zM340 116v482h-189v-482h189z" />
    <glyph glyph-name="fi" unicode="fi" horiz-adv-x="703" 
d="M469 556.5q-33 32.5 -33 81.5q0 48 33.5 81t82.5 33q48 0 82 -33t34 -81q0 -49 -33.5 -81.5t-82.5 -32.5q-50 0 -83 32.5zM57 332h-62v148h62v37q0 72 33 123t90.5 77.5t129.5 26.5q65 0 109 -21v-179q-32 17 -68 17q-33 0 -51 -16t-18 -48v-17h383v-480h-225v332h-158
v-332h-225v332z" />
    <glyph glyph-name="fl" unicode="fl" horiz-adv-x="705" 
d="M57 332h-62v148h62v37q0 72 33 123t90.5 77.5t129.5 26.5q65 0 109 -21v-179q-32 17 -68 17q-33 0 -51 -16t-18 -48v-17h163v262h225v-742h-225v332h-163v-332h-225v332z" />
    <glyph glyph-name="ru_lakkhangyaothai" unicode="&#xe24;&#xe45;" horiz-adv-x="949" 
d="M417 304q0 72 -72 72q-51 0 -88 -22l34 -61v-109q0 -19 8.5 -27.5t28.5 -8.5h41v-148h-168q-65 0 -100 38t-35 103v158l-51 91q63 77 146 118.5t185 41.5q100 0 172 -33q26 13 71.5 23t89.5 10q111 0 173 -59t62 -164v-523h-225v502q0 30 -11.5 47.5t-41.5 21.5
q6 -25 6 -54v-517h-225v500z" />
    <glyph glyph-name="lu_lakkhangyaothai" unicode="&#xe26;&#xe45;" horiz-adv-x="954" 
d="M420 304q0 72 -72 72q-42 0 -82 -22l47 -61v-152q0 -65 -35 -103t-100 -38h-163v148h36q20 0 28.5 8.5t8.5 27.5v115l-70 91q56 75 142 117.5t189 42.5q102 0 173 -34v1q26 13 71.5 23t89.5 10q111 0 173.5 -59t62.5 -164v-523h-225v502q0 31 -12 48t-43 21q6 -34 6 -54
v-517h-225v500z" />
    <glyph glyph-name=".notdef" horiz-adv-x="490" 
d="M15 714h460v-714h-460v714zM340 116v482h-189v-482h189z" />
    <glyph glyph-name=".null" horiz-adv-x="500" 
 />
    <glyph glyph-name="nonmarkingreturn" unicode="&#xd;" horiz-adv-x="260" 
 />
    <glyph glyph-name="space" unicode=" " horiz-adv-x="300" 
 />
    <glyph glyph-name="exclam" unicode="!" horiz-adv-x="262" 
d="M19 699h225v-447h-225v447zM48.5 18q-33.5 33 -33.5 81q0 49 33 81.5t83 32.5q49 0 82.5 -32.5t33.5 -81.5q0 -48 -34 -81t-82 -33q-49 0 -82.5 33z" />
    <glyph glyph-name="quotedbl" unicode="&#x22;" horiz-adv-x="382" 
d="M15 699h162v-217h-162v217zM205 699h162v-217h-162v217z" />
    <glyph glyph-name="numbersign" unicode="#" horiz-adv-x="790" 
d="M83 116h-68v174h117l23 82h-96v173h145l44 154h205l-44 -154h95l44 154h205l-44 -154h66v-173h-115l-23 -82h94v-174h-143l-32 -116h-205l32 116h-95l-32 -116h-205zM432 290l23 82h-95l-23 -82h95z" />
    <glyph glyph-name="dollar" unicode="$" horiz-adv-x="580" 
d="M200 -11q-55 5 -104 17.5t-81 30.5v206q56 -32 118.5 -48t115.5 -16q30 0 43 6t13 19q0 18 -20 30.5t-85 41.5q-96 42 -139.5 93.5t-43.5 125.5q0 75 49 130t134 77v100h167v-91q82 -7 155 -42v-199q-90 50 -178 50q-71 0 -71 -31q0 -15 16.5 -25t59.5 -27l37 -15
q71 -30 109 -59.5t54 -67t16 -94.5q0 -83 -49 -136.5t-149 -71.5v-96h-167v92z" />
    <glyph glyph-name="percent" unicode="%" horiz-adv-x="904" 
d="M106 371.5q-42 24.5 -66.5 66.5t-24.5 92t24.5 92.5t66.5 67t92 24.5t92.5 -24.5t67 -67t24.5 -92.5t-24.5 -92t-67 -66.5t-92.5 -24.5t-92 24.5zM531 699h230l-387 -699h-230zM236 489.5q15 15.5 15 37.5q0 23 -15.5 38.5t-37.5 15.5t-37.5 -15.5t-15.5 -38.5
q0 -22 15.5 -37.5t37.5 -15.5q23 0 38 15.5zM613 9.5q-42 24.5 -66.5 66.5t-24.5 92t24.5 92.5t66.5 67t92 24.5t92.5 -24.5t67 -67t24.5 -92.5t-24.5 -92t-67 -66.5t-92.5 -24.5t-92 24.5zM743 127.5q15 15.5 15 37.5q0 23 -15.5 38.5t-37.5 15.5t-37.5 -15.5t-15.5 -38.5
q0 -22 15.5 -37.5t37.5 -15.5q23 0 38 15.5z" />
    <glyph glyph-name="ampersand" unicode="&#x26;" horiz-adv-x="816" 
d="M87.5 39q-72.5 54 -72.5 150q0 64 26.5 108.5t83.5 82.5q-30 32 -45.5 67.5t-15.5 82.5q0 53 28 95t82 65.5t128 23.5q71 0 122.5 -24t79 -66t27.5 -94q0 -58 -22.5 -96.5t-72.5 -74.5l85 -81q11 30 11 94h187q0 -81 -12 -131t-41 -100l145 -141h-276l-38 34
q-70 -49 -215 -49q-122 0 -194.5 54zM332.5 488.5q10.5 14.5 10.5 30.5q0 21 -10.5 32.5t-30.5 11.5t-30.5 -11.5t-10.5 -32.5q0 -26 39 -60q22 15 32.5 29.5zM364 159l-89 87q-39 -16 -39 -56q0 -25 17 -40t43 -15q43 0 68 24z" />
    <glyph glyph-name="quotesingle" unicode="'" horiz-adv-x="192" 
d="M15 699h162v-217h-162v217z" />
    <glyph glyph-name="parenleft" unicode="(" horiz-adv-x="403" 
d="M15 270q0 260 150 444h243q-152 -195 -152 -444t152 -444h-243q-150 184 -150 444z" />
    <glyph glyph-name="parenright" unicode=")" horiz-adv-x="403" 
d="M147 270q0 249 -152 444h243q150 -184 150 -444t-150 -444h-243q152 195 152 444z" />
    <glyph glyph-name="asterisk" unicode="*" horiz-adv-x="449" 
d="M52 409l67 90l-104 37l50 114l85 -30v79h149v-79l85 31l50 -115l-104 -36l68 -90l-115 -76l-58 80l-57 -81z" />
    <glyph glyph-name="plus" unicode="+" horiz-adv-x="410" 
d="M115 217h-100v179h100v75h179v-75h101v-179h-101v-76h-179v76z" />
    <glyph glyph-name="comma" unicode="," horiz-adv-x="346" 
d="M99 68h232l-111 -218h-205z" />
    <glyph glyph-name="hyphen" unicode="-" horiz-adv-x="410" 
d="M15 396h380v-179h-380v179z" />
    <glyph glyph-name="period" unicode="." horiz-adv-x="182" 
d="M37 22q-22 22 -22 53q0 32 22 54.5t53 22.5q32 0 54.5 -22.5t22.5 -54.5q0 -31 -22.5 -53t-54.5 -22q-31 0 -53 22z" />
    <glyph glyph-name="slash" unicode="/" horiz-adv-x="545" 
d="M300 714h230l-285 -714h-230z" />
    <glyph glyph-name="zero" unicode="0" horiz-adv-x="712" 
d="M176.5 28.5q-77.5 43.5 -119.5 125.5t-42 195q0 114 41.5 196.5t118.5 125.5t181 43t181 -43t118.5 -125.5t41.5 -196.5q0 -113 -42 -195t-119.5 -125.5t-179.5 -43.5t-179.5 43.5zM431 243q25 37 25 104t-24.5 105t-74.5 38q-51 0 -76 -38t-25 -105t25 -104t75 -37
t75 37z" />
    <glyph glyph-name="one" unicode="1" horiz-adv-x="423" 
d="M151 453l-136 -98v215l176 129h197v-699h-237v453z" />
    <glyph glyph-name="two" unicode="2" horiz-adv-x="588" 
d="M15 120l84 75q34 32 74 63q74 63 106.5 98.5t32.5 69.5q0 28 -22 46t-69 18q-46 0 -96 -19t-90 -50v224q46 32 113 50.5t139 18.5q83 0 143 -29t92 -79t32 -111q0 -86 -31 -144t-100 -119l-60 -53h210v-179h-558v120z" />
    <glyph glyph-name="three" unicode="3" horiz-adv-x="591" 
d="M122.5 -3q-63.5 12 -107.5 36v177q105 -49 206 -49q113 0 113 54q0 28 -25 39t-85 11h-107v173h102q49 0 72.5 12t23.5 39q0 25 -23.5 37t-64.5 12q-61 0 -110 -14t-92 -42v182q47 23 109 36.5t126 13.5q150 0 223.5 -57t73.5 -159q0 -39 -15 -77t-46 -69
q44 -29 62 -65.5t18 -83.5q0 -103 -76.5 -160.5t-243.5 -57.5q-70 0 -133.5 12z" />
    <glyph glyph-name="four" unicode="4" horiz-adv-x="630" 
d="M303 128h-308v139l325 432h220v-392h95v-179h-95v-128h-237v128zM338 307v116l-87 -116h87z" />
    <glyph glyph-name="five" unicode="5" horiz-adv-x="593" 
d="M118.5 -0.5q-63.5 14.5 -103.5 39.5v197q47 -33 107 -51t112 -18q102 0 102 65q0 33 -25.5 49.5t-73.5 16.5q-33 0 -71 -6.5t-66 -17.5l-82 47l28 378h487v-179h-266l-5 -61q34 8 81 8q113 0 174 -58t61 -170q0 -120 -83 -187t-249 -67q-64 0 -127.5 14.5z" />
    <glyph glyph-name="six" unicode="6" horiz-adv-x="646" 
d="M163.5 26.5q-70.5 41.5 -109.5 117.5t-39 176q0 122 49 211t133 136t188 47q86 0 147 -22v-191q-52 30 -129 30q-51 0 -92.5 -23.5t-52.5 -66.5q24 15 65 25t81 10q105 0 166 -60.5t61 -173.5q0 -72 -34 -130.5t-103 -92.5t-168 -34q-92 0 -162.5 41.5zM375.5 178.5
q17.5 18.5 17.5 52.5t-17.5 52.5t-50.5 18.5q-30 0 -48 -19t-18 -52q0 -32 17.5 -51.5t48.5 -19.5q33 0 50.5 18.5z" />
    <glyph glyph-name="seven" unicode="7" horiz-adv-x="532" 
d="M280 520h-275v179h522v-141l-254 -558h-230z" />
    <glyph glyph-name="eight" unicode="8" horiz-adv-x="644" 
d="M98.5 43q-83.5 58 -83.5 163q0 53 22 92.5t60 62.5q-60 57 -60 143q0 100 76.5 155t208.5 55t208.5 -55t76.5 -155q0 -86 -60 -143q38 -23 60 -62.5t22 -92.5q0 -105 -83.5 -163t-223.5 -58t-223.5 58zM365.5 434.5q17.5 17.5 17.5 42.5q0 26 -17.5 43.5t-43.5 17.5
q-25 0 -42.5 -17.5t-17.5 -43.5q0 -25 17.5 -42.5t42.5 -17.5q26 0 43.5 17.5zM373 180q19 20 19 50q0 29 -20.5 49.5t-49.5 20.5t-49.5 -20.5t-20.5 -49.5q0 -30 19 -50t51 -20t51 20z" />
    <glyph glyph-name="nine" unicode="9" horiz-adv-x="646" 
d="M114 7v191q52 -30 129 -30q51 0 92.5 23.5t52.5 66.5q-25 -16 -61 -25.5t-75 -9.5q-69 0 -122.5 28t-84 82t-30.5 129q0 72 34 129t102.5 90t168.5 33q152 0 231.5 -89.5t79.5 -245.5q0 -125 -49.5 -214t-133.5 -134.5t-187 -45.5q-86 0 -147 22zM369 416q18 19 18 52
q0 32 -17.5 51.5t-48.5 19.5q-33 0 -50.5 -18.5t-17.5 -52.5t17.5 -52.5t50.5 -18.5q30 0 48 19z" />
    <glyph glyph-name="colon" unicode=":" horiz-adv-x="242" 
d="M46.5 329.5q-31.5 31.5 -31.5 74.5q0 44 31.5 75t74.5 31q44 0 75 -31t31 -75q0 -43 -31 -74.5t-75 -31.5q-43 0 -74.5 31.5zM46.5 33.5q-31.5 31.5 -31.5 74.5q0 44 31.5 75t74.5 31q44 0 75 -31t31 -75q0 -43 -31 -74.5t-75 -31.5q-43 0 -74.5 31.5z" />
    <glyph glyph-name="semicolon" unicode=";" horiz-adv-x="346" 
d="M129.5 329.5q-31.5 31.5 -31.5 74.5q0 44 31.5 75t74.5 31q44 0 75 -31t31 -75q0 -43 -31 -74.5t-75 -31.5q-43 0 -74.5 31.5zM99 68h232l-111 -218h-205z" />
    <glyph glyph-name="less" unicode="&#x3c;" horiz-adv-x="526" 
d="M15 249v156l496 244v-235l-199 -87l199 -88v-234z" />
    <glyph glyph-name="equal" unicode="=" horiz-adv-x="502" 
d="M15 529h472v-173h-472v173zM15 300h472v-174h-472v174z" />
    <glyph glyph-name="greater" unicode="&#x3e;" horiz-adv-x="526" 
d="M15 239l199 88l-199 87v235l496 -244v-156l-496 -244v234z" />
    <glyph glyph-name="question" unicode="?" horiz-adv-x="535" 
d="M115 270q0 45 16.5 83t48.5 61q11 8 34 22q30 20 40 29.5t10 23.5q0 31 -71 31q-88 0 -178 -50v199q48 23 101 34t121 11q131 0 207 -52.5t76 -144.5q0 -50 -20 -81.5t-71 -65.5q-49 -33 -69 -53.5t-20 -48.5v-16h-225v18zM144.5 18q-33.5 33 -33.5 81q0 49 33 81.5
t83 32.5q49 0 82.5 -32.5t33.5 -81.5q0 -48 -34 -81t-82 -33q-49 0 -82.5 33z" />
    <glyph glyph-name="at" unicode="@" horiz-adv-x="902" 
d="M219.5 -33q-97.5 43 -151 125.5t-53.5 197.5q0 123 59 219.5t164 150.5t238 54q128 0 220.5 -41.5t141.5 -120.5t49 -189q0 -121 -56.5 -190t-157.5 -69q-33 0 -61.5 12.5t-43.5 33.5q-24 -21 -62.5 -33.5t-77.5 -12.5q-90 0 -147.5 45t-57.5 137q0 71 31 127t88 88
t132 32q48 0 100 -12.5t85 -33.5l-13 -227q-3 -37 22 -37q24 0 36.5 38t12.5 102q0 106 -59.5 155.5t-182.5 49.5q-79 0 -145.5 -32.5t-105.5 -95.5t-39 -150q0 -110 68.5 -166.5t193.5 -56.5q98 0 167 22v-139q-73 -26 -167 -26q-130 0 -227.5 43zM476 249q11 12 12 36
l6 106q-6 3 -24 3q-30 0 -49 -27t-19 -70q0 -30 10 -45t29 -15q24 0 35 12z" />
    <glyph glyph-name="A" unicode="A" horiz-adv-x="814" 
d="M295 699h224l280 -699h-243l-45 122h-208l-45 -122h-243zM459 296l-52 161l-52 -161h104z" />
    <glyph glyph-name="B" unicode="B" horiz-adv-x="680" 
d="M35 699h376q105 0 169 -51.5t64 -145.5q0 -40 -17.5 -76t-50.5 -59q48 -23 68.5 -58t20.5 -91q0 -66 -32 -115.5t-86 -76t-120 -26.5h-392v699zM343 434q31 0 45.5 12.5t14.5 41.5q0 27 -14.5 39t-45.5 12h-78v-105h78zM356 160q36 0 52 14t16 45t-16 45.5t-52 14.5h-91
v-119h91z" />
    <glyph glyph-name="C" unicode="C" horiz-adv-x="670" 
d="M196.5 28.5q-87.5 43.5 -134.5 126t-47 194.5q0 113 47 195t134.5 126t205.5 44q77 0 136 -13t109 -42v-224q-43 32 -97.5 46t-126.5 14q-78 0 -122.5 -37.5t-44.5 -108.5t45 -108.5t122 -37.5q70 0 126 15.5t106 47.5v-223q-101 -58 -253 -58q-118 0 -205.5 43.5z" />
    <glyph glyph-name="D" unicode="D" horiz-adv-x="705" 
d="M35 699h268q116 0 203.5 -42t135.5 -120t48 -184q0 -174 -103.5 -263.5t-283.5 -89.5h-268v699zM319 220q130 0 130 133q0 61 -34 93.5t-96 32.5h-47v-259h47z" />
    <glyph glyph-name="E" unicode="E" horiz-adv-x="568" 
d="M35 699h518v-199h-281v-61h199v-179h-199v-61h281v-199h-518v699z" />
    <glyph glyph-name="F" unicode="F" horiz-adv-x="548" 
d="M35 699h518v-199h-281v-61h199v-179h-199v-260h-237v699z" />
    <glyph glyph-name="G" unicode="G" horiz-adv-x="687" 
d="M196.5 28.5q-87.5 43.5 -134.5 126t-47 194.5q0 113 47 195t134.5 126t205.5 44q78 0 136 -13t109 -42v-222q-43 32 -97.5 46t-126.5 14q-77 0 -122.5 -38.5t-45.5 -109.5q0 -77 37 -116.5t120 -39.5q30 0 52 8v66h-77v136h285v-359q-103 -59 -270 -59
q-118 0 -205.5 43.5z" />
    <glyph glyph-name="H" unicode="H" horiz-adv-x="736" 
d="M35 699h237v-234h192v234h237v-699h-237v245h-192v-245h-237v699z" />
    <glyph glyph-name="I" unicode="I" horiz-adv-x="307" 
d="M35 699h237v-699h-237v699z" />
    <glyph glyph-name="J" unicode="J" horiz-adv-x="409" 
d="M53.5 -7q-40.5 8 -58.5 20v200q32 -17 79 -17q34 0 51 16t17 51v436h237v-463q0 -112 -63.5 -181.5t-185.5 -69.5q-36 0 -76.5 8z" />
    <glyph glyph-name="K" unicode="K" horiz-adv-x="773" 
d="M35 699h237v-253l196 253h272l-262 -338l280 -361h-278l-208 274v-274h-237v699z" />
    <glyph glyph-name="L" unicode="L" horiz-adv-x="528" 
d="M35 699h237v-500h261v-199h-498v699z" />
    <glyph glyph-name="M" unicode="M" horiz-adv-x="842" 
d="M35 699h209l177 -370l177 370h209v-699h-219v259l-129 -259h-76l-129 259v-259h-219v699z" />
    <glyph glyph-name="N" unicode="N" horiz-adv-x="714" 
d="M35 699h209l208 -325v325h227v-699h-209l-208 326v-326h-227v699z" />
    <glyph glyph-name="O" unicode="O" horiz-adv-x="789" 
d="M201.5 31q-86.5 46 -136.5 128.5t-50 189.5t50 190t136.5 129t193.5 46q106 0 192.5 -46t136.5 -129t50 -190t-50 -189.5t-136.5 -128.5t-192.5 -46q-107 0 -193.5 46zM494 246q39 38 39 103t-39 103t-99 38q-61 0 -100 -38t-39 -103t39.5 -103t99.5 -38t99 38z" />
    <glyph glyph-name="P" unicode="P" horiz-adv-x="658" 
d="M35 699h336q130 0 206 -65t76 -189t-76 -189t-206 -65h-99v-191h-237v699zM323 368q91 0 91 77t-91 77h-51v-154h51z" />
    <glyph glyph-name="Q" unicode="Q" horiz-adv-x="796" 
d="M209 42q-92 42 -143 121t-51 186q0 108 48 191t134 128.5t198 45.5t198 -43t133.5 -122.5t47.5 -187.5q0 -47 -23.5 -102.5t-56.5 -85.5h102v-173h-373q-122 0 -214 42zM494 246q39 38 39 103t-39 103t-99 38q-61 0 -100 -38t-39 -103t39.5 -103t99.5 -38t99 38z" />
    <glyph glyph-name="R" unicode="R" horiz-adv-x="668" 
d="M35 699h336q130 0 206 -65t76 -189q0 -78 -31 -132.5t-88 -85.5l110 -227h-239l-92 191h-45v-191h-233v699zM321 368q91 0 91 77t-91 77h-53v-154h53z" />
    <glyph glyph-name="S" unicode="S" horiz-adv-x="580" 
d="M129 -1q-70 14 -114 38v206q56 -32 118.5 -48t115.5 -16q30 0 43 6t13 19q0 18 -20 30.5t-85 41.5q-96 42 -139.5 93.5t-43.5 125.5q0 64 35.5 113.5t100 77.5t147.5 28q68 0 121 -11t101 -34v-199q-90 50 -178 50q-71 0 -71 -31q0 -15 16.5 -25t59.5 -27l37 -15
q71 -30 109 -59.5t54 -67t16 -94.5q0 -101 -74 -158.5t-223 -57.5q-69 0 -139 14z" />
    <glyph glyph-name="T" unicode="T" horiz-adv-x="595" 
d="M179 500h-179v199h595v-199h-179v-500h-237v500z" />
    <glyph glyph-name="U" unicode="U" horiz-adv-x="734" 
d="M178 28q-76 43 -112 117t-36 170v384h237v-377q0 -59 24 -89t76 -30t75.5 30t23.5 89v377h238v-384q0 -96 -36 -170t-112 -117t-189 -43t-189 43z" />
    <glyph glyph-name="V" unicode="V" horiz-adv-x="814" 
d="M15 699h248l144 -392l144 392h248l-280 -699h-224z" />
    <glyph glyph-name="W" unicode="W" horiz-adv-x="988" 
d="M15 699h246l76 -316l78 316h168l68 -317l76 317h246l-179 -699h-215l-85 318l-85 -318h-215z" />
    <glyph glyph-name="X" unicode="X" horiz-adv-x="806" 
d="M268 353l-247 346h270l112 -157l112 157h271l-248 -346l253 -353h-271l-117 164l-117 -164h-271z" />
    <glyph glyph-name="Y" unicode="Y" horiz-adv-x="783" 
d="M268 267l-253 432h253l119 -221l129 221h252l-263 -432v-267h-237v267z" />
    <glyph glyph-name="Z" unicode="Z" horiz-adv-x="612" 
d="M15 152l267 348h-261v199h551v-153l-266 -347h291v-199h-582v152z" />
    <glyph glyph-name="bracketleft" unicode="[" horiz-adv-x="364" 
d="M15 787h344v-199h-107v-485h107v-199h-344v883z" />
    <glyph glyph-name="backslash" unicode="\" horiz-adv-x="545" 
d="M15 714h230l285 -714h-230z" />
    <glyph glyph-name="bracketright" unicode="]" horiz-adv-x="364" 
d="M5 103h107v485h-107v199h344v-883h-344v199z" />
    <glyph glyph-name="asciicircum" unicode="^" horiz-adv-x="616" 
d="M218 719h180l203 -345h-215l-78 142l-79 -142h-214z" />
    <glyph glyph-name="underscore" unicode="_" horiz-adv-x="480" 
d="M15 0h450v-179h-450v179z" />
    <glyph glyph-name="grave" unicode="`" horiz-adv-x="315" 
d="M15 747h217l68 -181h-190z" />
    <glyph glyph-name="a" unicode="a" horiz-adv-x="619" 
d="M71 26.5q-56 41.5 -56 121.5q0 81 54.5 123t161.5 42q32 0 70 -7.5t63 -17.5v8q0 26 -33 41t-87 15q-87 0 -159 -36v143q33 16 87 26t119 10q144 0 221 -53t77 -150v-292h-212v35q-23 -21 -65.5 -35.5t-90.5 -14.5q-94 0 -150 41.5zM333.5 117q19.5 8 30.5 20v32
q-33 19 -71 19q-21 0 -33 -11t-12 -29q0 -17 11.5 -28t33.5 -11q21 0 40.5 8z" />
    <glyph glyph-name="b" unicode="b" horiz-adv-x="674" 
d="M319.5 0q-40.5 15 -67.5 40v-40h-217v739h225v-289q24 20 62.5 32.5t80.5 12.5q77 0 135 -32t89.5 -90t31.5 -133q0 -76 -31.5 -134t-89 -89.5t-135.5 -31.5q-43 0 -83.5 15zM403.5 179q22.5 20 22.5 60t-22.5 61t-62.5 21q-26 0 -48 -12t-33 -33v-72q11 -21 33 -33
t48 -12q40 0 62.5 20z" />
    <glyph glyph-name="c" unicode="c" horiz-adv-x="539" 
d="M92.5 50.5q-77.5 65.5 -77.5 189.5t77.5 189.5t213.5 65.5q62 0 120 -11.5t93 -32.5v-172q-30 22 -71.5 34t-84.5 12q-52 0 -83.5 -22t-31.5 -63q0 -42 31.5 -63.5t83.5 -21.5q42 0 84.5 12.5t76.5 35.5v-172q-36 -21 -94 -33.5t-124 -12.5q-136 0 -213.5 65.5z" />
    <glyph glyph-name="d" unicode="d" horiz-adv-x="674" 
d="M135.5 16.5q-57.5 31.5 -89 89.5t-31.5 134q0 75 31.5 133t89.5 90t135 32q42 0 80.5 -12.5t62.5 -32.5v289h225v-739h-217v40q-27 -25 -67.5 -40t-83.5 -15q-78 0 -135.5 31.5zM381 171q22 12 33 33v72q-11 21 -33 33t-48 12q-40 0 -62.5 -21t-22.5 -61t22.5 -60
t62.5 -20q26 0 48 12z" />
    <glyph glyph-name="e" unicode="e" horiz-adv-x="600" 
d="M97.5 51q-82.5 66 -82.5 187q0 119 74.5 188t214.5 69q89 0 152.5 -33t96 -90t32.5 -128v-65h-356q29 -52 131 -52q47 0 98.5 7.5t87.5 21.5v-135q-40 -16 -98.5 -26t-119.5 -10q-148 0 -230.5 66zM373 302q-12 50 -73 50q-59 0 -71 -50h144z" />
    <glyph glyph-name="f" unicode="f" horiz-adv-x="394" 
d="M57 332h-62v148h62v37q0 72 33 123t90.5 77.5t129.5 26.5q65 0 109 -21v-179q-32 17 -68 17q-33 0 -51 -16t-18 -48v-17h107v-148h-107v-332h-225v332z" />
    <glyph glyph-name="g" unicode="g" horiz-adv-x="674" 
d="M205.5 -221q-49.5 9 -86.5 25v143q80 -34 184 -34q111 0 111 90v27q-24 -20 -62.5 -32.5t-80.5 -12.5q-77 0 -135 32t-89.5 90t-31.5 133q0 76 31.5 134t89 89.5t135.5 31.5q43 0 83.5 -15t67.5 -40v40h217v-442q0 -127 -82 -197.5t-254 -70.5q-48 0 -97.5 9zM381 171
q22 12 33 33v72q-11 21 -33 33t-48 12q-40 0 -62.5 -20t-22.5 -60t22.5 -61t62.5 -21q26 0 48 12z" />
    <glyph glyph-name="h" unicode="h" horiz-adv-x="638" 
d="M35 739h225v-296q65 52 146 52q105 0 153.5 -52.5t48.5 -145.5v-297h-225v264q0 28 -11.5 42.5t-37.5 14.5q-49 0 -74 -45v-276h-225v739z" />
    <glyph glyph-name="i" unicode="i" horiz-adv-x="302" 
d="M68 556.5q-33 32.5 -33 81.5q0 48 33.5 81t82.5 33q48 0 82 -33t34 -81q0 -49 -33.5 -81.5t-82.5 -32.5q-50 0 -83 32.5zM39 480h225v-480h-225v480z" />
    <glyph glyph-name="j" unicode="j" horiz-adv-x="300" 
d="M66 556.5q-33 32.5 -33 81.5q0 48 33.5 81t82.5 33q48 0 82 -33t34 -81q0 -49 -33.5 -81.5t-82.5 -32.5q-50 0 -83 32.5zM-100 -210v179q32 -17 75 -17q28 0 45 15t17 46v467h225v-495q0 -106 -70.5 -161t-182.5 -55q-65 0 -109 21z" />
    <glyph glyph-name="k" unicode="k" horiz-adv-x="684" 
d="M35 739h225v-431l126 172h256l-168 -229l195 -251h-256l-153 197v-197h-225v739z" />
    <glyph glyph-name="l" unicode="l" horiz-adv-x="295" 
d="M35 739h225v-739h-225v739z" />
    <glyph glyph-name="m" unicode="m" horiz-adv-x="885" 
d="M35 480h207v-40q57 55 143 55q51 0 82.5 -13.5t53.5 -40.5q30 25 70 39.5t83 14.5q99 0 140 -51t41 -147v-297h-215v264q0 29 -9.5 43t-34.5 14q-21 0 -38 -10v-311h-215v275q0 23 -9 34.5t-30 11.5q-34 0 -54 -38v-283h-215v480z" />
    <glyph glyph-name="n" unicode="n" horiz-adv-x="638" 
d="M35 480h217v-40q30 26 70 40.5t84 14.5q105 0 153.5 -52.5t48.5 -145.5v-297h-225v264q0 28 -11.5 42.5t-37.5 14.5q-49 0 -74 -45v-276h-225v480z" />
    <glyph glyph-name="o" unicode="o" horiz-adv-x="652" 
d="M161.5 18q-70.5 33 -108.5 91t-38 131t38 131t108.5 91t164.5 33t164.5 -33t108.5 -91t38 -131t-38 -131t-108.5 -91t-164.5 -33t-164.5 33zM385 181q22 22 22 59t-22 59t-59 22t-59 -22t-22 -59t22 -59t59 -22t59 22z" />
    <glyph glyph-name="p" unicode="p" horiz-adv-x="674" 
d="M35 480h217v-40q27 25 67.5 40t83.5 15q78 0 135.5 -31.5t89 -89.5t31.5 -134q0 -75 -31.5 -133t-89.5 -90t-135 -32q-42 0 -80.5 12.5t-62.5 32.5v-249h-225v699zM403.5 180q22.5 21 22.5 61t-22.5 60t-62.5 20q-26 0 -48 -12t-33 -33v-72q11 -21 33 -33t48 -12
q40 0 62.5 21z" />
    <glyph glyph-name="q" unicode="q" horiz-adv-x="674" 
d="M414 30q-24 -20 -62.5 -32.5t-80.5 -12.5q-77 0 -135 32t-89.5 90t-31.5 133q0 76 31.5 134t89 89.5t135.5 31.5q43 0 83.5 -15t67.5 -40v40h217v-699h-225v249zM381 171q22 12 33 33v72q-11 21 -33 33t-48 12q-40 0 -62.5 -20t-22.5 -60t22.5 -61t62.5 -21q26 0 48 12z
" />
    <glyph glyph-name="r" unicode="r" horiz-adv-x="426" 
d="M35 480h217v-43q28 26 76 42t103 16v-174q-59 0 -106.5 -15.5t-64.5 -43.5v-262h-225v480z" />
    <glyph glyph-name="s" unicode="s" horiz-adv-x="528" 
d="M130.5 -4q-67.5 11 -107.5 32v152q42 -24 103 -41t109 -17q23 0 33 2t10 9q0 5 -9 8t-24 6q-36 7 -64 15q-91 28 -128.5 64.5t-37.5 103.5q0 84 66 124.5t182 40.5q54 0 119.5 -12t96.5 -31v-152q-30 21 -85 36.5t-98 15.5q-20 0 -33 -3t-13 -8t11 -9t35 -8q47 -9 53 -11
q66 -17 101.5 -39.5t49 -52.5t13.5 -76q0 -73 -65 -116.5t-187 -43.5q-63 0 -130.5 11z" />
    <glyph glyph-name="t" unicode="t" horiz-adv-x="404" 
d="M110 40q-50 55 -50 147v145h-65v148h65v144h225v-144h104v-148h-104v-112q0 -33 12 -47t41 -14q37 0 71 21v-166q-31 -15 -65 -22t-86 -7q-98 0 -148 55z" />
    <glyph glyph-name="u" unicode="u" horiz-adv-x="638" 
d="M80.5 42q-50.5 57 -50.5 151v287h225v-259q0 -62 53 -62q48 0 70 45v276h225v-480h-217v40q-30 -26 -70 -40.5t-84 -14.5q-101 0 -151.5 57z" />
    <glyph glyph-name="v" unicode="v" horiz-adv-x="654" 
d="M15 480h225l87 -225l87 225h225l-204 -480h-216z" />
    <glyph glyph-name="w" unicode="w" horiz-adv-x="883" 
d="M15 480h225l57 -225l57 225h175l57 -225l57 225h225l-164 -480h-201l-62 215l-61 -215h-201z" />
    <glyph glyph-name="x" unicode="x" horiz-adv-x="700" 
d="M222 247l-195 233h256l67 -80l67 80h256l-196 -233l208 -247h-254l-81 96l-81 -96h-254z" />
    <glyph glyph-name="y" unicode="y" horiz-adv-x="659" 
d="M126.5 -192q-41.5 6 -60.5 15v166q31 -13 71 -13q29 0 45.5 12t25.5 36l5 14l-208 442h225l102 -274l97 274h225l-186 -480q-39 -101 -101.5 -149.5t-161.5 -48.5q-37 0 -78.5 6z" />
    <glyph glyph-name="z" unicode="z" horiz-adv-x="545" 
d="M15 113l201 219h-196v148h502v-112l-199 -220h207v-148h-515v113z" />
    <glyph glyph-name="braceleft" unicode="{" horiz-adv-x="382" 
d="M104.5 -65q-31.5 32 -31.5 96v167q0 21 -11.5 34.5t-32.5 13.5h-34v198h34q21 0 32.5 13.5t11.5 34.5v167q0 64 31.5 96t86.5 32h186v-199h-35q-17 0 -24.5 -7.5t-7.5 -23.5v-105q0 -40 -18.5 -67t-53.5 -39v-2q35 -12 53.5 -39t18.5 -67v-105q0 -16 7.5 -23.5t24.5 -7.5
h35v-199h-186q-55 0 -86.5 32z" />
    <glyph glyph-name="bar" unicode="|" horiz-adv-x="267" 
d="M15 812h237v-956h-237v956z" />
    <glyph glyph-name="braceright" unicode="}" horiz-adv-x="382" 
d="M5 102h35q17 0 24.5 7.5t7.5 23.5v105q0 40 18.5 67t53.5 39v2q-35 12 -53.5 39t-18.5 67v105q0 16 -7.5 23.5t-24.5 7.5h-35v199h186q55 0 86.5 -32t31.5 -96v-167q0 -21 11.5 -34.5t32.5 -13.5h34v-198h-34q-21 0 -32.5 -13.5t-11.5 -34.5v-167q0 -64 -31.5 -96
t-86.5 -32h-186v199z" />
    <glyph glyph-name="asciitilde" unicode="~" horiz-adv-x="494" 
d="M310 221q-29 7 -70 21q-41 13 -65 19.5t-45 6.5q-68 0 -115 -52v193q39 43 115 43q22 0 47 -6.5t73 -20.5q38 -13 65 -20t49 -7q68 0 115 52v-193q-39 -43 -115 -43q-25 0 -54 7z" />
    <glyph glyph-name="uni00A0" unicode="&#xa0;" horiz-adv-x="300" 
 />
    <glyph glyph-name="exclamdown" unicode="&#xa1;" horiz-adv-x="262" 
d="M48 354.5q-33 32.5 -33 81.5q0 48 33.5 81t82.5 33q48 0 82 -33t34 -81q0 -49 -33.5 -81.5t-82.5 -32.5q-50 0 -83 32.5zM19 283h225v-447h-225v447z" />
    <glyph glyph-name="cent" unicode="&#xa2;" horiz-adv-x="539" 
d="M231 -9q-103 17 -159.5 80t-56.5 169q0 105 56.5 168.5t159.5 80.5v92h167v-93q77 -11 121 -37v-172q-30 22 -71.5 34t-84.5 12q-52 0 -83.5 -22t-31.5 -63q0 -42 31.5 -63.5t83.5 -21.5q42 0 84.5 12.5t76.5 35.5v-172q-49 -28 -126 -39v-93h-167v92z" />
    <glyph glyph-name="sterling" unicode="&#xa3;" horiz-adv-x="484" 
d="M15 148h62v154h-62v148h62v37q0 72 33 123t90.5 77.5t129.5 26.5q65 0 109 -21v-179q-32 17 -68 17q-33 0 -51 -16t-18 -48v-17h107v-148h-107v-154h167v-148h-454v148z" />
    <glyph glyph-name="currency" unicode="&#xa4;" horiz-adv-x="617" 
d="M15 131l84 62q-21 41 -21 89q0 47 21 90l-83 62l91 111l91 -72q49 26 111 26t111 -26l91 71l90 -110l-82 -62q21 -43 21 -90q0 -48 -21 -89l83 -63l-91 -112l-91 71q-50 -25 -111 -25q-60 0 -110 25l-92 -71zM358 234q20 20 20 48q0 29 -20 49t-49 20q-28 0 -48 -20
t-20 -49q0 -28 20 -48t48 -20q29 0 49 20z" />
    <glyph glyph-name="yen" unicode="&#xa5;" horiz-adv-x="783" 
d="M268 55h-114v144h114v26h-114v143h55l-194 331h253l119 -211l129 211h252l-202 -331h53v-143h-114v-26h114v-144h-114v-55h-237v55z" />
    <glyph glyph-name="brokenbar" unicode="&#xa6;" horiz-adv-x="267" 
d="M15 812h237v-414h-237v414zM15 270h237v-414h-237v414z" />
    <glyph glyph-name="section" unicode="&#xa7;" horiz-adv-x="580" 
d="M129 -156q-70 14 -114 38v206q56 -32 118.5 -48t115.5 -16q30 0 43 6t13 19q0 18 -20 30.5t-85 41.5q-96 42 -139.5 93.5t-43.5 125.5q0 45 24 77q-24 35 -24 78q0 64 35.5 113.5t100 77.5t147.5 28q68 0 121 -11t101 -34v-199q-90 50 -178 50q-71 0 -71 -31
q0 -15 16.5 -25t59.5 -27l37 -15q71 -30 109 -59.5t54 -67t16 -94.5q0 -37 -21 -73q21 -36 21 -82q0 -101 -74 -158.5t-223 -57.5q-69 0 -139 14zM348 250q0 17 -9 25.5t-38 18.5q-24 9 -50 24q-2 -10 -2 -16q0 -17 10.5 -26t39.5 -20q34 -12 47 -21q2 8 2 15z" />
    <glyph glyph-name="dieresis" unicode="&#xa8;" horiz-adv-x="439" 
d="M41 587.5q-26 25.5 -26 61.5t26 62t62 26t61.5 -25.5t25.5 -62.5t-25.5 -62t-61.5 -25t-62 25.5zM276 587.5q-26 25.5 -26 61.5q0 37 26 62.5t62 25.5q35 0 60.5 -25.5t25.5 -62.5q0 -36 -25 -61.5t-61 -25.5t-62 25.5z" />
    <glyph glyph-name="copyright" unicode="&#xa9;" horiz-adv-x="782" 
d="M202.5 31q-86.5 46 -137 129t-50.5 189q0 107 50.5 190t136.5 129t189 46t189 -46t136.5 -129t50.5 -190q0 -106 -50.5 -189t-137 -129t-188.5 -46t-188.5 46zM563 174.5q65 61.5 65 174.5t-64.5 174.5t-172.5 61.5t-172.5 -61.5t-64.5 -174.5t65 -174.5t172 -61.5
t172 61.5zM241 201q-54 50 -54 147t54 147.5t151 50.5q98 0 155 -34v-133q-47 35 -110 35q-32 0 -50.5 -16.5t-18.5 -49.5t18.5 -49t50.5 -16q60 0 114 37v-134q-63 -35 -159 -35q-97 0 -151 50z" />
    <glyph glyph-name="ordfeminine" unicode="&#xaa;" horiz-adv-x="441" 
d="M55.5 379q-40.5 30 -40.5 87q0 58 39 88t116 30q23 0 49.5 -5.5t45.5 -12.5v6q0 19 -23.5 29.5t-62.5 10.5q-60 0 -114 -26v102q23 12 62 19t86 7q103 0 158 -38t55 -107v-209h-152v25q-16 -16 -46.5 -26t-64.5 -10q-67 0 -107.5 30zM243.5 443.5q13.5 5.5 21.5 14.5v23
q-26 13 -51 13q-15 0 -23.5 -7.5t-8.5 -20.5q0 -12 8.5 -20t23.5 -8q16 0 29.5 5.5z" />
    <glyph glyph-name="guillemotleft" unicode="&#xab;" horiz-adv-x="751" 
d="M15 306v42l256 240l133 -120l-150 -141l150 -141l-133 -120zM347 306v42l256 240l133 -120l-150 -141l150 -141l-133 -120z" />
    <glyph glyph-name="logicalnot" unicode="&#xac;" horiz-adv-x="458" 
d="M254 241h-239v155h428v-274h-189v119z" />
    <glyph glyph-name="uni00AD" unicode="&#xad;" horiz-adv-x="410" 
d="M15 396h380v-179h-380v179z" />
    <glyph glyph-name="registered" unicode="&#xae;" horiz-adv-x="782" 
d="M202.5 31q-86.5 46 -137 129t-50.5 189q0 107 50.5 190t136.5 129t189 46t189 -46t136.5 -129t50.5 -190q0 -106 -50.5 -189t-137 -129t-188.5 -46t-188.5 46zM563 174.5q65 61.5 65 174.5t-64.5 174.5t-172.5 61.5t-172.5 -61.5t-64.5 -174.5t65 -174.5t172 -61.5
t172 61.5zM239 531h172q66 0 104.5 -33.5t38.5 -96.5q0 -40 -16 -68.5t-44 -43.5l56 -116h-124l-48 98h-18v-98h-121v358zM384 363q22 0 34.5 8.5t12.5 29.5t-12.5 29.5t-34.5 8.5h-24v-76h24z" />
    <glyph glyph-name="macron" unicode="&#xaf;" horiz-adv-x="397" 
d="M15 697h367v-143h-367v143z" />
    <glyph glyph-name="degree" unicode="&#xb0;" horiz-adv-x="318" 
d="M87 458.5q-33 19.5 -52.5 52.5t-19.5 72t19.5 72t52.5 52.5t72 19.5t72 -19.5t52.5 -52.5t19.5 -72t-19.5 -72t-52.5 -52.5t-72 -19.5t-72 19.5zM186.5 555.5q11.5 11.5 11.5 27.5t-11.5 27.5t-27.5 11.5t-27.5 -11.5t-11.5 -27.5t11.5 -27.5t27.5 -11.5t27.5 11.5z" />
    <glyph glyph-name="plusminus" unicode="&#xb1;" horiz-adv-x="410" 
d="M115 307h-100v179h100v75h179v-75h101v-179h-101v-76h-179v76zM15 179h380v-179h-380v179z" />
    <glyph glyph-name="uni00B2" unicode="&#xb2;" horiz-adv-x="346" 
d="M15 447q75 42 108 67.5t33 44.5q0 13 -9.5 18.5t-31.5 5.5q-50 0 -90 -33v126q21 15 63 24t82 9q73 0 112.5 -32.5t39.5 -79.5q0 -37 -20 -63t-70 -59h99v-105h-316v77z" />
    <glyph glyph-name="uni00B3" unicode="&#xb3;" horiz-adv-x="348" 
d="M80 366q-40 6 -65 17v95q46 -23 92 -23q51 0 51 24q0 12 -11.5 16.5t-41.5 4.5h-41v71h39q24 0 35 5t11 16q0 22 -42 22q-47 0 -87 -26v97q23 10 64.5 17t78.5 7q74 0 117.5 -28t43.5 -76q0 -40 -29 -70q38 -24 38 -70q0 -48 -45 -76.5t-127 -28.5q-41 0 -81 6z" />
    <glyph glyph-name="acute" unicode="&#xb4;" horiz-adv-x="315" 
d="M83 747h217l-95 -181h-190z" />
    <glyph glyph-name="paragraph" unicode="&#xb6;" horiz-adv-x="815" 
d="M292 245h-19q-76 0 -134.5 30t-91 87.5t-32.5 138.5q0 82 37 141t102 89.5t149 30.5h497v-896h-227v717h-54v-717h-227v379z" />
    <glyph glyph-name="periodcentered" unicode="&#xb7;" horiz-adv-x="182" 
d="M37 245q-22 22 -22 53q0 32 22 54.5t53 22.5q32 0 54.5 -22.5t22.5 -54.5q0 -31 -22.5 -53t-54.5 -22q-31 0 -53 22z" />
    <glyph glyph-name="cedilla" unicode="&#xb8;" horiz-adv-x="315" 
d="M15 -232l2 83q28 -16 61 -16q27 0 39.5 11t12.5 28q0 24 -19.5 37t-66.5 13l23 76h159l-20 -49q44 -6 69 -29t25 -59q0 -48 -40.5 -79.5t-126.5 -31.5q-75 0 -118 16z" />
    <glyph glyph-name="uni00B9" unicode="&#xb9;" horiz-adv-x="236" 
d="M80 543l-65 -46v141l83 61h143v-329h-161v173z" />
    <glyph glyph-name="ordmasculine" unicode="&#xba;" horiz-adv-x="476" 
d="M119.5 372.5q-50.5 23.5 -77.5 65t-27 93.5t27 93.5t78 65.5t118 24t118 -24t78 -65.5t27 -93.5t-27 -93.5t-77.5 -65t-118.5 -23.5t-118.5 23.5zM280 489q16 16 16 42q0 27 -16 43t-42 16t-42 -16t-16 -43q0 -26 16 -42t42 -16t42 16z" />
    <glyph glyph-name="guillemotright" unicode="&#xbb;" horiz-adv-x="751" 
d="M15 186l150 141l-150 141l133 120l256 -240v-42l-256 -240zM347 186l150 141l-150 141l133 120l256 -240v-42l-256 -240z" />
    <glyph glyph-name="onequarter" unicode="&#xbc;" horiz-adv-x="812" 
d="M80 543l-65 -46v141l83 61h143v-329h-161v173zM480 699h230l-387 -699h-230zM593 49h-137v95l130 185h168v-177h43v-103h-43v-49h-161v49zM648 152v69l-55 -69h55z" />
    <glyph glyph-name="onehalf" unicode="&#xbd;" horiz-adv-x="838" 
d="M80 543l-65 -46v141l83 61h143v-329h-161v173zM480 699h230l-387 -699h-230zM507 77q75 42 108 67.5t33 44.5q0 13 -9.5 18.5t-31.5 5.5q-50 0 -90 -33v126q21 15 63 24t82 9q73 0 112.5 -32.5t39.5 -79.5q0 -37 -20 -63t-70 -59h99v-105h-316v77z" />
    <glyph glyph-name="threequarters" unicode="&#xbe;" horiz-adv-x="828" 
d="M80 366q-40 6 -65 17v95q46 -23 92 -23q51 0 51 24q0 12 -11.5 16.5t-41.5 4.5h-41v71h39q24 0 35 5t11 16q0 22 -42 22q-47 0 -87 -26v97q23 10 64.5 17t78.5 7q74 0 117.5 -28t43.5 -76q0 -40 -29 -70q38 -24 38 -70q0 -48 -45 -76.5t-127 -28.5q-41 0 -81 6zM502 699
h230l-387 -699h-230zM609 49h-137v95l130 185h168v-177h43v-103h-43v-49h-161v49zM664 152v69l-55 -69h55z" />
    <glyph glyph-name="questiondown" unicode="&#xbf;" horiz-adv-x="535" 
d="M225.5 354.5q-33.5 32.5 -33.5 81.5q0 48 34 81t82 33q49 0 82.5 -33t33.5 -81q0 -49 -33 -81.5t-83 -32.5q-49 0 -82.5 32.5zM91 -126.5q-76 52.5 -76 144.5q0 50 20 81.5t71 65.5q49 33 69 53.5t20 48.5v16h225v-18q0 -45 -16.5 -83t-48.5 -61q-11 -8 -34 -22
q-30 -20 -40 -29.5t-10 -23.5q0 -31 71 -31q88 0 178 50v-199q-48 -23 -101 -34t-121 -11q-131 0 -207 52.5z" />
    <glyph glyph-name="Agrave" unicode="&#xc0;" horiz-adv-x="814" 
d="M215 923h217l68 -181h-190zM295 699h224l280 -699h-243l-45 122h-208l-45 -122h-243zM459 296l-52 161l-52 -161h104z" />
    <glyph glyph-name="Aacute" unicode="&#xc1;" horiz-adv-x="814" 
d="M385 923h217l-95 -181h-190zM295 699h224l280 -699h-243l-45 122h-208l-45 -122h-243zM459 296l-52 161l-52 -161h104z" />
    <glyph glyph-name="Acircumflex" unicode="&#xc2;" horiz-adv-x="814" 
d="M306 933h202l165 -191h-207l-59 80l-59 -80h-207zM295 699h224l280 -699h-243l-45 122h-208l-45 -122h-243zM459 296l-52 161l-52 -161h104z" />
    <glyph glyph-name="Atilde" unicode="&#xc3;" horiz-adv-x="814" 
d="M459 748.5q-25 6.5 -59 19.5q-32 12 -53 18t-42 6q-65 0 -110 -49v153q36 40 110 40q23 0 46 -6.5t58 -18.5q32 -12 55 -18.5t45 -6.5q65 0 110 49v-153q-36 -40 -110 -40q-25 0 -50 6.5zM295 699h224l280 -699h-243l-45 122h-208l-45 -122h-243zM459 296l-52 161
l-52 -161h104z" />
    <glyph glyph-name="Adieresis" unicode="&#xc4;" horiz-adv-x="814" 
d="M229 767.5q-26 25.5 -26 61.5t26 62t62 26t61.5 -25.5t25.5 -62.5t-25.5 -62t-61.5 -25t-62 25.5zM464 767.5q-26 25.5 -26 61.5q0 37 26 62.5t62 25.5q35 0 60.5 -25.5t25.5 -62.5q0 -36 -25 -61.5t-61 -25.5t-62 25.5zM295 699h224l280 -699h-243l-45 122h-208
l-45 -122h-243zM459 296l-52 161l-52 -161h104z" />
    <glyph glyph-name="Aring" unicode="&#xc5;" horiz-adv-x="814" 
d="M799 0h-243l-45 122h-208l-45 -122h-243l270 674q-36 41 -36 98q0 43 21.5 78t57.5 55.5t79 20.5t79 -20.5t57.5 -55.5t21.5 -78q0 -57 -36 -98zM378 801q-12 -12 -12 -29t12 -29t29 -12t29 12t12 29t-12 29t-29 12t-29 -12zM459 296l-52 161l-52 -161h104z" />
    <glyph glyph-name="AE" unicode="&#xc6;" horiz-adv-x="920" 
d="M295 699h610v-199h-271v-61h189v-179h-189v-61h271v-199h-493v122h-112l-42 -122h-243zM412 300v200l-56 -200h56z" />
    <glyph glyph-name="Ccedilla" unicode="&#xc7;" horiz-adv-x="670" 
d="M475 -11l-15 -38q44 -6 69 -29t25 -59q0 -48 -40.5 -79.5t-126.5 -31.5q-75 0 -118 16l2 83q28 -16 61 -16q27 0 39.5 11t12.5 28q0 24 -19.5 37t-66.5 13l20 67q-142 22 -222.5 116t-80.5 242q0 113 47 195t134.5 126t205.5 44q77 0 136 -13t109 -42v-224
q-43 32 -97.5 46t-126.5 14q-78 0 -122.5 -37.5t-44.5 -108.5t45 -108.5t122 -37.5q70 0 126 15.5t106 47.5v-223q-76 -44 -180 -54z" />
    <glyph glyph-name="Egrave" unicode="&#xc8;" horiz-adv-x="568" 
d="M115 923h217l68 -181h-190zM35 699h518v-199h-281v-61h199v-179h-199v-61h281v-199h-518v699z" />
    <glyph glyph-name="Eacute" unicode="&#xc9;" horiz-adv-x="568" 
d="M257 923h217l-95 -181h-190zM35 699h518v-199h-281v-61h199v-179h-199v-61h281v-199h-518v699z" />
    <glyph glyph-name="Ecircumflex" unicode="&#xca;" horiz-adv-x="568" 
d="M200 923h202l165 -191h-207l-59 80l-59 -80h-207zM35 699h518v-199h-281v-61h199v-179h-199v-61h281v-199h-518v699z" />
    <glyph glyph-name="Edieresis" unicode="&#xcb;" horiz-adv-x="568" 
d="M127 767.5q-26 25.5 -26 61.5t26 62t62 26t61.5 -25.5t25.5 -62.5t-25.5 -62t-61.5 -25t-62 25.5zM362 767.5q-26 25.5 -26 61.5q0 37 26 62.5t62 25.5q35 0 60.5 -25.5t25.5 -62.5q0 -36 -25 -61.5t-61 -25.5t-62 25.5zM35 699h518v-199h-281v-61h199v-179h-199v-61h281
v-199h-518v699z" />
    <glyph glyph-name="Igrave" unicode="&#xcc;" horiz-adv-x="307" 
d="M-36 923h217l68 -181h-190zM35 699h237v-699h-237v699z" />
    <glyph glyph-name="Iacute" unicode="&#xcd;" horiz-adv-x="307" 
d="M128 923h217l-95 -181h-190zM35 699h237v-699h-237v699z" />
    <glyph glyph-name="Icircumflex" unicode="&#xce;" horiz-adv-x="307" 
d="M52 923h202l165 -191h-207l-59 80l-59 -80h-207zM35 699h237v-699h-237v699z" />
    <glyph glyph-name="Idieresis" unicode="&#xcf;" horiz-adv-x="307" 
d="M-25 767.5q-26 25.5 -26 61.5t26 62t62 26t61.5 -25.5t25.5 -62.5t-25.5 -62t-61.5 -25t-62 25.5zM210 767.5q-26 25.5 -26 61.5q0 37 26 62.5t62 25.5q35 0 60.5 -25.5t25.5 -62.5q0 -36 -25 -61.5t-61 -25.5t-62 25.5zM35 699h237v-699h-237v699z" />
    <glyph glyph-name="Eth" unicode="&#xd0;" horiz-adv-x="736" 
d="M537.5 657q87.5 -42 135.5 -120t48 -184q0 -174 -103.5 -263.5t-283.5 -89.5h-268v266h-41v167h41v266h268q116 0 203.5 -42zM480 353q0 61 -34 93.5t-96 32.5h-47v-46h105v-167h-105v-46h47q130 0 130 133z" />
    <glyph glyph-name="Ntilde" unicode="&#xd1;" horiz-adv-x="714" 
d="M415 748.5q-25 6.5 -59 19.5q-32 12 -53 18t-42 6q-65 0 -110 -49v153q36 40 110 40q23 0 46 -6.5t58 -18.5q32 -12 55 -18.5t45 -6.5q65 0 110 49v-153q-36 -40 -110 -40q-25 0 -50 6.5zM35 699h209l208 -325v325h227v-699h-209l-208 326v-326h-227v699z" />
    <glyph glyph-name="Ograve" unicode="&#xd2;" horiz-adv-x="789" 
d="M208 923h217l68 -181h-190zM201.5 31q-86.5 46 -136.5 128.5t-50 189.5t50 190t136.5 129t193.5 46q106 0 192.5 -46t136.5 -129t50 -190t-50 -189.5t-136.5 -128.5t-192.5 -46q-107 0 -193.5 46zM494 246q39 38 39 103t-39 103t-99 38q-61 0 -100 -38t-39 -103
t39.5 -103t99.5 -38t99 38z" />
    <glyph glyph-name="Oacute" unicode="&#xd3;" horiz-adv-x="789" 
d="M349 923h217l-95 -181h-190zM201.5 31q-86.5 46 -136.5 128.5t-50 189.5t50 190t136.5 129t193.5 46q106 0 192.5 -46t136.5 -129t50 -190t-50 -189.5t-136.5 -128.5t-192.5 -46q-107 0 -193.5 46zM494 246q39 38 39 103t-39 103t-99 38q-61 0 -100 -38t-39 -103
t39.5 -103t99.5 -38t99 38z" />
    <glyph glyph-name="Ocircumflex" unicode="&#xd4;" horiz-adv-x="789" 
d="M293 947h202l165 -191h-207l-59 80l-59 -80h-207zM201.5 31q-86.5 46 -136.5 128.5t-50 189.5t50 190t136.5 129t193.5 46q106 0 192.5 -46t136.5 -129t50 -190t-50 -189.5t-136.5 -128.5t-192.5 -46q-107 0 -193.5 46zM494 246q39 38 39 103t-39 103t-99 38
q-61 0 -100 -38t-39 -103t39.5 -103t99.5 -38t99 38z" />
    <glyph glyph-name="Otilde" unicode="&#xd5;" horiz-adv-x="789" 
d="M446 760.5q-25 6.5 -59 19.5q-32 12 -53 18t-42 6q-65 0 -110 -49v153q36 40 110 40q23 0 46 -6.5t58 -18.5q32 -12 55 -18.5t45 -6.5q65 0 110 49v-153q-36 -40 -110 -40q-25 0 -50 6.5zM201.5 31q-86.5 46 -136.5 128.5t-50 189.5t50 190t136.5 129t193.5 46
q106 0 192.5 -46t136.5 -129t50 -190t-50 -189.5t-136.5 -128.5t-192.5 -46q-107 0 -193.5 46zM494 246q39 38 39 103t-39 103t-99 38q-61 0 -100 -38t-39 -103t39.5 -103t99.5 -38t99 38z" />
    <glyph glyph-name="Odieresis" unicode="&#xd6;" horiz-adv-x="789" 
d="M216 777.5q-26 25.5 -26 61.5t26 62t62 26t61.5 -25.5t25.5 -62.5t-25.5 -62t-61.5 -25t-62 25.5zM451 777.5q-26 25.5 -26 61.5q0 37 26 62.5t62 25.5q35 0 60.5 -25.5t25.5 -62.5q0 -36 -25 -61.5t-61 -25.5t-62 25.5zM201.5 31q-86.5 46 -136.5 128.5t-50 189.5
t50 190t136.5 129t193.5 46q106 0 192.5 -46t136.5 -129t50 -190t-50 -189.5t-136.5 -128.5t-192.5 -46q-107 0 -193.5 46zM494 246q39 38 39 103t-39 103t-99 38q-61 0 -100 -38t-39 -103t39.5 -103t99.5 -38t99 38z" />
    <glyph glyph-name="multiply" unicode="&#xd7;" horiz-adv-x="425" 
d="M212 189l-70 -70l-127 126l71 71l-71 71l127 126l70 -71l72 72l126 -127l-71 -71l71 -71l-126 -127z" />
    <glyph glyph-name="Oslash" unicode="&#xd8;" horiz-adv-x="789" 
d="M206 28q-88 45 -139.5 128.5t-51.5 192.5q0 107 50 190t136.5 129t193.5 46q41 0 84 -8l31 78h111l-45 -111q91 -44 144.5 -128.5t53.5 -195.5q0 -107 -50 -189.5t-136.5 -128.5t-192.5 -46q-44 0 -92 10l-32 -81h-110zM392 490q-60 -2 -98 -39.5t-38 -101.5t38 -102z
M395 208q60 0 99 38t39 103q0 66 -44 107l-100 -248h6z" />
    <glyph glyph-name="Ugrave" unicode="&#xd9;" horiz-adv-x="734" 
d="M181 923h217l68 -181h-190zM178 28q-76 43 -112 117t-36 170v384h237v-377q0 -59 24 -89t76 -30t75.5 30t23.5 89v377h238v-384q0 -96 -36 -170t-112 -117t-189 -43t-189 43z" />
    <glyph glyph-name="Uacute" unicode="&#xda;" horiz-adv-x="734" 
d="M340 923h217l-95 -181h-190zM178 28q-76 43 -112 117t-36 170v384h237v-377q0 -59 24 -89t76 -30t75.5 30t23.5 89v377h238v-384q0 -96 -36 -170t-112 -117t-189 -43t-189 43z" />
    <glyph glyph-name="Ucircumflex" unicode="&#xdb;" horiz-adv-x="734" 
d="M266 933h202l165 -191h-207l-59 80l-59 -80h-207zM178 28q-76 43 -112 117t-36 170v384h237v-377q0 -59 24 -89t76 -30t75.5 30t23.5 89v377h238v-384q0 -96 -36 -170t-112 -117t-189 -43t-189 43z" />
    <glyph glyph-name="Udieresis" unicode="&#xdc;" horiz-adv-x="734" 
d="M189 777.5q-26 25.5 -26 61.5t26 62t62 26t61.5 -25.5t25.5 -62.5t-25.5 -62t-61.5 -25t-62 25.5zM424 777.5q-26 25.5 -26 61.5q0 37 26 62.5t62 25.5q35 0 60.5 -25.5t25.5 -62.5q0 -36 -25 -61.5t-61 -25.5t-62 25.5zM178 28q-76 43 -112 117t-36 170v384h237v-377
q0 -59 24 -89t76 -30t75.5 30t23.5 89v377h238v-384q0 -96 -36 -170t-112 -117t-189 -43t-189 43z" />
    <glyph glyph-name="Yacute" unicode="&#xdd;" horiz-adv-x="783" 
d="M365 923h217l-95 -181h-190zM268 267l-253 432h253l119 -221l129 221h252l-263 -432v-267h-237v267z" />
    <glyph glyph-name="Thorn" unicode="&#xde;" horiz-adv-x="658" 
d="M35 699h237v-92h99q130 0 206 -65t76 -189t-76 -189t-206 -65h-99v-99h-237v699zM321 278q42 0 66.5 17t24.5 58t-24.5 58t-66.5 17h-49v-150h49z" />
    <glyph glyph-name="germandbls" unicode="&#xdf;" horiz-adv-x="675" 
d="M346.5 -10.5q-33.5 4.5 -54.5 13.5v179q11 -9 28.5 -14t34.5 -5q31 0 47.5 17.5t16.5 48.5q0 34 -17.5 51t-56.5 17h-53v157h46q29 0 44.5 18t15.5 48q0 29 -16.5 45.5t-48.5 16.5q-34 0 -50.5 -19.5t-16.5 -50.5v-512h-236v480q0 125 78.5 194.5t221.5 69.5
q107 0 176.5 -33t101 -85t31.5 -111q0 -95 -68 -142q47 -23 68 -62t21 -96q0 -109 -64.5 -169.5t-181.5 -60.5q-34 0 -67.5 4.5z" />
    <glyph glyph-name="agrave" unicode="&#xe0;" horiz-adv-x="619" 
d="M170 698h217l68 -181h-190zM71 26.5q-56 41.5 -56 121.5q0 81 54.5 123t161.5 42q32 0 70 -7.5t63 -17.5v8q0 26 -33 41t-87 15q-87 0 -159 -36v143q33 16 87 26t119 10q144 0 221 -53t77 -150v-292h-212v35q-23 -21 -65.5 -35.5t-90.5 -14.5q-94 0 -150 41.5zM333.5 117
q19.5 8 30.5 20v32q-33 19 -71 19q-21 0 -33 -11t-12 -29q0 -17 11.5 -28t33.5 -11q21 0 40.5 8z" />
    <glyph glyph-name="aacute" unicode="&#xe1;" horiz-adv-x="619" 
d="M284 698h217l-95 -181h-190zM71 26.5q-56 41.5 -56 121.5q0 81 54.5 123t161.5 42q32 0 70 -7.5t63 -17.5v8q0 26 -33 41t-87 15q-87 0 -159 -36v143q33 16 87 26t119 10q144 0 221 -53t77 -150v-292h-212v35q-23 -21 -65.5 -35.5t-90.5 -14.5q-94 0 -150 41.5z
M333.5 117q19.5 8 30.5 20v32q-33 19 -71 19q-21 0 -33 -11t-12 -29q0 -17 11.5 -28t33.5 -11q21 0 40.5 8z" />
    <glyph glyph-name="acircumflex" unicode="&#xe2;" horiz-adv-x="619" 
d="M222 708h202l165 -191h-207l-59 80l-59 -80h-207zM71 26.5q-56 41.5 -56 121.5q0 81 54.5 123t161.5 42q32 0 70 -7.5t63 -17.5v8q0 26 -33 41t-87 15q-87 0 -159 -36v143q33 16 87 26t119 10q144 0 221 -53t77 -150v-292h-212v35q-23 -21 -65.5 -35.5t-90.5 -14.5
q-94 0 -150 41.5zM333.5 117q19.5 8 30.5 20v32q-33 19 -71 19q-21 0 -33 -11t-12 -29q0 -17 11.5 -28t33.5 -11q21 0 40.5 8z" />
    <glyph glyph-name="atilde" unicode="&#xe3;" horiz-adv-x="619" 
d="M391 523.5q-25 6.5 -59 19.5q-32 12 -53 18t-42 6q-65 0 -110 -49v153q36 40 110 40q23 0 46 -6.5t58 -18.5q32 -12 55 -18.5t45 -6.5q65 0 110 49v-153q-36 -40 -110 -40q-25 0 -50 6.5zM71 26.5q-56 41.5 -56 121.5q0 81 54.5 123t161.5 42q32 0 70 -7.5t63 -17.5v8
q0 26 -33 41t-87 15q-87 0 -159 -36v143q33 16 87 26t119 10q144 0 221 -53t77 -150v-292h-212v35q-23 -21 -65.5 -35.5t-90.5 -14.5q-94 0 -150 41.5zM333.5 117q19.5 8 30.5 20v32q-33 19 -71 19q-21 0 -33 -11t-12 -29q0 -17 11.5 -28t33.5 -11q21 0 40.5 8z" />
    <glyph glyph-name="adieresis" unicode="&#xe4;" horiz-adv-x="619" 
d="M144 542.5q-26 25.5 -26 61.5t26 62t62 26t61.5 -25.5t25.5 -62.5t-25.5 -62t-61.5 -25t-62 25.5zM379 542.5q-26 25.5 -26 61.5q0 37 26 62.5t62 25.5q35 0 60.5 -25.5t25.5 -62.5q0 -36 -25 -61.5t-61 -25.5t-62 25.5zM71 26.5q-56 41.5 -56 121.5q0 81 54.5 123
t161.5 42q32 0 70 -7.5t63 -17.5v8q0 26 -33 41t-87 15q-87 0 -159 -36v143q33 16 87 26t119 10q144 0 221 -53t77 -150v-292h-212v35q-23 -21 -65.5 -35.5t-90.5 -14.5q-94 0 -150 41.5zM333.5 117q19.5 8 30.5 20v32q-33 19 -71 19q-21 0 -33 -11t-12 -29q0 -17 11.5 -28
t33.5 -11q21 0 40.5 8z" />
    <glyph glyph-name="aring" unicode="&#xe5;" horiz-adv-x="619" 
d="M242 537.5q-36 20.5 -57.5 55.5t-21.5 78t21.5 78t57.5 55.5t79 20.5t79 -20.5t57.5 -55.5t21.5 -78t-21.5 -78t-57.5 -55.5t-79 -20.5t-79 20.5zM350 642q12 12 12 29t-12 29t-29 12t-29 -12t-12 -29t12 -29t29 -12t29 12zM71 26.5q-56 41.5 -56 121.5q0 81 54.5 123
t161.5 42q32 0 70 -7.5t63 -17.5v8q0 26 -33 41t-87 15q-87 0 -159 -36v143q33 16 87 26t119 10q144 0 221 -53t77 -150v-292h-212v35q-23 -21 -65.5 -35.5t-90.5 -14.5q-94 0 -150 41.5zM333.5 117q19.5 8 30.5 20v32q-33 19 -71 19q-21 0 -33 -11t-12 -29q0 -17 11.5 -28
t33.5 -11q21 0 40.5 8z" />
    <glyph glyph-name="ae" unicode="&#xe6;" horiz-adv-x="950" 
d="M73 26.5q-58 41.5 -58 121.5q0 81 53 123t153 42q32 0 70 -7.5t63 -17.5v8q0 26 -33 41t-87 15q-87 0 -159 -36v143q33 16 87 26t119 10q60 0 106.5 -13t85.5 -38q36 23 83 37t98 14q89 0 152.5 -33t96 -90t32.5 -128v-65h-356q29 -52 131 -52q47 0 98.5 7.5t87.5 21.5
v-135q-41 -17 -95 -26.5t-115 -9.5q-66 0 -121.5 17.5t-91.5 49.5q-48 -32 -105.5 -49.5t-137.5 -17.5q-99 0 -157 41.5zM723 302q-12 50 -73 50q-59 0 -71 -50h144zM323.5 117q19.5 8 30.5 20v32q-33 19 -71 19q-21 0 -33 -11t-12 -29q0 -17 11.5 -28t33.5 -11q21 0 40.5 8
z" />
    <glyph glyph-name="ccedilla" unicode="&#xe7;" horiz-adv-x="539" 
d="M385 -10l-16 -39q44 -6 69 -29t25 -59q0 -48 -40.5 -79.5t-126.5 -31.5q-75 0 -118 16l2 83q28 -16 61 -16q27 0 39.5 11t12.5 28q0 24 -19.5 37t-66.5 13l20 67q-100 18 -156 81.5t-56 167.5q0 124 77.5 189.5t213.5 65.5q62 0 120 -11.5t93 -32.5v-172q-30 22 -71.5 34
t-84.5 12q-52 0 -83.5 -22t-31.5 -63q0 -42 31.5 -63.5t83.5 -21.5q42 0 84.5 12.5t76.5 35.5v-172q-53 -30 -139 -41z" />
    <glyph glyph-name="egrave" unicode="&#xe8;" horiz-adv-x="600" 
d="M123 698h217l68 -181h-190zM97.5 51q-82.5 66 -82.5 187q0 119 74.5 188t214.5 69q89 0 152.5 -33t96 -90t32.5 -128v-65h-356q29 -52 131 -52q47 0 98.5 7.5t87.5 21.5v-135q-40 -16 -98.5 -26t-119.5 -10q-148 0 -230.5 66zM373 302q-12 50 -73 50q-59 0 -71 -50h144z
" />
    <glyph glyph-name="eacute" unicode="&#xe9;" horiz-adv-x="600" 
d="M270 698h217l-95 -181h-190zM97.5 51q-82.5 66 -82.5 187q0 119 74.5 188t214.5 69q89 0 152.5 -33t96 -90t32.5 -128v-65h-356q29 -52 131 -52q47 0 98.5 7.5t87.5 21.5v-135q-40 -16 -98.5 -26t-119.5 -10q-148 0 -230.5 66zM373 302q-12 50 -73 50q-59 0 -71 -50h144z
" />
    <glyph glyph-name="ecircumflex" unicode="&#xea;" horiz-adv-x="600" 
d="M220 708h202l165 -191h-207l-59 80l-59 -80h-207zM97.5 51q-82.5 66 -82.5 187q0 119 74.5 188t214.5 69q89 0 152.5 -33t96 -90t32.5 -128v-65h-356q29 -52 131 -52q47 0 98.5 7.5t87.5 21.5v-135q-40 -16 -98.5 -26t-119.5 -10q-148 0 -230.5 66zM373 302
q-12 50 -73 50q-59 0 -71 -50h144z" />
    <glyph glyph-name="edieresis" unicode="&#xeb;" horiz-adv-x="600" 
d="M125 542.5q-26 25.5 -26 61.5t26 62t62 26t61.5 -25.5t25.5 -62.5t-25.5 -62t-61.5 -25t-62 25.5zM360 542.5q-26 25.5 -26 61.5q0 37 26 62.5t62 25.5q35 0 60.5 -25.5t25.5 -62.5q0 -36 -25 -61.5t-61 -25.5t-62 25.5zM97.5 51q-82.5 66 -82.5 187q0 119 74.5 188
t214.5 69q89 0 152.5 -33t96 -90t32.5 -128v-65h-356q29 -52 131 -52q47 0 98.5 7.5t87.5 21.5v-135q-40 -16 -98.5 -26t-119.5 -10q-148 0 -230.5 66zM373 302q-12 50 -73 50q-59 0 -71 -50h144z" />
    <glyph glyph-name="igrave" unicode="&#xec;" horiz-adv-x="295" 
d="M-35 698h217l68 -181h-190zM35 480h225v-480h-225v480z" />
    <glyph glyph-name="iacute" unicode="&#xed;" horiz-adv-x="295" 
d="M119 698h217l-95 -181h-190zM35 480h225v-480h-225v480z" />
    <glyph glyph-name="icircumflex" unicode="&#xee;" horiz-adv-x="295" 
d="M46 708h202l165 -191h-207l-59 80l-59 -80h-207zM35 480h225v-480h-225v480z" />
    <glyph glyph-name="idieresis" unicode="&#xef;" horiz-adv-x="295" 
d="M-31 542.5q-26 25.5 -26 61.5t26 62t62 26t61.5 -25.5t25.5 -62.5t-25.5 -62t-61.5 -25t-62 25.5zM204 542.5q-26 25.5 -26 61.5q0 37 26 62.5t62 25.5q35 0 60.5 -25.5t25.5 -62.5q0 -36 -25 -61.5t-61 -25.5t-62 25.5zM35 480h225v-480h-225v480z" />
    <glyph glyph-name="eth" unicode="&#xf0;" horiz-adv-x="646" 
d="M89.5 53q-74.5 68 -74.5 179q0 112 71.5 170.5t184.5 58.5q37 0 74 -9.5t60 -25.5q-15 80 -70 108l-108 -62v58l37 22h-10q-88 0 -140 -30v170q61 22 147 22q113 0 200 -49l120 69v-58l-74 -43q59 -49 91.5 -126t32.5 -177q0 -101 -38.5 -179t-111 -122t-169.5 -44
q-148 0 -222.5 68zM369.5 174.5q17.5 19.5 17.5 51.5q0 33 -18 52t-48 19q-33 0 -50.5 -18.5t-17.5 -52.5t17.5 -52.5t50.5 -18.5q31 0 48.5 19.5z" />
    <glyph glyph-name="ntilde" unicode="&#xf1;" horiz-adv-x="638" 
d="M371 523.5q-25 6.5 -59 19.5q-32 12 -53 18t-42 6q-65 0 -110 -49v153q36 40 110 40q23 0 46 -6.5t58 -18.5q32 -12 55 -18.5t45 -6.5q65 0 110 49v-153q-36 -40 -110 -40q-25 0 -50 6.5zM35 480h217v-40q30 26 70 40.5t84 14.5q105 0 153.5 -52.5t48.5 -145.5v-297h-225
v264q0 28 -11.5 42.5t-37.5 14.5q-49 0 -74 -45v-276h-225v480z" />
    <glyph glyph-name="ograve" unicode="&#xf2;" horiz-adv-x="652" 
d="M141 698h217l68 -181h-190zM161.5 18q-70.5 33 -108.5 91t-38 131t38 131t108.5 91t164.5 33t164.5 -33t108.5 -91t38 -131t-38 -131t-108.5 -91t-164.5 -33t-164.5 33zM385 181q22 22 22 59t-22 59t-59 22t-59 -22t-22 -59t22 -59t59 -22t59 22z" />
    <glyph glyph-name="oacute" unicode="&#xf3;" horiz-adv-x="652" 
d="M291 698h217l-95 -181h-190zM161.5 18q-70.5 33 -108.5 91t-38 131t38 131t108.5 91t164.5 33t164.5 -33t108.5 -91t38 -131t-38 -131t-108.5 -91t-164.5 -33t-164.5 33zM385 181q22 22 22 59t-22 59t-59 22t-59 -22t-22 -59t22 -59t59 -22t59 22z" />
    <glyph glyph-name="ocircumflex" unicode="&#xf4;" horiz-adv-x="652" 
d="M225 708h202l165 -191h-207l-59 80l-59 -80h-207zM161.5 18q-70.5 33 -108.5 91t-38 131t38 131t108.5 91t164.5 33t164.5 -33t108.5 -91t38 -131t-38 -131t-108.5 -91t-164.5 -33t-164.5 33zM385 181q22 22 22 59t-22 59t-59 22t-59 -22t-22 -59t22 -59t59 -22t59 22z
" />
    <glyph glyph-name="otilde" unicode="&#xf5;" horiz-adv-x="652" 
d="M378 523.5q-25 6.5 -59 19.5q-32 12 -53 18t-42 6q-65 0 -110 -49v153q36 40 110 40q23 0 46 -6.5t58 -18.5q32 -12 55 -18.5t45 -6.5q65 0 110 49v-153q-36 -40 -110 -40q-25 0 -50 6.5zM161.5 18q-70.5 33 -108.5 91t-38 131t38 131t108.5 91t164.5 33t164.5 -33
t108.5 -91t38 -131t-38 -131t-108.5 -91t-164.5 -33t-164.5 33zM385 181q22 22 22 59t-22 59t-59 22t-59 -22t-22 -59t22 -59t59 -22t59 22z" />
    <glyph glyph-name="odieresis" unicode="&#xf6;" horiz-adv-x="652" 
d="M148 542.5q-26 25.5 -26 61.5t26 62t62 26t61.5 -25.5t25.5 -62.5t-25.5 -62t-61.5 -25t-62 25.5zM383 542.5q-26 25.5 -26 61.5q0 37 26 62.5t62 25.5q35 0 60.5 -25.5t25.5 -62.5q0 -36 -25 -61.5t-61 -25.5t-62 25.5zM161.5 18q-70.5 33 -108.5 91t-38 131t38 131
t108.5 91t164.5 33t164.5 -33t108.5 -91t38 -131t-38 -131t-108.5 -91t-164.5 -33t-164.5 33zM385 181q22 22 22 59t-22 59t-59 22t-59 -22t-22 -59t22 -59t59 -22t59 22z" />
    <glyph glyph-name="divide" unicode="&#xf7;" horiz-adv-x="410" 
d="M147 444q-22 22 -22 53q0 32 22 54.5t53 22.5q32 0 54.5 -22.5t22.5 -54.5q0 -31 -22.5 -53t-54.5 -22q-31 0 -53 22zM15 396h380v-179h-380v179zM147 61q-22 22 -22 53q0 32 22 54.5t53 22.5q32 0 54.5 -22.5t22.5 -54.5q0 -31 -22.5 -53t-54.5 -22q-31 0 -53 22z" />
    <glyph glyph-name="oslash" unicode="&#xf8;" horiz-adv-x="652" 
d="M184 8q-80 30 -124.5 91.5t-44.5 140.5q0 73 38 131t108.5 91t164.5 33q27 0 52 -3l30 74h97l-38 -95q81 -29 125.5 -90.5t44.5 -140.5q0 -73 -38 -131t-108.5 -91t-164.5 -33q-28 0 -54 3l-30 -74h-96zM312 327q-34 -5 -54 -28t-20 -59q0 -34 16 -56zM393.5 179.5
q20.5 23.5 20.5 60.5q0 35 -18 56l-58 -144q35 4 55.5 27.5z" />
    <glyph glyph-name="ugrave" unicode="&#xf9;" horiz-adv-x="638" 
d="M135 698h217l68 -181h-190zM80.5 42q-50.5 57 -50.5 151v287h225v-259q0 -62 53 -62q48 0 70 45v276h225v-480h-217v40q-30 -26 -70 -40.5t-84 -14.5q-101 0 -151.5 57z" />
    <glyph glyph-name="uacute" unicode="&#xfa;" horiz-adv-x="638" 
d="M279 698h217l-95 -181h-190zM80.5 42q-50.5 57 -50.5 151v287h225v-259q0 -62 53 -62q48 0 70 45v276h225v-480h-217v40q-30 -26 -70 -40.5t-84 -14.5q-101 0 -151.5 57z" />
    <glyph glyph-name="ucircumflex" unicode="&#xfb;" horiz-adv-x="638" 
d="M215 708h202l165 -191h-207l-59 80l-59 -80h-207zM80.5 42q-50.5 57 -50.5 151v287h225v-259q0 -62 53 -62q48 0 70 45v276h225v-480h-217v40q-30 -26 -70 -40.5t-84 -14.5q-101 0 -151.5 57z" />
    <glyph glyph-name="udieresis" unicode="&#xfc;" horiz-adv-x="638" 
d="M137 542.5q-26 25.5 -26 61.5t26 62t62 26t61.5 -25.5t25.5 -62.5t-25.5 -62t-61.5 -25t-62 25.5zM372 542.5q-26 25.5 -26 61.5q0 37 26 62.5t62 25.5q35 0 60.5 -25.5t25.5 -62.5q0 -36 -25 -61.5t-61 -25.5t-62 25.5zM80.5 42q-50.5 57 -50.5 151v287h225v-259
q0 -62 53 -62q48 0 70 45v276h225v-480h-217v40q-30 -26 -70 -40.5t-84 -14.5q-101 0 -151.5 57z" />
    <glyph glyph-name="yacute" unicode="&#xfd;" horiz-adv-x="659" 
d="M302 698h217l-95 -181h-190zM126.5 -192q-41.5 6 -60.5 15v166q31 -13 71 -13q29 0 45.5 12t25.5 36l5 14l-208 442h225l102 -274l97 274h225l-186 -480q-39 -101 -101.5 -149.5t-161.5 -48.5q-37 0 -78.5 6z" />
    <glyph glyph-name="thorn" unicode="&#xfe;" horiz-adv-x="674" 
d="M35 699h225v-249q24 20 62.5 32.5t80.5 12.5q78 0 135.5 -31.5t89 -89.5t31.5 -134q0 -75 -31.5 -133t-89.5 -90t-135 -32q-42 0 -80.5 12.5t-62.5 32.5v-249h-225v918zM403.5 180q22.5 21 22.5 61t-22.5 60t-62.5 20q-26 0 -48 -12t-33 -33v-72q11 -21 33 -33t48 -12
q40 0 62.5 21z" />
    <glyph glyph-name="ydieresis" unicode="&#xff;" horiz-adv-x="659" 
d="M156 542.5q-26 25.5 -26 61.5t26 62t62 26t61.5 -25.5t25.5 -62.5t-25.5 -62t-61.5 -25t-62 25.5zM391 542.5q-26 25.5 -26 61.5q0 37 26 62.5t62 25.5q35 0 60.5 -25.5t25.5 -62.5q0 -36 -25 -61.5t-61 -25.5t-62 25.5zM126.5 -192q-41.5 6 -60.5 15v166q31 -13 71 -13
q29 0 45.5 12t25.5 36l5 14l-208 442h225l102 -274l97 274h225l-186 -480q-39 -101 -101.5 -149.5t-161.5 -48.5q-37 0 -78.5 6z" />
    <glyph glyph-name="Amacron" unicode="&#x100;" horiz-adv-x="814" 
d="M224 885h367v-143h-367v143zM295 699h224l280 -699h-243l-45 122h-208l-45 -122h-243zM459 296l-52 161l-52 -161h104z" />
    <glyph glyph-name="amacron" unicode="&#x101;" horiz-adv-x="619" 
d="M127 660h367v-143h-367v143zM71 26.5q-56 41.5 -56 121.5q0 81 54.5 123t161.5 42q32 0 70 -7.5t63 -17.5v8q0 26 -33 41t-87 15q-87 0 -159 -36v143q33 16 87 26t119 10q144 0 221 -53t77 -150v-292h-212v35q-23 -21 -65.5 -35.5t-90.5 -14.5q-94 0 -150 41.5z
M333.5 117q19.5 8 30.5 20v32q-33 19 -71 19q-21 0 -33 -11t-12 -29q0 -17 11.5 -28t33.5 -11q21 0 40.5 8z" />
    <glyph glyph-name="Abreve" unicode="&#x102;" horiz-adv-x="814" 
d="M255 793.5q-53 51.5 -53 143.5h167q0 -58 38 -58t38 58h167q0 -92 -53 -143.5t-152 -51.5t-152 51.5zM295 699h224l280 -699h-243l-45 122h-208l-45 -122h-243zM459 296l-52 161l-52 -161h104z" />
    <glyph glyph-name="abreve" unicode="&#x103;" horiz-adv-x="619" 
d="M182 568.5q-53 51.5 -53 143.5h167q0 -58 38 -58t38 58h167q0 -92 -53 -143.5t-152 -51.5t-152 51.5zM71 26.5q-56 41.5 -56 121.5q0 81 54.5 123t161.5 42q32 0 70 -7.5t63 -17.5v8q0 26 -33 41t-87 15q-87 0 -159 -36v143q33 16 87 26t119 10q144 0 221 -53t77 -150
v-292h-212v35q-23 -21 -65.5 -35.5t-90.5 -14.5q-94 0 -150 41.5zM333.5 117q19.5 8 30.5 20v32q-33 19 -71 19q-21 0 -33 -11t-12 -29q0 -17 11.5 -28t33.5 -11q21 0 40.5 8z" />
    <glyph glyph-name="Aogonek" unicode="&#x104;" horiz-adv-x="814" 
d="M701 -36q-18 -16 -18 -36q0 -11 6.5 -17t19.5 -6q23 0 49 13v-120q-23 -8 -58.5 -12.5t-69.5 -4.5q-65 0 -103.5 25.5t-38.5 77.5q0 39 18 68t51 48h-1l-45 122h-208l-45 -122h-243l280 699h224l280 -699h-37q-43 -20 -61 -36zM459 296l-52 161l-52 -161h104z" />
    <glyph glyph-name="aogonek" unicode="&#x105;" horiz-adv-x="619" 
d="M512 442q77 -53 77 -150v-292h-7q-43 -20 -61 -36t-18 -36q0 -11 6.5 -17t19.5 -6q23 0 49 13v-120q-23 -8 -58.5 -12.5t-69.5 -4.5q-65 0 -103.5 25.5t-38.5 77.5q0 39 18 68t51 48v35q-23 -21 -65.5 -35.5t-90.5 -14.5q-94 0 -150 41.5t-56 121.5q0 81 54.5 123
t161.5 42q32 0 70 -7.5t63 -17.5v8q0 26 -33 41t-87 15q-87 0 -159 -36v143q33 16 87 26t119 10q144 0 221 -53zM364 169q-33 19 -71 19q-21 0 -33 -11t-12 -29q0 -17 11.5 -28t33.5 -11q21 0 40.5 8t30.5 20v32z" />
    <glyph glyph-name="Cacute" unicode="&#x106;" horiz-adv-x="670" 
d="M372 923h217l-95 -181h-190zM196.5 28.5q-87.5 43.5 -134.5 126t-47 194.5q0 113 47 195t134.5 126t205.5 44q77 0 136 -13t109 -42v-224q-43 32 -97.5 46t-126.5 14q-78 0 -122.5 -37.5t-44.5 -108.5t45 -108.5t122 -37.5q70 0 126 15.5t106 47.5v-223
q-101 -58 -253 -58q-118 0 -205.5 43.5z" />
    <glyph glyph-name="cacute" unicode="&#x107;" horiz-adv-x="539" 
d="M272 698h217l-95 -181h-190zM92.5 50.5q-77.5 65.5 -77.5 189.5t77.5 189.5t213.5 65.5q62 0 120 -11.5t93 -32.5v-172q-30 22 -71.5 34t-84.5 12q-52 0 -83.5 -22t-31.5 -63q0 -42 31.5 -63.5t83.5 -21.5q42 0 84.5 12.5t76.5 35.5v-172q-36 -21 -94 -33.5t-124 -12.5
q-136 0 -213.5 65.5z" />
    <glyph glyph-name="Ccircumflex" unicode="&#x108;" horiz-adv-x="670" 
d="M278 933h202l165 -191h-207l-59 80l-59 -80h-207zM196.5 28.5q-87.5 43.5 -134.5 126t-47 194.5q0 113 47 195t134.5 126t205.5 44q77 0 136 -13t109 -42v-224q-43 32 -97.5 46t-126.5 14q-78 0 -122.5 -37.5t-44.5 -108.5t45 -108.5t122 -37.5q70 0 126 15.5t106 47.5
v-223q-101 -58 -253 -58q-118 0 -205.5 43.5z" />
    <glyph glyph-name="ccircumflex" unicode="&#x109;" horiz-adv-x="539" 
d="M200 708h202l165 -191h-207l-59 80l-59 -80h-207zM92.5 50.5q-77.5 65.5 -77.5 189.5t77.5 189.5t213.5 65.5q62 0 120 -11.5t93 -32.5v-172q-30 22 -71.5 34t-84.5 12q-52 0 -83.5 -22t-31.5 -63q0 -42 31.5 -63.5t83.5 -21.5q42 0 84.5 12.5t76.5 35.5v-172
q-36 -21 -94 -33.5t-124 -12.5q-136 0 -213.5 65.5z" />
    <glyph glyph-name="Cdotaccent" unicode="&#x10a;" horiz-adv-x="670" 
d="M358 767.5q-26 25.5 -26 61.5t26 62t62 26t61.5 -25.5t25.5 -62.5t-25.5 -62t-61.5 -25t-62 25.5zM196.5 28.5q-87.5 43.5 -134.5 126t-47 194.5q0 113 47 195t134.5 126t205.5 44q77 0 136 -13t109 -42v-224q-43 32 -97.5 46t-126.5 14q-78 0 -122.5 -37.5t-44.5 -108.5
t45 -108.5t122 -37.5q70 0 126 15.5t106 47.5v-223q-101 -58 -253 -58q-118 0 -205.5 43.5z" />
    <glyph glyph-name="cdotaccent" unicode="&#x10b;" horiz-adv-x="539" 
d="M244 542.5q-26 25.5 -26 61.5t26 62t62 26t61.5 -25.5t25.5 -62.5t-25.5 -62t-61.5 -25t-62 25.5zM92.5 50.5q-77.5 65.5 -77.5 189.5t77.5 189.5t213.5 65.5q62 0 120 -11.5t93 -32.5v-172q-30 22 -71.5 34t-84.5 12q-52 0 -83.5 -22t-31.5 -63q0 -42 31.5 -63.5
t83.5 -21.5q42 0 84.5 12.5t76.5 35.5v-172q-36 -21 -94 -33.5t-124 -12.5q-136 0 -213.5 65.5z" />
    <glyph glyph-name="Ccaron" unicode="&#x10c;" horiz-adv-x="670" 
d="M136 933h207l59 -80l59 80h207l-165 -191h-202zM196.5 28.5q-87.5 43.5 -134.5 126t-47 194.5q0 113 47 195t134.5 126t205.5 44q77 0 136 -13t109 -42v-224q-43 32 -97.5 46t-126.5 14q-78 0 -122.5 -37.5t-44.5 -108.5t45 -108.5t122 -37.5q70 0 126 15.5t106 47.5
v-223q-101 -58 -253 -58q-118 0 -205.5 43.5z" />
    <glyph glyph-name="ccaron" unicode="&#x10d;" horiz-adv-x="539" 
d="M25 708h207l59 -80l59 80h207l-165 -191h-202zM92.5 50.5q-77.5 65.5 -77.5 189.5t77.5 189.5t213.5 65.5q62 0 120 -11.5t93 -32.5v-172q-30 22 -71.5 34t-84.5 12q-52 0 -83.5 -22t-31.5 -63q0 -42 31.5 -63.5t83.5 -21.5q42 0 84.5 12.5t76.5 35.5v-172
q-36 -21 -94 -33.5t-124 -12.5q-136 0 -213.5 65.5z" />
    <glyph glyph-name="Dcaron" unicode="&#x10e;" horiz-adv-x="705" 
d="M53 933h207l59 -80l59 80h207l-165 -191h-202zM35 699h268q116 0 203.5 -42t135.5 -120t48 -184q0 -174 -103.5 -263.5t-283.5 -89.5h-268v699zM319 220q130 0 130 133q0 61 -34 93.5t-96 32.5h-47v-259h47z" />
    <glyph glyph-name="dcaron" unicode="&#x10f;" horiz-adv-x="674" 
d="M734 769h184l-105 -204h-165zM135.5 16.5q-57.5 31.5 -89 89.5t-31.5 134q0 75 31.5 133t89.5 90t135 32q42 0 80.5 -12.5t62.5 -32.5v289h225v-739h-217v40q-27 -25 -67.5 -40t-83.5 -15q-78 0 -135.5 31.5zM381 171q22 12 33 33v72q-11 21 -33 33t-48 12
q-40 0 -62.5 -21t-22.5 -61t22.5 -60t62.5 -20q26 0 48 12z" />
    <glyph glyph-name="Dcroat" unicode="&#x110;" horiz-adv-x="736" 
d="M537.5 657q87.5 -42 135.5 -120t48 -184q0 -174 -103.5 -263.5t-283.5 -89.5h-268v266h-41v167h41v266h268q116 0 203.5 -42zM480 353q0 61 -34 93.5t-96 32.5h-47v-46h105v-167h-105v-46h47q130 0 130 133z" />
    <glyph glyph-name="dcroat" unicode="&#x111;" horiz-adv-x="674" 
d="M669 528h-30v-528h-217v40q-27 -25 -67.5 -40t-83.5 -15q-78 0 -135.5 31.5t-89 89.5t-31.5 134q0 75 31.5 133t89.5 90t135 32q42 0 80.5 -12.5t62.5 -32.5v78h-128v157h128v54h225v-54h30v-157zM414 276q-11 21 -33 33t-48 12q-40 0 -62.5 -21t-22.5 -61t22.5 -60
t62.5 -20q26 0 48 12t33 33v72z" />
    <glyph glyph-name="Emacron" unicode="&#x112;" horiz-adv-x="568" 
d="M115 885h367v-143h-367v143zM35 699h518v-199h-281v-61h199v-179h-199v-61h281v-199h-518v699z" />
    <glyph glyph-name="emacron" unicode="&#x113;" horiz-adv-x="600" 
d="M120 660h367v-143h-367v143zM97.5 51q-82.5 66 -82.5 187q0 119 74.5 188t214.5 69q89 0 152.5 -33t96 -90t32.5 -128v-65h-356q29 -52 131 -52q47 0 98.5 7.5t87.5 21.5v-135q-40 -16 -98.5 -26t-119.5 -10q-148 0 -230.5 66zM373 302q-12 50 -73 50q-59 0 -71 -50h144z
" />
    <glyph glyph-name="Ebreve" unicode="&#x114;" horiz-adv-x="568" 
d="M135 793.5q-53 51.5 -53 143.5h167q0 -58 38 -58t38 58h167q0 -92 -53 -143.5t-152 -51.5t-152 51.5zM35 699h518v-199h-281v-61h199v-179h-199v-61h281v-199h-518v699z" />
    <glyph glyph-name="ebreve" unicode="&#x115;" horiz-adv-x="600" 
d="M158 568.5q-53 51.5 -53 143.5h167q0 -58 38 -58t38 58h167q0 -92 -53 -143.5t-152 -51.5t-152 51.5zM97.5 51q-82.5 66 -82.5 187q0 119 74.5 188t214.5 69q89 0 152.5 -33t96 -90t32.5 -128v-65h-356q29 -52 131 -52q47 0 98.5 7.5t87.5 21.5v-135q-40 -16 -98.5 -26
t-119.5 -10q-148 0 -230.5 66zM373 302q-12 50 -73 50q-59 0 -71 -50h144z" />
    <glyph glyph-name="Edotaccent" unicode="&#x116;" horiz-adv-x="568" 
d="M225 767.5q-26 25.5 -26 61.5t26 62t62 26t61.5 -25.5t25.5 -62.5t-25.5 -62t-61.5 -25t-62 25.5zM35 699h518v-199h-281v-61h199v-179h-199v-61h281v-199h-518v699z" />
    <glyph glyph-name="edotaccent" unicode="&#x117;" horiz-adv-x="600" 
d="M234 542.5q-26 25.5 -26 61.5t26 62t62 26t61.5 -25.5t25.5 -62.5t-25.5 -62t-61.5 -25t-62 25.5zM97.5 51q-82.5 66 -82.5 187q0 119 74.5 188t214.5 69q89 0 152.5 -33t96 -90t32.5 -128v-65h-356q29 -52 131 -52q47 0 98.5 7.5t87.5 21.5v-135q-40 -16 -98.5 -26
t-119.5 -10q-148 0 -230.5 66zM373 302q-12 50 -73 50q-59 0 -71 -50h144z" />
    <glyph glyph-name="Eogonek" unicode="&#x118;" horiz-adv-x="568" 
d="M272 500v-61h199v-179h-199v-61h281v-199q-43 -20 -61 -36t-18 -36q0 -11 6.5 -17t19.5 -6q23 0 49 13v-120q-23 -8 -58.5 -12.5t-69.5 -4.5q-65 0 -103.5 25.5t-38.5 77.5q0 39 18 68t51 48h-313v699h518v-199h-281z" />
    <glyph glyph-name="eogonek" unicode="&#x119;" horiz-adv-x="600" 
d="M585 179h-356q29 -52 131 -52q47 0 98.5 7.5t87.5 21.5v-135q-28 -12 -76 -22q-42 -19 -59.5 -35t-17.5 -36q0 -11 6.5 -17t19.5 -6q23 0 49 13v-120q-23 -8 -58.5 -12.5t-69.5 -4.5q-65 0 -103.5 25.5t-38.5 77.5q0 67 54 106q-114 16 -175.5 80t-61.5 168
q0 119 74.5 188t214.5 69q89 0 152.5 -33t96 -90t32.5 -128v-65zM373 302q-12 50 -73 50q-59 0 -71 -50h144z" />
    <glyph glyph-name="Ecaron" unicode="&#x11a;" horiz-adv-x="568" 
d="M35 933h207l59 -80l59 80h207l-165 -191h-202zM35 699h518v-199h-281v-61h199v-179h-199v-61h281v-199h-518v699z" />
    <glyph glyph-name="ecaron" unicode="&#x11b;" horiz-adv-x="600" 
d="M55 708h207l59 -80l59 80h207l-165 -191h-202zM97.5 51q-82.5 66 -82.5 187q0 119 74.5 188t214.5 69q89 0 152.5 -33t96 -90t32.5 -128v-65h-356q29 -52 131 -52q47 0 98.5 7.5t87.5 21.5v-135q-40 -16 -98.5 -26t-119.5 -10q-148 0 -230.5 66zM373 302q-12 50 -73 50
q-59 0 -71 -50h144z" />
    <glyph glyph-name="Gcircumflex" unicode="&#x11c;" horiz-adv-x="687" 
d="M283 933h202l165 -191h-207l-59 80l-59 -80h-207zM196.5 28.5q-87.5 43.5 -134.5 126t-47 194.5q0 113 47 195t134.5 126t205.5 44q78 0 136 -13t109 -42v-222q-43 32 -97.5 46t-126.5 14q-77 0 -122.5 -38.5t-45.5 -109.5q0 -77 37 -116.5t120 -39.5q30 0 52 8v66h-77
v136h285v-359q-103 -59 -270 -59q-118 0 -205.5 43.5z" />
    <glyph glyph-name="gcircumflex" unicode="&#x11d;" horiz-adv-x="674" 
d="M257 708h202l165 -191h-207l-59 80l-59 -80h-207zM205.5 -221q-49.5 9 -86.5 25v143q80 -34 184 -34q111 0 111 90v27q-24 -20 -62.5 -32.5t-80.5 -12.5q-77 0 -135 32t-89.5 90t-31.5 133q0 76 31.5 134t89 89.5t135.5 31.5q43 0 83.5 -15t67.5 -40v40h217v-442
q0 -127 -82 -197.5t-254 -70.5q-48 0 -97.5 9zM381 171q22 12 33 33v72q-11 21 -33 33t-48 12q-40 0 -62.5 -20t-22.5 -60t22.5 -61t62.5 -21q26 0 48 12z" />
    <glyph glyph-name="Gbreve" unicode="&#x11e;" horiz-adv-x="687" 
d="M259 793.5q-53 51.5 -53 143.5h167q0 -58 38 -58t38 58h167q0 -92 -53 -143.5t-152 -51.5t-152 51.5zM196.5 28.5q-87.5 43.5 -134.5 126t-47 194.5q0 113 47 195t134.5 126t205.5 44q78 0 136 -13t109 -42v-222q-43 32 -97.5 46t-126.5 14q-77 0 -122.5 -38.5
t-45.5 -109.5q0 -77 37 -116.5t120 -39.5q30 0 52 8v66h-77v136h285v-359q-103 -59 -270 -59q-118 0 -205.5 43.5z" />
    <glyph glyph-name="gbreve" unicode="&#x11f;" horiz-adv-x="674" 
d="M195 568.5q-53 51.5 -53 143.5h167q0 -58 38 -58t38 58h167q0 -92 -53 -143.5t-152 -51.5t-152 51.5zM205.5 -221q-49.5 9 -86.5 25v143q80 -34 184 -34q111 0 111 90v27q-24 -20 -62.5 -32.5t-80.5 -12.5q-77 0 -135 32t-89.5 90t-31.5 133q0 76 31.5 134t89 89.5
t135.5 31.5q43 0 83.5 -15t67.5 -40v40h217v-442q0 -127 -82 -197.5t-254 -70.5q-48 0 -97.5 9zM381 171q22 12 33 33v72q-11 21 -33 33t-48 12q-40 0 -62.5 -20t-22.5 -60t22.5 -61t62.5 -21q26 0 48 12z" />
    <glyph glyph-name="Gdotaccent" unicode="&#x120;" horiz-adv-x="687" 
d="M350 767.5q-26 25.5 -26 61.5t26 62t62 26t61.5 -25.5t25.5 -62.5t-25.5 -62t-61.5 -25t-62 25.5zM196.5 28.5q-87.5 43.5 -134.5 126t-47 194.5q0 113 47 195t134.5 126t205.5 44q78 0 136 -13t109 -42v-222q-43 32 -97.5 46t-126.5 14q-77 0 -122.5 -38.5t-45.5 -109.5
q0 -77 37 -116.5t120 -39.5q30 0 52 8v66h-77v136h285v-359q-103 -59 -270 -59q-118 0 -205.5 43.5z" />
    <glyph glyph-name="gdotaccent" unicode="&#x121;" horiz-adv-x="674" 
d="M321 542.5q-26 25.5 -26 61.5t26 62t62 26t61.5 -25.5t25.5 -62.5t-25.5 -62t-61.5 -25t-62 25.5zM205.5 -221q-49.5 9 -86.5 25v143q80 -34 184 -34q111 0 111 90v27q-24 -20 -62.5 -32.5t-80.5 -12.5q-77 0 -135 32t-89.5 90t-31.5 133q0 76 31.5 134t89 89.5
t135.5 31.5q43 0 83.5 -15t67.5 -40v40h217v-442q0 -127 -82 -197.5t-254 -70.5q-48 0 -97.5 9zM381 171q22 12 33 33v72q-11 21 -33 33t-48 12q-40 0 -62.5 -20t-22.5 -60t22.5 -61t62.5 -21q26 0 48 12z" />
    <glyph glyph-name="Gcommaaccent" unicode="&#x122;" horiz-adv-x="687" 
d="M196.5 28.5q-87.5 43.5 -134.5 126t-47 194.5q0 113 47 195t134.5 126t205.5 44q78 0 136 -13t109 -42v-222q-43 32 -97.5 46t-126.5 14q-77 0 -122.5 -38.5t-45.5 -109.5q0 -77 37 -116.5t120 -39.5q30 0 52 8v66h-77v136h285v-359q-103 -59 -270 -59
q-118 0 -205.5 43.5zM308 -41h212l-111 -218h-185z" />
    <glyph glyph-name="gcommaaccent" unicode="&#x123;" horiz-adv-x="674" 
d="M364 735h185l-84 -218h-212zM205.5 -221q-49.5 9 -86.5 25v143q80 -34 184 -34q111 0 111 90v27q-24 -20 -62.5 -32.5t-80.5 -12.5q-77 0 -135 32t-89.5 90t-31.5 133q0 76 31.5 134t89 89.5t135.5 31.5q43 0 83.5 -15t67.5 -40v40h217v-442q0 -127 -82 -197.5
t-254 -70.5q-48 0 -97.5 9zM381 171q22 12 33 33v72q-11 21 -33 33t-48 12q-40 0 -62.5 -20t-22.5 -60t22.5 -61t62.5 -21q26 0 48 12z" />
    <glyph glyph-name="Hcircumflex" unicode="&#x124;" horiz-adv-x="736" 
d="M267 933h202l165 -191h-207l-59 80l-59 -80h-207zM35 699h237v-234h192v234h237v-699h-237v245h-192v-245h-237v699z" />
    <glyph glyph-name="hcircumflex" unicode="&#x125;" horiz-adv-x="638" 
d="M200 952h202l165 -191h-207l-59 80l-59 -80h-207zM35 739h225v-296q65 52 146 52q105 0 153.5 -52.5t48.5 -145.5v-297h-225v264q0 28 -11.5 42.5t-37.5 14.5q-49 0 -74 -45v-276h-225v739z" />
    <glyph glyph-name="Hbar" unicode="&#x126;" horiz-adv-x="798" 
d="M773 514h-41v-514h-237v245h-192v-245h-237v514h-41v131h41v54h237v-54h192v54h237v-54h41v-131zM495 514h-192v-49h192v49z" />
    <glyph glyph-name="hbar" unicode="&#x127;" horiz-adv-x="638" 
d="M559.5 442.5q48.5 -52.5 48.5 -145.5v-297h-225v264q0 28 -11.5 42.5t-37.5 14.5q-49 0 -74 -45v-276h-225v537h-40v118h40v84h225v-84h118v-118h-118v-94q65 52 146 52q105 0 153.5 -52.5z" />
    <glyph glyph-name="Itilde" unicode="&#x128;" horiz-adv-x="307" 
d="M205 748.5q-25 6.5 -59 19.5q-32 12 -53 18t-42 6q-65 0 -110 -49v153q36 40 110 40q23 0 46 -6.5t58 -18.5q32 -12 55 -18.5t45 -6.5q65 0 110 49v-153q-36 -40 -110 -40q-25 0 -50 6.5zM35 699h237v-699h-237v699z" />
    <glyph glyph-name="itilde" unicode="&#x129;" horiz-adv-x="295" 
d="M199 523.5q-25 6.5 -59 19.5q-32 12 -53 18t-42 6q-65 0 -110 -49v153q36 40 110 40q23 0 46 -6.5t58 -18.5q32 -12 55 -18.5t45 -6.5q65 0 110 49v-153q-36 -40 -110 -40q-25 0 -50 6.5zM35 480h225v-480h-225v480z" />
    <glyph glyph-name="Imacron" unicode="&#x12a;" horiz-adv-x="307" 
d="M-40 885h387v-143h-387v143zM35 699h237v-699h-237v699z" />
    <glyph glyph-name="imacron" unicode="&#x12b;" horiz-adv-x="295" 
d="M-46 660h387v-143h-387v143zM35 480h225v-480h-225v480z" />
    <glyph glyph-name="Ibreve" unicode="&#x12c;" horiz-adv-x="307" 
d="M1 793.5q-53 51.5 -53 143.5h167q0 -58 38 -58t38 58h167q0 -92 -53 -143.5t-152 -51.5t-152 51.5zM35 699h237v-699h-237v699z" />
    <glyph glyph-name="ibreve" unicode="&#x12d;" horiz-adv-x="295" 
d="M-5 568.5q-53 51.5 -53 143.5h167q0 -58 38 -58t38 58h167q0 -92 -53 -143.5t-152 -51.5t-152 51.5zM35 480h225v-480h-225v480z" />
    <glyph glyph-name="Iogonek" unicode="&#x12e;" horiz-adv-x="307" 
d="M272 699v-699h-13q-43 -20 -61 -36t-18 -36q0 -11 6.5 -17t19.5 -6q23 0 49 13v-120q-23 -8 -58.5 -12.5t-69.5 -4.5q-65 0 -103.5 25.5t-38.5 77.5q0 39 18 68t51 48h-19v699h237z" />
    <glyph glyph-name="iogonek" unicode="&#x12f;" horiz-adv-x="302" 
d="M68 556.5q-33 32.5 -33 81.5q0 48 33.5 81t82.5 33q48 0 82 -33t34 -81q0 -49 -33.5 -81.5t-82.5 -32.5q-50 0 -83 32.5zM39 480h225v-480h-7q-43 -20 -61 -36t-18 -36q0 -11 6.5 -17t19.5 -6q23 0 49 13v-120q-23 -8 -58.5 -12.5t-69.5 -4.5q-65 0 -103.5 25.5
t-38.5 77.5q0 39 18 68t51 48h-13v480z" />
    <glyph glyph-name="Idotaccent" unicode="&#x130;" horiz-adv-x="307" 
d="M92 767.5q-26 25.5 -26 61.5t26 62t62 26t61.5 -25.5t25.5 -62.5t-25.5 -62t-61.5 -25t-62 25.5zM35 699h237v-699h-237v699z" />
    <glyph glyph-name="dotlessi" unicode="&#x131;" horiz-adv-x="295" 
d="M35 480h225v-480h-225v480z" />
    <glyph glyph-name="IJ" unicode="&#x132;" horiz-adv-x="702" 
d="M35 699h237v-699h-237v699zM346.5 -7q-40.5 8 -58.5 20v200q32 -17 79 -17q34 0 51 16t17 51v436h237v-463q0 -112 -63.5 -181.5t-185.5 -69.5q-36 0 -76.5 8z" />
    <glyph glyph-name="ij" unicode="&#x133;" horiz-adv-x="587" 
d="M68 556.5q-33 32.5 -33 81.5q0 48 33.5 81t82.5 33q48 0 82 -33t34 -81q0 -49 -33.5 -81.5t-82.5 -32.5q-50 0 -83 32.5zM353 556.5q-33 32.5 -33 81.5q0 48 33.5 81t82.5 33q48 0 82 -33t34 -81q0 -49 -33.5 -81.5t-82.5 -32.5q-50 0 -83 32.5zM39 480h225v-480h-225
v480zM187 -210v179q32 -17 75 -17q28 0 45 15t17 46v467h225v-495q0 -106 -70.5 -161t-182.5 -55q-65 0 -109 21z" />
    <glyph glyph-name="Jcircumflex" unicode="&#x134;" horiz-adv-x="409" 
d="M149 923h202l165 -191h-207l-59 80l-59 -80h-207zM53.5 -7q-40.5 8 -58.5 20v200q32 -17 79 -17q34 0 51 16t17 51v436h237v-463q0 -112 -63.5 -181.5t-185.5 -69.5q-36 0 -76.5 8z" />
    <glyph glyph-name="jcircumflex" unicode="&#x135;" horiz-adv-x="300" 
d="M65 708h202l165 -191h-207l-59 80l-59 -80h-207zM-100 -210v179q32 -17 75 -17q28 0 45 15t17 46v467h225v-495q0 -106 -70.5 -161t-182.5 -55q-65 0 -109 21z" />
    <glyph glyph-name="Kcommaaccent" unicode="&#x136;" horiz-adv-x="773" 
d="M35 699h237v-253l196 253h272l-262 -338l280 -361h-278l-208 274v-274h-237v699zM268 -41h212l-111 -218h-185z" />
    <glyph glyph-name="kcommaaccent" unicode="&#x137;" horiz-adv-x="684" 
d="M35 739h225v-431l126 172h256l-168 -229l195 -251h-256l-153 197v-197h-225v739zM229 -41h212l-111 -218h-185z" />
    <glyph glyph-name="kgreenlandic" unicode="&#x138;" horiz-adv-x="684" 
d="M35 480h225v-180l126 180h256l-168 -240l195 -240h-256l-153 188v-188h-225v480z" />
    <glyph glyph-name="Lacute" unicode="&#x139;" horiz-adv-x="528" 
d="M123 923h217l-95 -181h-190zM35 699h237v-500h261v-199h-498v699z" />
    <glyph glyph-name="lacute" unicode="&#x13a;" horiz-adv-x="295" 
d="M120 943h217l-95 -181h-190zM35 739h225v-739h-225v739z" />
    <glyph glyph-name="Lcommaaccent" unicode="&#x13b;" horiz-adv-x="528" 
d="M35 699h237v-500h261v-199h-498v699zM213 -41h212l-111 -218h-185z" />
    <glyph glyph-name="lcommaaccent" unicode="&#x13c;" horiz-adv-x="295" 
d="M35 739h225v-739h-225v739zM42 -41h212l-111 -218h-185z" />
    <glyph glyph-name="Lcaron" unicode="&#x13d;" horiz-adv-x="576" 
d="M422 722h212l-111 -218h-185zM35 699h237v-500h261v-199h-498v699z" />
    <glyph glyph-name="lcaron" unicode="&#x13e;" horiz-adv-x="565" 
d="M378 768h212l-111 -218h-185zM35 739h225v-739h-225v739z" />
    <glyph glyph-name="Ldot" unicode="&#x13f;" horiz-adv-x="528" 
d="M35 699h237v-500h261v-199h-498v699zM355 341.5q-26 25.5 -26 61.5t26 62t62 26t61.5 -25.5t25.5 -62.5t-25.5 -62t-61.5 -25t-62 25.5z" />
    <glyph glyph-name="ldot" unicode="&#x140;" horiz-adv-x="447" 
d="M35 739h225v-739h-225v739zM313 326.5q-26 25.5 -26 61.5t26 62t62 26t61.5 -25.5t25.5 -62.5t-25.5 -62t-61.5 -25t-62 25.5z" />
    <glyph glyph-name="Lslash" unicode="&#x141;" horiz-adv-x="528" 
d="M533 199v-199h-498v230l-60 -27v218l60 27v251h237v-145l119 53v-218l-119 -53v-137h261z" />
    <glyph glyph-name="lslash" unicode="&#x142;" horiz-adv-x="295" 
d="M359 359l-99 -44v-315h-225v214l-92 -41v218l92 41v307h225v-206l99 44v-218z" />
    <glyph glyph-name="Nacute" unicode="&#x143;" horiz-adv-x="714" 
d="M325 923h217l-95 -181h-190zM35 699h209l208 -325v325h227v-699h-209l-208 326v-326h-227v699z" />
    <glyph glyph-name="nacute" unicode="&#x144;" horiz-adv-x="638" 
d="M268 698h217l-95 -181h-190zM35 480h217v-40q30 26 70 40.5t84 14.5q105 0 153.5 -52.5t48.5 -145.5v-297h-225v264q0 28 -11.5 42.5t-37.5 14.5q-49 0 -74 -45v-276h-225v480z" />
    <glyph glyph-name="Ncommaaccent" unicode="&#x145;" horiz-adv-x="714" 
d="M35 699h209l208 -325v325h227v-699h-209l-208 326v-326h-227v699zM269 -41h212l-111 -218h-185z" />
    <glyph glyph-name="ncommaaccent" unicode="&#x146;" horiz-adv-x="638" 
d="M35 480h217v-40q30 26 70 40.5t84 14.5q105 0 153.5 -52.5t48.5 -145.5v-297h-225v264q0 28 -11.5 42.5t-37.5 14.5q-49 0 -74 -45v-276h-225v480zM231 -41h212l-111 -218h-185z" />
    <glyph glyph-name="Ncaron" unicode="&#x147;" horiz-adv-x="714" 
d="M94 933h207l59 -80l59 80h207l-165 -191h-202zM35 699h209l208 -325v325h227v-699h-209l-208 326v-326h-227v699z" />
    <glyph glyph-name="ncaron" unicode="&#x148;" horiz-adv-x="638" 
d="M35 717h207l59 -80l59 80h207l-165 -191h-202zM35 480h217v-40q30 26 70 40.5t84 14.5q105 0 153.5 -52.5t48.5 -145.5v-297h-225v264q0 28 -11.5 42.5t-37.5 14.5q-49 0 -74 -45v-276h-225v480z" />
    <glyph glyph-name="napostrophe" unicode="&#x149;" horiz-adv-x="780" 
d="M49 722h212l-111 -218h-185zM177 480h217v-40q30 26 70 40.5t84 14.5q105 0 153.5 -52.5t48.5 -145.5v-297h-225v264q0 28 -11.5 42.5t-37.5 14.5q-49 0 -74 -45v-276h-225v480z" />
    <glyph glyph-name="Eng" unicode="&#x14a;" horiz-adv-x="714" 
d="M679 699v-699v-15q0 -106 -70.5 -161t-182.5 -55q-65 0 -109 21v179q32 -17 75 -17q28 0 45 15t17 46v12l-192 301v-326h-227v699h209l208 -325v325h227z" />
    <glyph glyph-name="eng" unicode="&#x14b;" horiz-adv-x="638" 
d="M608 0v-15q0 -106 -70.5 -161t-182.5 -55q-65 0 -109 21v179q32 -17 75 -17q28 0 45 15t17 46v251q0 28 -11.5 42.5t-37.5 14.5q-49 0 -74 -45v-276h-225v480h217v-40q30 26 70 40.5t84 14.5q105 0 153.5 -52t48.5 -145v-298z" />
    <glyph glyph-name="Omacron" unicode="&#x14c;" horiz-adv-x="789" 
d="M211 885h367v-143h-367v143zM201.5 31q-86.5 46 -136.5 128.5t-50 189.5t50 190t136.5 129t193.5 46q106 0 192.5 -46t136.5 -129t50 -190t-50 -189.5t-136.5 -128.5t-192.5 -46q-107 0 -193.5 46zM494 246q39 38 39 103t-39 103t-99 38q-61 0 -100 -38t-39 -103
t39.5 -103t99.5 -38t99 38z" />
    <glyph glyph-name="omacron" unicode="&#x14d;" horiz-adv-x="652" 
d="M143 660h367v-143h-367v143zM161.5 18q-70.5 33 -108.5 91t-38 131t38 131t108.5 91t164.5 33t164.5 -33t108.5 -91t38 -131t-38 -131t-108.5 -91t-164.5 -33t-164.5 33zM385 181q22 22 22 59t-22 59t-59 22t-59 -22t-22 -59t22 -59t59 -22t59 22z" />
    <glyph glyph-name="Obreve" unicode="&#x14e;" horiz-adv-x="789" 
d="M242 793.5q-53 51.5 -53 143.5h167q0 -58 38 -58t38 58h167q0 -92 -53 -143.5t-152 -51.5t-152 51.5zM201.5 31q-86.5 46 -136.5 128.5t-50 189.5t50 190t136.5 129t193.5 46q106 0 192.5 -46t136.5 -129t50 -190t-50 -189.5t-136.5 -128.5t-192.5 -46q-107 0 -193.5 46z
M494 246q39 38 39 103t-39 103t-99 38q-61 0 -100 -38t-39 -103t39.5 -103t99.5 -38t99 38z" />
    <glyph glyph-name="obreve" unicode="&#x14f;" horiz-adv-x="652" 
d="M174 568.5q-53 51.5 -53 143.5h167q0 -58 38 -58t38 58h167q0 -92 -53 -143.5t-152 -51.5t-152 51.5zM161.5 18q-70.5 33 -108.5 91t-38 131t38 131t108.5 91t164.5 33t164.5 -33t108.5 -91t38 -131t-38 -131t-108.5 -91t-164.5 -33t-164.5 33zM385 181q22 22 22 59
t-22 59t-59 22t-59 -22t-22 -59t22 -59t59 -22t59 22z" />
    <glyph glyph-name="Ohungarumlaut" unicode="&#x150;" horiz-adv-x="789" 
d="M214 923h217l-95 -181h-190zM494 923h217l-95 -181h-190zM201.5 31q-86.5 46 -136.5 128.5t-50 189.5t50 190t136.5 129t193.5 46q106 0 192.5 -46t136.5 -129t50 -190t-50 -189.5t-136.5 -128.5t-192.5 -46q-107 0 -193.5 46zM494 246q39 38 39 103t-39 103t-99 38
q-61 0 -100 -38t-39 -103t39.5 -103t99.5 -38t99 38z" />
    <glyph glyph-name="ohungarumlaut" unicode="&#x151;" horiz-adv-x="652" 
d="M134 698h217l-95 -181h-190zM414 698h217l-95 -181h-190zM161.5 18q-70.5 33 -108.5 91t-38 131t38 131t108.5 91t164.5 33t164.5 -33t108.5 -91t38 -131t-38 -131t-108.5 -91t-164.5 -33t-164.5 33zM385 181q22 22 22 59t-22 59t-59 22t-59 -22t-22 -59t22 -59t59 -22
t59 22z" />
    <glyph glyph-name="OE" unicode="&#x152;" horiz-adv-x="893" 
d="M202 42q-90 42 -138.5 120.5t-48.5 186.5t48.5 187t138.5 121t211 42h465v-199h-251v-61h169v-179h-169v-61h251v-199h-465q-121 0 -211 42zM390 475q-70 0 -102 -30t-32 -96t32 -96t102 -30v252z" />
    <glyph glyph-name="oe" unicode="&#x153;" horiz-adv-x="1095" 
d="M1080 179h-356q29 -52 131 -52q47 0 98.5 7.5t87.5 21.5v-135q-40 -16 -98.5 -26t-119.5 -10q-85 0 -149.5 22t-104.5 65q-41 -41 -103 -64t-140 -23q-94 0 -164.5 33t-108.5 91t-38 131t38 131t108.5 91t164.5 33q77 0 138.5 -22.5t103.5 -63.5q75 86 231 86
q89 0 152.5 -33t96 -90t32.5 -128v-65zM868 302q-12 50 -73 50q-59 0 -71 -50h144zM385 181q22 22 22 59t-22 59t-59 22t-59 -22t-22 -59t22 -59t59 -22t59 22z" />
    <glyph glyph-name="Racute" unicode="&#x154;" horiz-adv-x="668" 
d="M244 923h217l-95 -181h-190zM35 699h336q130 0 206 -65t76 -189q0 -78 -31 -132.5t-88 -85.5l110 -227h-239l-92 191h-45v-191h-233v699zM321 368q91 0 91 77t-91 77h-53v-154h53z" />
    <glyph glyph-name="racute" unicode="&#x155;" horiz-adv-x="426" 
d="M119 698h217l-95 -181h-190zM35 480h217v-43q28 26 76 42t103 16v-174q-59 0 -106.5 -15.5t-64.5 -43.5v-262h-225v480z" />
    <glyph glyph-name="Rcommaaccent" unicode="&#x156;" horiz-adv-x="668" 
d="M35 699h336q130 0 206 -65t76 -189q0 -78 -31 -132.5t-88 -85.5l110 -227h-239l-92 191h-45v-191h-233v699zM321 368q91 0 91 77t-91 77h-53v-154h53zM232 -41h212l-111 -218h-185z" />
    <glyph glyph-name="rcommaaccent" unicode="&#x157;" horiz-adv-x="426" 
d="M35 480h217v-43q28 26 76 42t103 16v-174q-59 0 -106.5 -15.5t-64.5 -43.5v-262h-225v480zM43 -41h212l-111 -218h-185z" />
    <glyph glyph-name="Rcaron" unicode="&#x158;" horiz-adv-x="668" 
d="M77 933h207l59 -80l59 80h207l-165 -191h-202zM35 699h336q130 0 206 -65t76 -189q0 -78 -31 -132.5t-88 -85.5l110 -227h-239l-92 191h-45v-191h-233v699zM321 368q91 0 91 77t-91 77h-53v-154h53z" />
    <glyph glyph-name="rcaron" unicode="&#x159;" horiz-adv-x="426" 
d="M-97 708h207l59 -80l59 80h207l-165 -191h-202zM35 480h217v-43q28 26 76 42t103 16v-174q-59 0 -106.5 -15.5t-64.5 -43.5v-262h-225v480z" />
    <glyph glyph-name="Sacute" unicode="&#x15a;" horiz-adv-x="580" 
d="M253 923h217l-95 -181h-190zM129 -1q-70 14 -114 38v206q56 -32 118.5 -48t115.5 -16q30 0 43 6t13 19q0 18 -20 30.5t-85 41.5q-96 42 -139.5 93.5t-43.5 125.5q0 64 35.5 113.5t100 77.5t147.5 28q68 0 121 -11t101 -34v-199q-90 50 -178 50q-71 0 -71 -31
q0 -15 16.5 -25t59.5 -27l37 -15q71 -30 109 -59.5t54 -67t16 -94.5q0 -101 -74 -158.5t-223 -57.5q-69 0 -139 14z" />
    <glyph glyph-name="sacute" unicode="&#x15b;" horiz-adv-x="528" 
d="M209 698h217l-95 -181h-190zM130.5 -4q-67.5 11 -107.5 32v152q42 -24 103 -41t109 -17q23 0 33 2t10 9q0 5 -9 8t-24 6q-36 7 -64 15q-91 28 -128.5 64.5t-37.5 103.5q0 84 66 124.5t182 40.5q54 0 119.5 -12t96.5 -31v-152q-30 21 -85 36.5t-98 15.5q-20 0 -33 -3
t-13 -8t11 -9t35 -8q47 -9 53 -11q66 -17 101.5 -39.5t49 -52.5t13.5 -76q0 -73 -65 -116.5t-187 -43.5q-63 0 -130.5 11z" />
    <glyph glyph-name="Scircumflex" unicode="&#x15c;" horiz-adv-x="580" 
d="M184 933h202l165 -191h-207l-59 80l-59 -80h-207zM129 -1q-70 14 -114 38v206q56 -32 118.5 -48t115.5 -16q30 0 43 6t13 19q0 18 -20 30.5t-85 41.5q-96 42 -139.5 93.5t-43.5 125.5q0 64 35.5 113.5t100 77.5t147.5 28q68 0 121 -11t101 -34v-199q-90 50 -178 50
q-71 0 -71 -31q0 -15 16.5 -25t59.5 -27l37 -15q71 -30 109 -59.5t54 -67t16 -94.5q0 -101 -74 -158.5t-223 -57.5q-69 0 -139 14z" />
    <glyph glyph-name="scircumflex" unicode="&#x15d;" horiz-adv-x="528" 
d="M150 708h202l165 -191h-207l-59 80l-59 -80h-207zM130.5 -4q-67.5 11 -107.5 32v152q42 -24 103 -41t109 -17q23 0 33 2t10 9q0 5 -9 8t-24 6q-36 7 -64 15q-91 28 -128.5 64.5t-37.5 103.5q0 84 66 124.5t182 40.5q54 0 119.5 -12t96.5 -31v-152q-30 21 -85 36.5
t-98 15.5q-20 0 -33 -3t-13 -8t11 -9t35 -8q47 -9 53 -11q66 -17 101.5 -39.5t49 -52.5t13.5 -76q0 -73 -65 -116.5t-187 -43.5q-63 0 -130.5 11z" />
    <glyph glyph-name="Scedilla" unicode="&#x15e;" horiz-adv-x="580" 
d="M512 60.5q-53 -54.5 -160 -69.5l-16 -40q44 -6 69 -29t25 -59q0 -48 -40.5 -79.5t-126.5 -31.5q-75 0 -118 16l2 83q28 -16 61 -16q27 0 39.5 11t12.5 28q0 24 -19.5 37t-66.5 13l20 65q-53 6 -100 18.5t-79 29.5v206q56 -32 118.5 -48t115.5 -16q30 0 43 6t13 19
q0 18 -20 30.5t-85 41.5q-96 42 -139.5 93.5t-43.5 125.5q0 64 35.5 113.5t100 77.5t147.5 28q68 0 121 -11t101 -34v-199q-90 50 -178 50q-71 0 -71 -31q0 -15 16.5 -25t59.5 -27l37 -15q71 -30 109 -59.5t54 -67t16 -94.5q0 -86 -53 -140.5z" />
    <glyph glyph-name="scedilla" unicode="&#x15f;" horiz-adv-x="528" 
d="M468.5 44.5q-44.5 -40.5 -129.5 -53.5l-16 -40q44 -6 69 -29t25 -59q0 -48 -40.5 -79.5t-126.5 -31.5q-75 0 -118 16l2 83q28 -16 61 -16q27 0 39.5 11t12.5 28q0 24 -19.5 37t-66.5 13l20 65q-104 11 -158 39v152q42 -24 103 -41t109 -17q23 0 33 2t10 9q0 5 -9 8t-24 6
q-36 7 -64 15q-91 28 -128.5 64.5t-37.5 103.5q0 84 66 124.5t182 40.5q54 0 119.5 -12t96.5 -31v-152q-30 21 -85 36.5t-98 15.5q-20 0 -33 -3t-13 -8t11 -9t35 -8q47 -9 53 -11q66 -17 101.5 -39.5t49 -52.5t13.5 -76q0 -60 -44.5 -100.5z" />
    <glyph glyph-name="Scaron" unicode="&#x160;" horiz-adv-x="580" 
d="M13 933h207l59 -80l59 80h207l-165 -191h-202zM129 -1q-70 14 -114 38v206q56 -32 118.5 -48t115.5 -16q30 0 43 6t13 19q0 18 -20 30.5t-85 41.5q-96 42 -139.5 93.5t-43.5 125.5q0 64 35.5 113.5t100 77.5t147.5 28q68 0 121 -11t101 -34v-199q-90 50 -178 50
q-71 0 -71 -31q0 -15 16.5 -25t59.5 -27l37 -15q71 -30 109 -59.5t54 -67t16 -94.5q0 -101 -74 -158.5t-223 -57.5q-69 0 -139 14z" />
    <glyph glyph-name="scaron" unicode="&#x161;" horiz-adv-x="528" 
d="M-5 708h207l59 -80l59 80h207l-165 -191h-202zM130.5 -4q-67.5 11 -107.5 32v152q42 -24 103 -41t109 -17q23 0 33 2t10 9q0 5 -9 8t-24 6q-36 7 -64 15q-91 28 -128.5 64.5t-37.5 103.5q0 84 66 124.5t182 40.5q54 0 119.5 -12t96.5 -31v-152q-30 21 -85 36.5t-98 15.5
q-20 0 -33 -3t-13 -8t11 -9t35 -8q47 -9 53 -11q66 -17 101.5 -39.5t49 -52.5t13.5 -76q0 -73 -65 -116.5t-187 -43.5q-63 0 -130.5 11z" />
    <glyph glyph-name="uni0162" unicode="&#x162;" horiz-adv-x="595" 
d="M381 0l-20 -49q44 -6 69 -29t25 -59q0 -48 -40.5 -79.5t-126.5 -31.5q-75 0 -118 16l2 83q28 -16 61 -16q27 0 39.5 11t12.5 28q0 24 -19.5 37t-66.5 13l23 76h-43v500h-179v199h595v-199h-179v-500h-35z" />
    <glyph glyph-name="uni0163" unicode="&#x163;" horiz-adv-x="417" 
d="M328 -11l-16 -38q44 -6 69 -29t25 -59q0 -48 -40.5 -79.5t-126.5 -31.5q-75 0 -118 16l2 83q28 -16 61 -16q27 0 39.5 11t12.5 28q0 24 -19.5 37t-66.5 13l23 75q-56 20 -84.5 69.5t-28.5 118.5v145h-65v148h65v144h225v-144h104v-148h-104v-112q0 -33 12 -47t41 -14
q37 0 71 21v-166q-41 -19 -81 -25z" />
    <glyph glyph-name="Tcaron" unicode="&#x164;" horiz-adv-x="595" 
d="M31 933h207l59 -80l59 80h207l-165 -191h-202zM179 500h-179v199h595v-199h-179v-500h-237v500z" />
    <glyph glyph-name="tcaron" unicode="&#x165;" horiz-adv-x="610" 
d="M441 803h212l-111 -218h-185zM110 40q-50 55 -50 147v145h-65v148h65v144h225v-144h104v-148h-104v-112q0 -33 12 -47t41 -14q37 0 71 21v-166q-31 -15 -65 -22t-86 -7q-98 0 -148 55z" />
    <glyph glyph-name="Tbar" unicode="&#x166;" horiz-adv-x="595" 
d="M416 500v-83h97v-189h-97v-228h-237v228h-93v189h93v83h-179v199h595v-199h-179z" />
    <glyph glyph-name="tbar" unicode="&#x167;" horiz-adv-x="404" 
d="M409 180v-166q-31 -15 -65 -22t-86 -7q-98 0 -148 55t-50 147v6h-65v118h65v21h-65v148h65v144h225v-144h104v-148h-104v-21h104v-118h-101q4 -18 15.5 -26t34.5 -8q37 0 71 21z" />
    <glyph glyph-name="Utilde" unicode="&#x168;" horiz-adv-x="734" 
d="M419 748.5q-25 6.5 -59 19.5q-32 12 -53 18t-42 6q-65 0 -110 -49v153q36 40 110 40q23 0 46 -6.5t58 -18.5q32 -12 55 -18.5t45 -6.5q65 0 110 49v-153q-36 -40 -110 -40q-25 0 -50 6.5zM178 28q-76 43 -112 117t-36 170v384h237v-377q0 -59 24 -89t76 -30t75.5 30
t23.5 89v377h238v-384q0 -96 -36 -170t-112 -117t-189 -43t-189 43z" />
    <glyph glyph-name="utilde" unicode="&#x169;" horiz-adv-x="638" 
d="M376 523.5q-25 6.5 -59 19.5q-32 12 -53 18t-42 6q-65 0 -110 -49v153q36 40 110 40q23 0 46 -6.5t58 -18.5q32 -12 55 -18.5t45 -6.5q65 0 110 49v-153q-36 -40 -110 -40q-25 0 -50 6.5zM80.5 42q-50.5 57 -50.5 151v287h225v-259q0 -62 53 -62q48 0 70 45v276h225v-480
h-217v40q-30 -26 -70 -40.5t-84 -14.5q-101 0 -151.5 57z" />
    <glyph glyph-name="Umacron" unicode="&#x16a;" horiz-adv-x="734" 
d="M184 885h367v-143h-367v143zM178 28q-76 43 -112 117t-36 170v384h237v-377q0 -59 24 -89t76 -30t75.5 30t23.5 89v377h238v-384q0 -96 -36 -170t-112 -117t-189 -43t-189 43z" />
    <glyph glyph-name="umacron" unicode="&#x16b;" horiz-adv-x="638" 
d="M137 660h367v-143h-367v143zM80.5 42q-50.5 57 -50.5 151v287h225v-259q0 -62 53 -62q48 0 70 45v276h225v-480h-217v40q-30 -26 -70 -40.5t-84 -14.5q-101 0 -151.5 57z" />
    <glyph glyph-name="Ubreve" unicode="&#x16c;" horiz-adv-x="734" 
d="M215 793.5q-53 51.5 -53 143.5h167q0 -58 38 -58t38 58h167q0 -92 -53 -143.5t-152 -51.5t-152 51.5zM178 28q-76 43 -112 117t-36 170v384h237v-377q0 -59 24 -89t76 -30t75.5 30t23.5 89v377h238v-384q0 -96 -36 -170t-112 -117t-189 -43t-189 43z" />
    <glyph glyph-name="ubreve" unicode="&#x16d;" horiz-adv-x="638" 
d="M164 568.5q-53 51.5 -53 143.5h167q0 -58 38 -58t38 58h167q0 -92 -53 -143.5t-152 -51.5t-152 51.5zM80.5 42q-50.5 57 -50.5 151v287h225v-259q0 -62 53 -62q48 0 70 45v276h225v-480h-217v40q-30 -26 -70 -40.5t-84 -14.5q-101 0 -151.5 57z" />
    <glyph glyph-name="Uring" unicode="&#x16e;" horiz-adv-x="734" 
d="M288 762.5q-36 20.5 -57.5 55.5t-21.5 78t21.5 78t57.5 55.5t79 20.5t79 -20.5t57.5 -55.5t21.5 -78t-21.5 -78t-57.5 -55.5t-79 -20.5t-79 20.5zM396 867q12 12 12 29t-12 29t-29 12t-29 -12t-12 -29t12 -29t29 -12t29 12zM178 28q-76 43 -112 117t-36 170v384h237v-377
q0 -59 24 -89t76 -30t75.5 30t23.5 89v377h238v-384q0 -96 -36 -170t-112 -117t-189 -43t-189 43z" />
    <glyph glyph-name="uring" unicode="&#x16f;" horiz-adv-x="638" 
d="M239 537.5q-36 20.5 -57.5 55.5t-21.5 78t21.5 78t57.5 55.5t79 20.5t79 -20.5t57.5 -55.5t21.5 -78t-21.5 -78t-57.5 -55.5t-79 -20.5t-79 20.5zM347 642q12 12 12 29t-12 29t-29 12t-29 -12t-12 -29t12 -29t29 -12t29 12zM80.5 42q-50.5 57 -50.5 151v287h225v-259
q0 -62 53 -62q48 0 70 45v276h225v-480h-217v40q-30 -26 -70 -40.5t-84 -14.5q-101 0 -151.5 57z" />
    <glyph glyph-name="Uhungarumlaut" unicode="&#x170;" horiz-adv-x="734" 
d="M195 923h217l-95 -181h-190zM475 923h217l-95 -181h-190zM178 28q-76 43 -112 117t-36 170v384h237v-377q0 -59 24 -89t76 -30t75.5 30t23.5 89v377h238v-384q0 -96 -36 -170t-112 -117t-189 -43t-189 43z" />
    <glyph glyph-name="uhungarumlaut" unicode="&#x171;" horiz-adv-x="636" 
d="M134 698h217l-95 -181h-190zM414 698h217l-95 -181h-190zM80.5 42q-50.5 57 -50.5 151v287h225v-259q0 -62 53 -62q48 0 70 45v276h225v-480h-217v40q-30 -26 -70 -40.5t-84 -14.5q-101 0 -151.5 57z" />
    <glyph glyph-name="Uogonek" unicode="&#x172;" horiz-adv-x="734" 
d="M704 699v-384q0 -121 -57.5 -206t-172.5 -112q-39 -19 -55.5 -34.5t-16.5 -34.5q0 -11 6.5 -17t19.5 -6q23 0 49 13v-120q-23 -8 -58.5 -12.5t-69.5 -4.5q-65 0 -103.5 25.5t-38.5 77.5q0 36 16 64.5t45 46.5q-119 26 -178.5 111.5t-59.5 208.5v384h237v-377
q0 -59 24 -89t76 -30t75.5 30t23.5 89v377h238z" />
    <glyph glyph-name="uogonek" unicode="&#x173;" horiz-adv-x="638" 
d="M603 480v-480h-12q-43 -20 -61 -36t-18 -36q0 -11 6.5 -17t19.5 -6q23 0 49 13v-120q-23 -8 -58.5 -12.5t-69.5 -4.5q-65 0 -103.5 25.5t-38.5 77.5q0 39 18 68t51 48v40q-30 -26 -70 -40.5t-84 -14.5q-101 0 -151.5 57t-50.5 151v287h225v-259q0 -62 53 -62q48 0 70 45
v276h225z" />
    <glyph glyph-name="Wcircumflex" unicode="&#x174;" horiz-adv-x="988" 
d="M393 933h202l165 -191h-207l-59 80l-59 -80h-207zM15 699h246l76 -316l78 316h168l68 -317l76 317h246l-179 -699h-215l-85 318l-85 -318h-215z" />
    <glyph glyph-name="wcircumflex" unicode="&#x175;" horiz-adv-x="883" 
d="M340 708h202l165 -191h-207l-59 80l-59 -80h-207zM15 480h225l57 -225l57 225h175l57 -225l57 225h225l-164 -480h-201l-62 215l-61 -215h-201z" />
    <glyph glyph-name="Ycircumflex" unicode="&#x176;" horiz-adv-x="783" 
d="M286 933h202l165 -191h-207l-59 80l-59 -80h-207zM268 267l-253 432h253l119 -221l129 221h252l-263 -432v-267h-237v267z" />
    <glyph glyph-name="ycircumflex" unicode="&#x177;" horiz-adv-x="659" 
d="M230 708h202l165 -191h-207l-59 80l-59 -80h-207zM126.5 -192q-41.5 6 -60.5 15v166q31 -13 71 -13q29 0 45.5 12t25.5 36l5 14l-208 442h225l102 -274l97 274h225l-186 -480q-39 -101 -101.5 -149.5t-161.5 -48.5q-37 0 -78.5 6z" />
    <glyph glyph-name="Ydieresis" unicode="&#x178;" horiz-adv-x="783" 
d="M209 767.5q-26 25.5 -26 61.5t26 62t62 26t61.5 -25.5t25.5 -62.5t-25.5 -62t-61.5 -25t-62 25.5zM444 767.5q-26 25.5 -26 61.5q0 37 26 62.5t62 25.5q35 0 60.5 -25.5t25.5 -62.5q0 -36 -25 -61.5t-61 -25.5t-62 25.5zM268 267l-253 432h253l119 -221l129 221h252
l-263 -432v-267h-237v267z" />
    <glyph glyph-name="Zacute" unicode="&#x179;" horiz-adv-x="612" 
d="M250 923h217l-95 -181h-190zM15 152l267 348h-261v199h551v-153l-266 -347h291v-199h-582v152z" />
    <glyph glyph-name="zacute" unicode="&#x17a;" horiz-adv-x="545" 
d="M239 698h217l-95 -181h-190zM15 113l201 219h-196v148h502v-112l-199 -220h207v-148h-515v113z" />
    <glyph glyph-name="Zdotaccent" unicode="&#x17b;" horiz-adv-x="612" 
d="M236 767.5q-26 25.5 -26 61.5t26 62t62 26t61.5 -25.5t25.5 -62.5t-25.5 -62t-61.5 -25t-62 25.5zM15 152l267 348h-261v199h551v-153l-266 -347h291v-199h-582v152z" />
    <glyph glyph-name="zdotaccent" unicode="&#x17c;" horiz-adv-x="545" 
d="M221 542.5q-26 25.5 -26 61.5t26 62t62 26t61.5 -25.5t25.5 -62.5t-25.5 -62t-61.5 -25t-62 25.5zM15 113l201 219h-196v148h502v-112l-199 -220h207v-148h-515v113z" />
    <glyph glyph-name="Zcaron" unicode="&#x17d;" horiz-adv-x="612" 
d="M32 933h207l59 -80l59 80h207l-165 -191h-202zM15 152l267 348h-261v199h551v-153l-266 -347h291v-199h-582v152z" />
    <glyph glyph-name="zcaron" unicode="&#x17e;" horiz-adv-x="545" 
d="M15 708h207l59 -80l59 80h207l-165 -191h-202zM15 113l201 219h-196v148h502v-112l-199 -220h207v-148h-515v113z" />
    <glyph glyph-name="uni018F" unicode="&#x18f;" horiz-adv-x="825" 
d="M191 32q-88 47 -132 128t-44 183v89h504q-16 41 -57.5 62.5t-135.5 21.5q-66 0 -134.5 -10.5t-120.5 -30.5v188q58 23 136 37t166 14q142 0 240 -44t147.5 -125t49.5 -192q0 -102 -48.5 -185.5t-140 -133t-214.5 -49.5q-128 0 -216 47zM483 205q29 25 36 64h-233
q7 -40 35 -64.5t81 -24.5q52 0 81 25z" />
    <glyph glyph-name="florin" unicode="&#x192;" horiz-adv-x="571" 
d="M-120 -209l38 179q29 -17 64 -17q34 0 55 16t28 48l66 315h-62l32 148h61l8 37q25 120 95.5 173.5t200.5 53.5q71 0 110 -21l-38 -179q-29 17 -64 17q-34 0 -55 -16t-28 -48l-4 -17h108l-32 -148h-107l-70 -335q-25 -120 -95.5 -173.5t-200.5 -53.5q-71 0 -110 21z" />
    <glyph glyph-name="Ohorn" unicode="&#x1a0;" horiz-adv-x="919" 
d="M201.5 31q-86.5 46 -136.5 128.5t-50 189.5t50 190t136.5 129t193.5 46q71 0 133.5 -21t112.5 -60q57 0 80.5 21t23.5 61v32h179v-47q0 -84 -45.5 -140.5t-130.5 -69.5q26 -70 26 -141q0 -107 -50 -189.5t-136.5 -128.5t-192.5 -46q-107 0 -193.5 46zM494 246
q39 38 39 103t-39 103t-99 38q-61 0 -100 -38t-39 -103t39.5 -103t99.5 -38t99 38z" />
    <glyph glyph-name="ohorn" unicode="&#x1a1;" horiz-adv-x="748" 
d="M161.5 18q-70.5 33 -108.5 91t-38 131t38 131t108.5 91t164.5 33q114 0 195 -49q53 18 53 80v32h179v-47q0 -71 -32.5 -122.5t-94.5 -75.5q11 -36 11 -73q0 -73 -38 -131t-108.5 -91t-164.5 -33t-164.5 33zM385 181q22 22 22 59t-22 59t-59 22t-59 -22t-22 -59t22 -59
t59 -22t59 22z" />
    <glyph glyph-name="Uhorn" unicode="&#x1af;" horiz-adv-x="952" 
d="M178 28q-76 43 -112 117t-36 170v384h237v-377q0 -59 24 -89t76 -30t75.5 30t23.5 89v377h238v-60q43 0 58.5 18.5t15.5 57.5v32h179v-47q0 -98 -61.5 -156t-191.5 -58v-171q0 -96 -36 -170t-112 -117t-189 -43t-189 43z" />
    <glyph glyph-name="uhorn" unicode="&#x1b0;" horiz-adv-x="816" 
d="M80.5 42q-50.5 57 -50.5 151v287h225v-259q0 -62 53 -62q48 0 70 45v276h225v-40q28 4 38.5 21.5t10.5 55.5v41h179v-47q0 -93 -55.5 -150.5t-172.5 -63.5v-297h-217v40q-30 -26 -70 -40.5t-84 -14.5q-101 0 -151.5 57z" />
    <glyph glyph-name="uni01CD" unicode="&#x1cd;" horiz-adv-x="814" 
d="M141 933h207l59 -80l59 80h207l-165 -191h-202zM295 699h224l280 -699h-243l-45 122h-208l-45 -122h-243zM459 296l-52 161l-52 -161h104z" />
    <glyph glyph-name="uni01CE" unicode="&#x1ce;" horiz-adv-x="619" 
d="M71 708h207l59 -80l59 80h207l-165 -191h-202zM71 26.5q-56 41.5 -56 121.5q0 81 54.5 123t161.5 42q32 0 70 -7.5t63 -17.5v8q0 26 -33 41t-87 15q-87 0 -159 -36v143q33 16 87 26t119 10q144 0 221 -53t77 -150v-292h-212v35q-23 -21 -65.5 -35.5t-90.5 -14.5
q-94 0 -150 41.5zM333.5 117q19.5 8 30.5 20v32q-33 19 -71 19q-21 0 -33 -11t-12 -29q0 -17 11.5 -28t33.5 -11q21 0 40.5 8z" />
    <glyph glyph-name="uni01CF" unicode="&#x1cf;" horiz-adv-x="307" 
d="M-113 933h207l59 -80l59 80h207l-165 -191h-202zM35 699h237v-699h-237v699z" />
    <glyph glyph-name="uni01D0" unicode="&#x1d0;" horiz-adv-x="295" 
d="M-119 708h207l59 -80l59 80h207l-165 -191h-202zM35 480h225v-480h-225v480z" />
    <glyph glyph-name="uni01D1" unicode="&#x1d1;" horiz-adv-x="789" 
d="M128 933h207l59 -80l59 80h207l-165 -191h-202zM201.5 31q-86.5 46 -136.5 128.5t-50 189.5t50 190t136.5 129t193.5 46q106 0 192.5 -46t136.5 -129t50 -190t-50 -189.5t-136.5 -128.5t-192.5 -46q-107 0 -193.5 46zM494 246q39 38 39 103t-39 103t-99 38
q-61 0 -100 -38t-39 -103t39.5 -103t99.5 -38t99 38z" />
    <glyph glyph-name="uni01D2" unicode="&#x1d2;" horiz-adv-x="652" 
d="M60 708h207l59 -80l59 80h207l-165 -191h-202zM161.5 18q-70.5 33 -108.5 91t-38 131t38 131t108.5 91t164.5 33t164.5 -33t108.5 -91t38 -131t-38 -131t-108.5 -91t-164.5 -33t-164.5 33zM385 181q22 22 22 59t-22 59t-59 22t-59 -22t-22 -59t22 -59t59 -22t59 22z" />
    <glyph glyph-name="uni01D3" unicode="&#x1d3;" horiz-adv-x="734" 
d="M101 933h207l59 -80l59 80h207l-165 -191h-202zM178 28q-76 43 -112 117t-36 170v384h237v-377q0 -59 24 -89t76 -30t75.5 30t23.5 89v377h238v-384q0 -96 -36 -170t-112 -117t-189 -43t-189 43z" />
    <glyph glyph-name="uni01D4" unicode="&#x1d4;" horiz-adv-x="638" 
d="M54 708h207l59 -80l59 80h207l-165 -191h-202zM80.5 42q-50.5 57 -50.5 151v287h225v-259q0 -62 53 -62q48 0 70 45v276h225v-480h-217v40q-30 -26 -70 -40.5t-84 -14.5q-101 0 -151.5 57z" />
    <glyph glyph-name="uni01D5" unicode="&#x1d5;" horiz-adv-x="734" 
d="M184 1093h367v-143h-367v143zM189 767.5q-26 25.5 -26 61.5t26 62t62 26t61.5 -25.5t25.5 -62.5t-25.5 -62t-61.5 -25t-62 25.5zM424 767.5q-26 25.5 -26 61.5q0 37 26 62.5t62 25.5q35 0 60.5 -25.5t25.5 -62.5q0 -36 -25 -61.5t-61 -25.5t-62 25.5zM178 28
q-76 43 -112 117t-36 170v384h237v-377q0 -59 24 -89t76 -30t75.5 30t23.5 89v377h238v-384q0 -96 -36 -170t-112 -117t-189 -43t-189 43z" />
    <glyph glyph-name="uni01D6" unicode="&#x1d6;" horiz-adv-x="638" 
d="M141 884h367v-143h-367v143zM146 542.5q-26 25.5 -26 61.5t26 62t62 26t61.5 -25.5t25.5 -62.5t-25.5 -62t-61.5 -25t-62 25.5zM381 542.5q-26 25.5 -26 61.5q0 37 26 62.5t62 25.5q35 0 60.5 -25.5t25.5 -62.5q0 -36 -25 -61.5t-61 -25.5t-62 25.5zM80.5 42
q-50.5 57 -50.5 151v287h225v-259q0 -62 53 -62q48 0 70 45v276h225v-480h-217v40q-30 -26 -70 -40.5t-84 -14.5q-101 0 -151.5 57z" />
    <glyph glyph-name="uni01D7" unicode="&#x1d7;" horiz-adv-x="734" 
d="M338 1093h207l-84 -149h-180zM189 767.5q-26 25.5 -26 61.5t26 62t62 26t61.5 -25.5t25.5 -62.5t-25.5 -62t-61.5 -25t-62 25.5zM424 767.5q-26 25.5 -26 61.5q0 37 26 62.5t62 25.5q35 0 60.5 -25.5t25.5 -62.5q0 -36 -25 -61.5t-61 -25.5t-62 25.5zM178 28
q-76 43 -112 117t-36 170v384h237v-377q0 -59 24 -89t76 -30t75.5 30t23.5 89v377h238v-384q0 -96 -36 -170t-112 -117t-189 -43t-189 43z" />
    <glyph glyph-name="uni01D8" unicode="&#x1d8;" horiz-adv-x="638" 
d="M284 868h207l-84 -149h-180zM135 542.5q-26 25.5 -26 61.5t26 62t62 26t61.5 -25.5t25.5 -62.5t-25.5 -62t-61.5 -25t-62 25.5zM370 542.5q-26 25.5 -26 61.5q0 37 26 62.5t62 25.5q35 0 60.5 -25.5t25.5 -62.5q0 -36 -25 -61.5t-61 -25.5t-62 25.5zM80.5 42
q-50.5 57 -50.5 151v287h225v-259q0 -62 53 -62q48 0 70 45v276h225v-480h-217v40q-30 -26 -70 -40.5t-84 -14.5q-101 0 -151.5 57z" />
    <glyph glyph-name="uni01D9" unicode="&#x1d9;" horiz-adv-x="734" 
d="M131 1096h192l44 -50l44 50h192l-165 -161h-142zM186.5 767.5q-25.5 25.5 -25.5 61.5q0 37 25.5 62.5t60.5 25.5q36 0 62 -25.5t26 -62.5q0 -36 -26 -61.5t-62 -25.5q-35 0 -60.5 25.5zM420.5 767q-25.5 25 -25.5 62t25.5 62.5t61.5 25.5t62 -26t26 -62t-26 -61.5
t-62 -25.5t-61.5 25zM178 28q-76 43 -112 117t-36 170v384h237v-377q0 -59 24 -89t76 -30t75.5 30t23.5 89v377h238v-384q0 -96 -36 -170t-112 -117t-189 -43t-189 43z" />
    <glyph glyph-name="uni01DA" unicode="&#x1da;" horiz-adv-x="638" 
d="M82 871h192l44 -50l44 50h192l-165 -161h-142zM137.5 542.5q-25.5 25.5 -25.5 61.5q0 37 25.5 62.5t60.5 25.5q36 0 62 -25.5t26 -62.5q0 -36 -26 -61.5t-62 -25.5q-35 0 -60.5 25.5zM371.5 542q-25.5 25 -25.5 62t25.5 62.5t61.5 25.5t62 -26t26 -62t-26 -61.5
t-62 -25.5t-61.5 25zM80.5 42q-50.5 57 -50.5 151v287h225v-259q0 -62 53 -62q48 0 70 45v276h225v-480h-217v40q-30 -26 -70 -40.5t-84 -14.5q-101 0 -151.5 57z" />
    <glyph glyph-name="uni01DB" unicode="&#x1db;" horiz-adv-x="734" 
d="M192 1093h207l57 -149h-180zM190.5 767.5q-25.5 25.5 -25.5 61.5q0 37 25.5 62.5t60.5 25.5q36 0 62 -25.5t26 -62.5q0 -36 -26 -61.5t-62 -25.5q-35 0 -60.5 25.5zM424.5 767q-25.5 25 -25.5 62t25.5 62.5t61.5 25.5t62 -26t26 -62t-26 -61.5t-62 -25.5t-61.5 25z
M178 28q-76 43 -112 117t-36 170v384h237v-377q0 -59 24 -89t76 -30t75.5 30t23.5 89v377h238v-384q0 -96 -36 -170t-112 -117t-189 -43t-189 43z" />
    <glyph glyph-name="uni01DC" unicode="&#x1dc;" horiz-adv-x="638" 
d="M138 868h207l57 -149h-180zM136.5 542.5q-25.5 25.5 -25.5 61.5q0 37 25.5 62.5t60.5 25.5q36 0 62 -25.5t26 -62.5q0 -36 -26 -61.5t-62 -25.5q-35 0 -60.5 25.5zM370.5 542q-25.5 25 -25.5 62t25.5 62.5t61.5 25.5t62 -26t26 -62t-26 -61.5t-62 -25.5t-61.5 25z
M80.5 42q-50.5 57 -50.5 151v287h225v-259q0 -62 53 -62q48 0 70 45v276h225v-480h-217v40q-30 -26 -70 -40.5t-84 -14.5q-101 0 -151.5 57z" />
    <glyph glyph-name="Gcaron" unicode="&#x1e6;" horiz-adv-x="687" 
d="M115 933h207l59 -80l59 80h207l-165 -191h-202zM196.5 28.5q-87.5 43.5 -134.5 126t-47 194.5q0 113 47 195t134.5 126t205.5 44q78 0 136 -13t109 -42v-222q-43 32 -97.5 46t-126.5 14q-77 0 -122.5 -38.5t-45.5 -109.5q0 -77 37 -116.5t120 -39.5q30 0 52 8v66h-77v136
h285v-359q-103 -59 -270 -59q-118 0 -205.5 43.5z" />
    <glyph glyph-name="gcaron" unicode="&#x1e7;" horiz-adv-x="674" 
d="M76 717h207l59 -80l59 80h207l-165 -191h-202zM205.5 -221q-49.5 9 -86.5 25v143q80 -34 184 -34q111 0 111 90v27q-24 -20 -62.5 -32.5t-80.5 -12.5q-77 0 -135 32t-89.5 90t-31.5 133q0 76 31.5 134t89 89.5t135.5 31.5q43 0 83.5 -15t67.5 -40v40h217v-442
q0 -127 -82 -197.5t-254 -70.5q-48 0 -97.5 9zM381 171q22 12 33 33v72q-11 21 -33 33t-48 12q-40 0 -62.5 -20t-22.5 -60t22.5 -61t62.5 -21q26 0 48 12z" />
    <glyph glyph-name="Aringacute" unicode="&#x1fa;" horiz-adv-x="814" 
d="M484 946h-190l68 145h217zM799 0h-243l-45 122h-208l-45 -122h-243l270 674q-36 41 -36 98q0 43 21.5 78t57.5 55.5t79 20.5t79 -20.5t57.5 -55.5t21.5 -78q0 -57 -36 -98zM378 801q-12 -12 -12 -29t12 -29t29 -12t29 12t12 29t-12 29t-29 12t-29 -12zM459 296l-52 161
l-52 -161h104z" />
    <glyph glyph-name="aringacute" unicode="&#x1fb;" horiz-adv-x="619" 
d="M284 991h217l-95 -145h-190zM242 537.5q-36 20.5 -57.5 55.5t-21.5 78t21.5 78t57.5 55.5t79 20.5t79 -20.5t57.5 -55.5t21.5 -78t-21.5 -78t-57.5 -55.5t-79 -20.5t-79 20.5zM350 642q12 12 12 29t-12 29t-29 12t-29 -12t-12 -29t12 -29t29 -12t29 12zM71 26.5
q-56 41.5 -56 121.5q0 81 54.5 123t161.5 42q32 0 70 -7.5t63 -17.5v8q0 26 -33 41t-87 15q-87 0 -159 -36v143q33 16 87 26t119 10q144 0 221 -53t77 -150v-292h-212v35q-23 -21 -65.5 -35.5t-90.5 -14.5q-94 0 -150 41.5zM333.5 117q19.5 8 30.5 20v32q-33 19 -71 19
q-21 0 -33 -11t-12 -29q0 -17 11.5 -28t33.5 -11q21 0 40.5 8z" />
    <glyph glyph-name="AEacute" unicode="&#x1fc;" horiz-adv-x="920" 
d="M510 923h217l-95 -181h-190zM295 699h610v-199h-271v-61h189v-179h-189v-61h271v-199h-493v122h-112l-42 -122h-243zM412 300v200l-56 -200h56z" />
    <glyph glyph-name="aeacute" unicode="&#x1fd;" horiz-adv-x="950" 
d="M396 707h217l-95 -181h-190zM73 26.5q-58 41.5 -58 121.5q0 81 53 123t153 42q32 0 70 -7.5t63 -17.5v8q0 26 -33 41t-87 15q-87 0 -159 -36v143q33 16 87 26t119 10q60 0 106.5 -13t85.5 -38q36 23 83 37t98 14q89 0 152.5 -33t96 -90t32.5 -128v-65h-356
q29 -52 131 -52q47 0 98.5 7.5t87.5 21.5v-135q-41 -17 -95 -26.5t-115 -9.5q-66 0 -121.5 17.5t-91.5 49.5q-48 -32 -105.5 -49.5t-137.5 -17.5q-99 0 -157 41.5zM723 302q-12 50 -73 50q-59 0 -71 -50h144zM323.5 117q19.5 8 30.5 20v32q-33 19 -71 19q-21 0 -33 -11
t-12 -29q0 -17 11.5 -28t33.5 -11q21 0 40.5 8z" />
    <glyph glyph-name="Oslashacute" unicode="&#x1fe;" horiz-adv-x="789" 
d="M319 923h217l-95 -181h-190zM206 28q-88 45 -139.5 128.5t-51.5 192.5q0 107 50 190t136.5 129t193.5 46q41 0 84 -8l31 78h111l-45 -111q91 -44 144.5 -128.5t53.5 -195.5q0 -107 -50 -189.5t-136.5 -128.5t-192.5 -46q-44 0 -92 10l-32 -81h-110zM392 490
q-60 -2 -98 -39.5t-38 -101.5t38 -102zM395 208q60 0 99 38t39 103q0 66 -44 107l-100 -248h6z" />
    <glyph glyph-name="oslashacute" unicode="&#x1ff;" horiz-adv-x="652" 
d="M233 707h217l-95 -181h-190zM184 8q-80 30 -124.5 91.5t-44.5 140.5q0 73 38 131t108.5 91t164.5 33q27 0 52 -3l30 74h97l-38 -95q81 -29 125.5 -90.5t44.5 -140.5q0 -73 -38 -131t-108.5 -91t-164.5 -33q-28 0 -54 3l-30 -74h-96zM312 327q-34 -5 -54 -28t-20 -59
q0 -34 16 -56zM393.5 179.5q20.5 23.5 20.5 60.5q0 35 -18 56l-58 -144q35 4 55.5 27.5z" />
    <glyph glyph-name="Scommaaccent" unicode="&#x218;" horiz-adv-x="580" 
d="M129 -1q-70 14 -114 38v206q56 -32 118.5 -48t115.5 -16q30 0 43 6t13 19q0 18 -20 30.5t-85 41.5q-96 42 -139.5 93.5t-43.5 125.5q0 64 35.5 113.5t100 77.5t147.5 28q68 0 121 -11t101 -34v-199q-90 50 -178 50q-71 0 -71 -31q0 -15 16.5 -25t59.5 -27l37 -15
q71 -30 109 -59.5t54 -67t16 -94.5q0 -101 -74 -158.5t-223 -57.5q-69 0 -139 14zM183 -41h232l-111 -218h-205z" />
    <glyph glyph-name="scommaaccent" unicode="&#x219;" horiz-adv-x="528" 
d="M130.5 -4q-67.5 11 -107.5 32v152q42 -24 103 -41t109 -17q23 0 33 2t10 9q0 5 -9 8t-24 6q-36 7 -64 15q-91 28 -128.5 64.5t-37.5 103.5q0 84 66 124.5t182 40.5q54 0 119.5 -12t96.5 -31v-152q-30 21 -85 36.5t-98 15.5q-20 0 -33 -3t-13 -8t11 -9t35 -8q47 -9 53 -11
q66 -17 101.5 -39.5t49 -52.5t13.5 -76q0 -73 -65 -116.5t-187 -43.5q-63 0 -130.5 11zM166 -41h232l-111 -218h-205z" />
    <glyph glyph-name="uni021A" unicode="&#x21a;" horiz-adv-x="595" 
d="M179 500h-179v199h595v-199h-179v-500h-237v500zM192 -41h212l-111 -218h-185z" />
    <glyph glyph-name="uni021B" unicode="&#x21b;" horiz-adv-x="404" 
d="M110 40q-50 55 -50 147v145h-65v148h65v144h225v-144h104v-148h-104v-112q0 -33 12 -47t41 -14q37 0 71 21v-166q-31 -15 -65 -22t-86 -7q-98 0 -148 55zM150 -41h212l-111 -218h-185z" />
    <glyph glyph-name="uni0237" unicode="&#x237;" horiz-adv-x="300" 
d="M-100 -210v179q32 -17 75 -17q28 0 45 15t17 46v467h225v-495q0 -106 -70.5 -161t-182.5 -55q-65 0 -109 21z" />
    <glyph glyph-name="uni0251" unicode="&#x251;" horiz-adv-x="674" 
d="M135.5 16.5q-57.5 31.5 -89 89.5t-31.5 134q0 75 31.5 133t89.5 90t135 32q42 0 80.5 -12.5t62.5 -32.5v30h225v-480h-217v40q-27 -25 -67.5 -40t-83.5 -15q-78 0 -135.5 31.5zM381 171q22 12 33 33v72q-11 21 -33 33t-48 12q-40 0 -62.5 -21t-22.5 -61t22.5 -60
t62.5 -20q26 0 48 12z" />
    <glyph glyph-name="uni0259" unicode="&#x259;" horiz-adv-x="600" 
d="M143.5 18q-63.5 33 -96 90t-32.5 128v65h356q-29 52 -131 52q-47 0 -98.5 -7.5t-87.5 -21.5v135q40 16 98.5 26t119.5 10q148 0 230.5 -66t82.5 -187q0 -119 -74.5 -188t-214.5 -69q-89 0 -152.5 33zM371 178h-144q12 -50 73 -50q59 0 71 50z" />
    <glyph glyph-name="uni02BB" unicode="&#x2bb;" horiz-adv-x="305" 
d="M100 714h190l-62 -203h-213z" />
    <glyph glyph-name="uni02BC" unicode="&#x2bc;" horiz-adv-x="305" 
d="M77 714h213l-85 -203h-190z" />
    <glyph glyph-name="uni02BE" unicode="&#x2be;" 
d="M-98 631q58 0 58 38t-58 38v147q92 0 143.5 -47t51.5 -138t-51.5 -138t-143.5 -47v147z" />
    <glyph glyph-name="uni02BF" unicode="&#x2bf;" 
d="M-46.5 531q-51.5 47 -51.5 138t51.5 138t143.5 47v-147q-58 0 -58 -38t58 -38v-147q-92 0 -143.5 47z" />
    <glyph glyph-name="circumflex" unicode="&#x2c6;" horiz-adv-x="562" 
d="M180 757h202l165 -191h-222l-44 70l-44 -70h-222z" />
    <glyph glyph-name="caron" unicode="&#x2c7;" horiz-adv-x="562" 
d="M15 757h222l44 -70l44 70h222l-165 -191h-202z" />
    <glyph glyph-name="uni02C8" unicode="&#x2c8;" 
d="M-82 781h162v-217h-162v217z" />
    <glyph glyph-name="uni02C9" unicode="&#x2c9;" horiz-adv-x="589" 
d="M98 697h387v-143h-387v143z" />
    <glyph glyph-name="uni02CA" unicode="&#x2ca;" 
d="M-84 747h217l-95 -181h-190z" />
    <glyph glyph-name="uni02CB" unicode="&#x2cb;" 
d="M-58 747h190l-68 -181h-217z" />
    <glyph glyph-name="uni02CC" unicode="&#x2cc;" 
d="M-82 -51h162v-217h-162v217z" />
    <glyph glyph-name="breve" unicode="&#x2d8;" horiz-adv-x="440" 
d="M68 613.5q-53 51.5 -53 143.5h167q0 -58 38 -58t38 58h167q0 -92 -53 -143.5t-152 -51.5t-152 51.5z" />
    <glyph glyph-name="dotaccent" unicode="&#x2d9;" horiz-adv-x="205" 
d="M41 587.5q-26 25.5 -26 61.5t26 62t62 26t61.5 -25.5t25.5 -62.5t-25.5 -62t-61.5 -25t-62 25.5z" />
    <glyph glyph-name="ring" unicode="&#x2da;" horiz-adv-x="346" 
d="M94 512.5q-36 20.5 -57.5 55.5t-21.5 78t21.5 78t57.5 55.5t79 20.5t79 -20.5t57.5 -55.5t21.5 -78t-21.5 -78t-57.5 -55.5t-79 -20.5t-79 20.5zM202 617q12 12 12 29t-12 29t-29 12t-29 -12t-12 -29t12 -29t29 -12t29 12z" />
    <glyph glyph-name="ogonek" unicode="&#x2db;" horiz-adv-x="304" 
d="M53.5 -193.5q-38.5 25.5 -38.5 77.5q0 39 18 68t51 48h205q-43 -20 -61 -36t-18 -36q0 -11 6.5 -17t19.5 -6q23 0 49 13v-120q-23 -8 -58.5 -12.5t-69.5 -4.5q-65 0 -103.5 25.5z" />
    <glyph glyph-name="tilde" unicode="&#x2dc;" horiz-adv-x="454" 
d="M279 570.5q-25 6.5 -59 19.5q-32 12 -53 18t-42 6q-65 0 -110 -49v153q36 40 110 40q23 0 46 -6.5t58 -18.5q32 -12 55 -18.5t45 -6.5q65 0 110 49v-153q-36 -40 -110 -40q-25 0 -50 6.5z" />
    <glyph glyph-name="hungarumlaut" unicode="&#x2dd;" horiz-adv-x="595" 
d="M83 747h217l-95 -181h-190zM363 747h217l-95 -181h-190z" />
    <glyph glyph-name="gravecomb" unicode="&#x300;" 
d="M-534 747h217l68 -181h-190z" />
    <glyph glyph-name="acutecomb" unicode="&#x301;" 
d="M-376 747h217l-95 -181h-190z" />
    <glyph glyph-name="uni0302" unicode="&#x302;" 
d="M-101 757h202l165 -191h-207l-59 80l-59 -80h-207z" />
    <glyph glyph-name="tildecomb" unicode="&#x303;" 
d="M-256 570.5q-25 6.5 -59 19.5q-32 12 -53 18t-42 6q-65 0 -110 -49v153q36 40 110 40q23 0 46 -6.5t58 -18.5q32 -12 55 -18.5t45 -6.5q65 0 110 49v-153q-36 -40 -110 -40q-25 0 -50 6.5z" />
    <glyph glyph-name="uni0304" unicode="&#x304;" 
d="M-178 697h367v-143h-367v143z" />
    <glyph glyph-name="uni0306" unicode="&#x306;" 
d="M-152 613.5q-53 51.5 -53 143.5h167q0 -58 38 -58t38 58h167q0 -92 -53 -143.5t-152 -51.5t-152 51.5z" />
    <glyph glyph-name="uni0307" unicode="&#x307;" 
d="M-62 587.5q-26 25.5 -26 61.5t26 62t62 26t61.5 -25.5t25.5 -62.5t-25.5 -62t-61.5 -25t-62 25.5z" />
    <glyph glyph-name="uni0308" unicode="&#x308;" 
d="M-179 587.5q-26 25.5 -26 61.5t26 62t62 26t61.5 -25.5t25.5 -62.5t-25.5 -62t-61.5 -25t-62 25.5zM56 587.5q-26 25.5 -26 61.5q0 37 26 62.5t62 25.5q35 0 60.5 -25.5t25.5 -62.5q0 -36 -25 -61.5t-61 -25.5t-62 25.5z" />
    <glyph glyph-name="hookabovecomb" unicode="&#x309;" 
d="M-460 640q42 0 59 9t17 29q0 17 -14 24.5t-45 7.5q-28 0 -57 -9v85q26 8 67.5 13.5t73.5 5.5q87 0 132 -27.5t45 -76.5q0 -37 -24 -59.5t-67 -35.5v-40h-187v74z" />
    <glyph glyph-name="uni030A" unicode="&#x30a;" 
d="M-62 512.5q-36 20.5 -57.5 55.5t-21.5 78t21.5 78t57.5 55.5t79 20.5t79 -20.5t57.5 -55.5t21.5 -78t-21.5 -78t-57.5 -55.5t-79 -20.5t-79 20.5zM46 617q12 12 12 29t-12 29t-29 12t-29 -12t-12 -29t12 -29t29 -12t29 12z" />
    <glyph glyph-name="uni030B" unicode="&#x30b;" 
d="M-231 747h217l-95 -181h-190zM49 747h217l-95 -181h-190z" />
    <glyph glyph-name="uni030C" unicode="&#x30c;" 
d="M-266 757h207l59 -80l59 80h207l-165 -191h-202z" />
    <glyph glyph-name="uni031B" unicode="&#x31b;" 
d="M-115 639q42 0 58 19.5t16 56.5v32h179v-47q0 -98 -61.5 -156t-191.5 -58v153z" />
    <glyph glyph-name="dotbelowcomb" unicode="&#x323;" 
d="M-62 -194.5q-26 25.5 -26 61.5t26 62t62 26t61.5 -25.5t25.5 -62.5t-25.5 -62t-61.5 -25t-62 25.5z" />
    <glyph glyph-name="uni0324" unicode="&#x324;" 
d="M-179 -194.5q-26 25.5 -26 61.5t26 62t62 26t61.5 -25.5t25.5 -62.5t-25.5 -62t-61.5 -25t-62 25.5zM56 -194.5q-26 25.5 -26 61.5q0 37 26 62.5t62 25.5q35 0 60.5 -25.5t25.5 -62.5t-25 -62t-61 -25t-62 25.5z" />
    <glyph glyph-name="uni0326" unicode="&#x326;" 
d="M-237 -41h212l-111 -218h-185z" />
    <glyph glyph-name="uni0327" unicode="&#x327;" 
d="M-140 -232l2 83q28 -16 61 -16q27 0 39.5 11t12.5 28q0 24 -19.5 37t-66.5 13l23 76h159l-20 -49q44 -6 69 -29t25 -59q0 -48 -40.5 -79.5t-126.5 -31.5q-75 0 -118 16z" />
    <glyph glyph-name="uni0328" unicode="&#x328;" 
d="M-93.5 -193.5q-38.5 25.5 -38.5 77.5q0 39 18 68t51 48h205q-43 -20 -61 -36t-18 -36q0 -11 6.5 -17t19.5 -6q23 0 49 13v-120q-23 -8 -58.5 -12.5t-69.5 -4.5q-65 0 -103.5 25.5z" />
    <glyph glyph-name="uni032E" unicode="&#x32e;" 
d="M-152 -192.5q-53 51.5 -53 143.5h167q0 -58 38 -58t38 58h167q0 -92 -53 -143.5t-152 -51.5t-152 51.5z" />
    <glyph glyph-name="uni0331" unicode="&#x331;" 
d="M-178 -49h367v-143h-367v143z" />
    <glyph glyph-name="uni0394" unicode="&#x394;" horiz-adv-x="690" 
d="M15 159l240 555h180l240 -555v-159h-660v159zM451 194l-107 239l-106 -239h213z" />
    <glyph glyph-name="uni03A9" unicode="&#x3a9;" horiz-adv-x="796" 
d="M15 193h83q-82 79 -82 202q0 97 47 169t133.5 111t201.5 39t201.5 -39t133.5 -111t47 -169q0 -123 -82 -202h83v-193h-359v172q58 34 87.5 77.5t29.5 101.5q0 65 -38.5 102.5t-102.5 37.5t-102.5 -37.5t-38.5 -102.5q0 -58 29.5 -101.5t87.5 -77.5v-172h-359v193z" />
    <glyph glyph-name="uni03BC" unicode="&#x3bc;" horiz-adv-x="643" 
d="M35 480h225v-259q0 -62 53 -62q48 0 70 45v276h225v-480h-217v40q-25 -22 -59 -36t-72 -18v-205h-225v699z" />
    <glyph glyph-name="pi" unicode="&#x3c0;" horiz-adv-x="664" 
d="M375.5 39q-45.5 54 -45.5 148v83h-41v-270h-225v270h-59v210h609v-210h-59v-60q0 -28 10.5 -39.5t32.5 -11.5q27 0 61 21v-166q-31 -15 -63 -22t-78 -7q-97 0 -142.5 54z" />
    <glyph glyph-name="uni0E01" unicode="&#xe01;" horiz-adv-x="672" 
d="M61 299l-51 91q63 77 146 118.5t185 41.5q142 0 219 -61t77 -168v-321h-225v304q0 72 -72 72q-51 0 -88 -22l34 -61v-293h-225v299z" />
    <glyph glyph-name="uni0E02" unicode="&#xe02;" horiz-adv-x="644" 
d="M156.5 9.5q-66.5 24.5 -100.5 67t-34 96.5v27q0 40 12 67t34 57q12 17 18 28.5t6 22.5q0 22 -25 22h-52v138h206q49 0 76 -25.5t27 -67.5q0 -29 -10 -50.5t-30 -49.5q-19 -26 -28 -46t-9 -46v-22q0 -69 71 -69q37 0 54 20t17 53v303h220v-300q0 -119 -71.5 -184.5
t-219.5 -65.5q-95 0 -161.5 24.5z" />
    <glyph glyph-name="uni0E03" unicode="&#xe03;" horiz-adv-x="666" 
d="M179 9.5q-66 24.5 -99 67t-33 96.5v27q0 48 20 85.5t57 74.5q-17 -5 -36 -5q-30 0 -51.5 19t-21.5 57v104h142v-34q0 -25 22 -25q15 0 25 6v53h157v-73q0 -32 -12 -56.5t-35 -58.5q-21 -28 -31.5 -49.5t-10.5 -47.5v-22q0 -69 68 -69q37 0 54 20t17 53v303h220v-300
q0 -119 -71.5 -184.5t-219.5 -65.5q-95 0 -161 24.5z" />
    <glyph glyph-name="uni0E04" unicode="&#xe04;" horiz-adv-x="676" 
d="M35 314q0 120 81.5 178t221.5 58t221.5 -58t81.5 -178v-314h-225v295q0 37 -19.5 59t-58.5 22t-58.5 -22t-19.5 -59v-32q22 15 60 15h67v-148h-79q-26 0 -37 -13t-11 -39v-78h-225v314z" />
    <glyph glyph-name="uni0E05" unicode="&#xe05;" horiz-adv-x="676" 
d="M35 375q0 78 48 126.5t136 48.5q83 0 119 -40q36 40 119 40q88 0 136 -48.5t48 -126.5v-375h-225v344q0 32 -23 32q-22 0 -28 -36h-54q-6 36 -28 36q-23 0 -23 -32v-81q22 15 60 15h67v-148h-79q-26 0 -37 -13t-11 -39v-78h-225v375z" />
    <glyph glyph-name="uni0E06" unicode="&#xe06;" horiz-adv-x="652" 
d="M319.5 0.5q-42.5 15.5 -65.5 44.5v-45h-207v200q0 48 20 85.5t57 74.5q-17 -5 -36 -5q-30 0 -51.5 19t-21.5 57v104h142v-34q0 -25 22 -25q15 0 25 6v53h152v-73q0 -32 -12 -56.5t-35 -58.5q-21 -28 -31.5 -49.5t-10.5 -47.5v-46q17 -45 65 -45q29 0 44.5 15.5t15.5 43.5
v317h225v-332q0 -96 -54 -157t-153 -61q-48 0 -90.5 15.5z" />
    <glyph glyph-name="uni0E07" unicode="&#xe07;" horiz-adv-x="654" 
d="M15 468h219l83 -310q42 0 65.5 35.5t23.5 98.5q0 43 -16.5 64t-45.5 21q-25 0 -51 -11v167q20 8 50 12.5t58 4.5q126 0 182 -65.5t56 -192.5q0 -91 -41.5 -157t-110.5 -100.5t-151 -34.5h-191z" />
    <glyph glyph-name="uni0E08" unicode="&#xe08;" horiz-adv-x="600" 
d="M15 294h224l34 -136q17 0 35.5 12.5t31 35.5t12.5 55q0 53 -40 84.5t-130 31.5q-41 0 -88.5 -10t-77.5 -26v172q43 17 101.5 27t116.5 10q106 0 185.5 -33.5t122.5 -97.5t43 -152q0 -84 -41 -144.5t-109.5 -91.5t-150.5 -31h-196z" />
    <glyph glyph-name="uni0E09" unicode="&#xe09;" horiz-adv-x="635" 
d="M68 44q-53 59 -53 159v97h225v-82q0 -28 14.5 -43.5t43.5 -15.5q25 0 45.5 12.5t31.5 32.5v60q0 57 -33.5 85t-125.5 28q-44 0 -108 -10.5t-92 -25.5v172q42 16 111.5 26.5t128.5 10.5q185 0 264.5 -70.5t79.5 -206.5v-273h-212v45q-28 -27 -72 -43.5t-96 -16.5
q-99 0 -152 59z" />
    <glyph glyph-name="uni0E0A" unicode="&#xe0a;" horiz-adv-x="657" 
d="M156.5 9.5q-66.5 24.5 -100.5 67t-34 96.5v27q0 39 10 65.5t29 58.5q21 32 21 51q0 22 -25 22h-42v138h196q49 0 76 -25.5t27 -67.5q0 -30 -9 -51.5t-26 -48.5q-16 -28 -24 -47t-8 -45v-22q0 -69 71 -69q38 0 54.5 20.5t16.5 61.5q0 50 -15 72t-46 22v93l83 122h236
l-108 -156q36 -28 53 -65.5t17 -93.5q0 -114 -72.5 -182t-218.5 -68q-95 0 -161.5 24.5z" />
    <glyph glyph-name="uni0E0B" unicode="&#xe0b;" horiz-adv-x="674" 
d="M175 9.5q-66 24.5 -99 67t-33 96.5v27q0 47 21.5 84t60.5 76q-17 -5 -39 -5q-30 0 -50.5 20.5t-20.5 52.5v107h140v-34q0 -25 22 -25q15 0 25 6v53h147v-73q0 -32 -11 -56.5t-32 -58.5q-19 -31 -28.5 -51.5t-9.5 -45.5v-22q0 -69 68 -69q71 0 71 76q0 54 -11 77t-37 23
v93l69 122h236l-94 -156q31 -30 44 -65t13 -94q0 -119 -71.5 -184.5t-219.5 -65.5q-95 0 -161 24.5z" />
    <glyph glyph-name="uni0E0C" unicode="&#xe0c;" horiz-adv-x="1005" 
d="M614 45v-45h-212v304q0 36 -16 54t-51 18q-46 0 -83 -22l34 -61v-109q0 -19 8.5 -27.5t28.5 -8.5h36v-148h-163q-65 0 -100 38t-35 103v158l-51 91q131 160 326 160q139 0 212.5 -60.5t73.5 -168.5v-117q8 -20 25.5 -32.5t42.5 -12.5q55 0 55 59v317h225v-332
q0 -97 -49.5 -157.5t-147.5 -60.5q-97 0 -159 60z" />
    <glyph glyph-name="uni0E0D" unicode="&#xe0d;" horiz-adv-x="1020" 
d="M472 -67v148q55 -25 105.5 -33t114.5 -8q56 0 91 11.5t35 36.5q0 14 -5 22q-25 -12 -59.5 -20t-69.5 -8q-136 0 -209 51t-73 151v20q0 36 -16 54t-51 18q-46 0 -83 -22l34 -61v-109q0 -19 8.5 -27.5t28.5 -8.5h36v-148h-163q-65 0 -100 38t-35 103v158l-51 91
q131 160 326 160q139 0 212.5 -59t73.5 -160v-17q0 -43 14.5 -60.5t55.5 -17.5q38 0 54 21.5t16 67.5v210h225v-217q0 -41 -10.5 -76.5t-29.5 -57.5q25 -23 36.5 -48.5t11.5 -58.5q0 -53 -37.5 -92.5t-106.5 -61t-159 -21.5q-138 0 -220 31z" />
    <glyph glyph-name="uni0E0E" unicode="&#xe0e;" horiz-adv-x="680" 
d="M139 -68q69 49 178 49q26 0 54.5 -5t48.5 -13v341q0 72 -72 72q-42 0 -82 -22l47 -61v-152q0 -65 -35 -103t-100 -38h-163v148h36q20 0 28.5 8.5t8.5 27.5v115l-70 91q56 75 142 117.5t189 42.5q142 0 219 -61t77 -168v-542h-184q-24 22 -62.5 33.5t-81.5 11.5
q-49 0 -96 -14t-82 -39v161z" />
    <glyph glyph-name="uni0E0F" unicode="&#xe0f;" horiz-adv-x="680" 
d="M141 -214q-34 10 -58 28v157q24 -17 48.5 -24t55.5 -7q26 0 45.5 13.5t27.5 39.5h95l65 -38v349q0 72 -72 72q-42 0 -82 -22l47 -61v-152q0 -65 -35 -103t-100 -38h-163v148h36q20 0 28.5 8.5t8.5 27.5v115l-70 91q56 75 142 117.5t189 42.5q142 0 219 -61t77 -168v-542
h-194l-99 59q-25 -32 -58.5 -47t-81.5 -15q-37 0 -71 10z" />
    <glyph glyph-name="uni0E10" unicode="&#xe10;" horiz-adv-x="641" 
d="M15 294h224l34 -136q34 0 56.5 27.5t22.5 75.5q0 57 -39 86.5t-131 29.5q-41 0 -88.5 -10t-77.5 -26v172q43 17 101.5 27t116.5 10q41 0 80 -6t65 -17l38 48h239l-124 -145q53 -69 53 -163q0 -84 -41 -144.5t-109.5 -91.5t-150.5 -31h-196zM74 -214q-34 10 -58 28v147
q24 -17 48.5 -24t55.5 -7q26 0 45.5 13.5t27.5 39.5h95l65 -38v54h224v-220h-193l-99 59q-25 -32 -58.5 -47t-81.5 -15q-37 0 -71 10z" />
    <glyph glyph-name="uni0E11" unicode="&#xe11;" horiz-adv-x="662" 
d="M47 185q0 55 19.5 97.5t55.5 77.5q-17 -5 -36 -5q-31 0 -51 19.5t-20 56.5v104h147v-34q0 -25 22 -25q15 0 25 6v53h147v-33q24 21 58.5 34.5t68.5 13.5q78 0 111 -37.5t33 -119.5v-393h-225v340q0 19 -6 27.5t-21 8.5q-27 0 -47 -23l-15 -25q-20 -34 -30.5 -62
t-10.5 -75v-191h-225v185z" />
    <glyph glyph-name="uni0E12" unicode="&#xe12;" horiz-adv-x="1054" 
d="M86 53.5q-71 68.5 -71 203.5q0 92 30 158t82.5 100.5t118.5 34.5q35 0 65 -11.5t47 -28.5q36 40 119 40q89 0 141.5 -49t52.5 -126v-171q8 -20 25.5 -32.5t42.5 -12.5q55 0 55 59v317h225v-332q0 -97 -49.5 -157.5t-147.5 -60.5q-97 0 -159 60v-45h-207v344q0 32 -26 32
q-16 0 -22.5 -9.5t-12.5 -31.5h-71q-3 20 -9.5 30.5t-19.5 10.5q-23 0 -35 -28t-12 -91q0 -51 22.5 -74.5t72.5 -23.5q35 0 65 14v-172q-22 -7 -58 -11.5t-69 -4.5q-124 0 -195 68.5z" />
    <glyph glyph-name="uni0E13" unicode="&#xe13;" horiz-adv-x="1005" 
d="M451.5 45.5q-49.5 60.5 -49.5 157.5v101q0 36 -16 54t-51 18q-46 0 -83 -22l34 -61v-109q0 -19 8.5 -27.5t28.5 -8.5h36v-148h-163q-65 0 -100 38t-35 103v158l-51 91q131 160 326 160q139 0 212.5 -60.5t73.5 -168.5v-103q0 -59 55 -59q25 0 42.5 12.5t25.5 32.5v331
h225v-535h-212v45q-62 -60 -159 -60q-98 0 -147.5 60.5z" />
    <glyph glyph-name="uni0E14" unicode="&#xe14;" horiz-adv-x="716" 
d="M90.5 54.5q-75.5 69.5 -75.5 205.5q0 91 41 156t117 99.5t180 34.5q166 0 247 -75t81 -206v-269h-225v270q0 53 -23.5 79.5t-78.5 26.5q-48 0 -77 -28t-29 -88q0 -101 95 -101q35 0 65 14v-172q-52 -16 -110 -16q-132 0 -207.5 69.5z" />
    <glyph glyph-name="uni0E15" unicode="&#xe15;" horiz-adv-x="716" 
d="M15 257q0 92 30 158t82.5 100.5t118.5 34.5q35 0 65 -11.5t47 -28.5q36 40 119 40q60 0 106 -22.5t72 -62.5t26 -90v-375h-225v344q0 32 -26 32q-16 0 -22.5 -9.5t-12.5 -31.5h-71q-7 41 -32 41q-21 0 -32.5 -30t-11.5 -89q0 -52 20.5 -75t74.5 -23q35 0 65 14v-172
q-52 -16 -110 -16q-283 0 -283 272z" />
    <glyph glyph-name="uni0E16" unicode="&#xe16;" horiz-adv-x="672" 
d="M96 38q-35 38 -35 103v158l-51 91q63 77 146 118.5t185 41.5q142 0 219 -61t77 -168v-321h-225v304q0 72 -72 72q-51 0 -88 -22l34 -61v-109q0 -19 8.5 -27.5t28.5 -8.5h41v-148h-168q-65 0 -100 38z" />
    <glyph glyph-name="uni0E17" unicode="&#xe17;" horiz-adv-x="653" 
d="M35 535h212v-45q30 28 74.5 44t89.5 16q105 0 156 -52.5t51 -145.5v-352h-225v319q0 28 -14 42.5t-40 14.5t-46.5 -11.5t-32.5 -33.5v-331h-225v535z" />
    <glyph glyph-name="uni0E18" unicode="&#xe18;" horiz-adv-x="578" 
d="M86 31q-70 46 -70 121v60h222v-36q0 -21 14 -31.5t36 -10.5q18 0 30 11t12 23q0 17 -9 27t-33.5 18.5t-73.5 17.5q-104 20 -151.5 53t-47.5 98q0 83 73.5 125.5t191.5 42.5q68 0 141.5 -12.5t107.5 -30.5v-159q-30 22 -91 37t-115 15q-75 0 -75 -18q0 -8 12 -12t43 -8
q40 -6 85 -16q70 -17 108 -41.5t52.5 -57t14.5 -79.5q0 -51 -32 -92.5t-94 -66t-149 -24.5q-132 0 -202 46z" />
    <glyph glyph-name="uni0E19" unicode="&#xe19;" horiz-adv-x="653" 
d="M89 46q-54 61 -54 157v332h225v-317q0 -28 15.5 -43.5t44.5 -15.5t45.5 11t27.5 34v331h225v-535h-212v45q-28 -27 -72 -43.5t-92 -16.5q-99 0 -153 61z" />
    <glyph glyph-name="uni0E1A" unicode="&#xe1a;" horiz-adv-x="670" 
d="M177 15.5q-68 30.5 -105 84t-37 122.5v313h225v-287q0 -46 16.5 -67.5t58.5 -21.5q41 0 58 21.5t17 67.5v287h225v-313q0 -69 -37.5 -122.5t-105.5 -84t-157 -30.5q-90 0 -158 30.5z" />
    <glyph glyph-name="uni0E1B" unicode="&#xe1b;" horiz-adv-x="670" 
d="M177 15.5q-68 30.5 -105 84t-37 122.5v313h225v-287q0 -46 16.5 -67.5t58.5 -21.5q41 0 58 21.5t17 67.5v466h225v-492q0 -69 -37.5 -122.5t-105.5 -84t-157 -30.5q-90 0 -158 30.5z" />
    <glyph glyph-name="uni0E1C" unicode="&#xe1c;" horiz-adv-x="690" 
d="M35 394q0 65 35 103t100 38h158v-148h-36q-20 0 -28.5 -8.5t-8.5 -27.5v-94l58 74h65l57 -74v278h220v-535h-198l-112 144l-112 -144h-198v394z" />
    <glyph glyph-name="uni0E1D" unicode="&#xe1d;" horiz-adv-x="690" 
d="M35 394q0 65 35 103t100 38h158v-148h-36q-20 0 -28.5 -8.5t-8.5 -27.5v-94l58 74h65l57 -74v457h220v-714h-198l-112 144l-112 -144h-198v394z" />
    <glyph glyph-name="uni0E1E" unicode="&#xe1e;" horiz-adv-x="815" 
d="M5 535h225l42 -230l57 230h157l57 -230l42 230h225l-149 -535h-192l-62 230l-61 -230h-192z" />
    <glyph glyph-name="uni0E1F" unicode="&#xe1f;" horiz-adv-x="797" 
d="M5 535h225l42 -230l57 230h157l57 -230l84 409h215l-181 -714h-192l-62 230l-61 -230h-192z" />
    <glyph glyph-name="uni0E20" unicode="&#xe20;" horiz-adv-x="675" 
d="M10 148h36q20 0 28.5 8.5t8.5 27.5v115l-70 91q56 75 142 117.5t189 42.5q142 0 219 -61t77 -168v-321h-225v304q0 72 -72 72q-42 0 -82 -22l47 -61v-152q0 -65 -35 -103t-100 -38h-163v148z" />
    <glyph glyph-name="uni0E21" unicode="&#xe21;" horiz-adv-x="653" 
d="M319 1.5q-44 16.5 -72 43.5v-45h-212v535h225v-331q11 -23 27.5 -34t45.5 -11t44.5 15.5t15.5 43.5v317h225v-332q0 -96 -54 -157t-153 -61q-48 0 -92 16.5z" />
    <glyph glyph-name="uni0E22" unicode="&#xe22;" horiz-adv-x="672" 
d="M97.5 28.5q-82.5 43.5 -82.5 133.5q0 36 13.5 61.5t42.5 43.5q-24 18 -39 49t-15 64q0 77 54.5 123.5t173.5 46.5q31 0 67 -5t52 -11v-156q-15 8 -33.5 12.5t-34.5 4.5q-46 0 -46 -33t46 -33h68v-124h-59q-56 0 -56 -32q0 -39 75 -39q45 0 66.5 20t21.5 61v322h225v-322
q0 -58 -32 -110.5t-102 -86t-179 -33.5q-144 0 -226.5 43.5z" />
    <glyph glyph-name="uni0E23" unicode="&#xe23;" horiz-adv-x="538" 
d="M130.5 -4q-67.5 11 -107.5 32v164q42 -24 99.5 -41t99.5 -17q68 0 68 20q0 8 -15.5 14.5t-57.5 20.5l-45 14q-85 28 -121 66t-36 105q0 85 67 130.5t181 45.5q66 0 128.5 -12t97.5 -31v-164q-31 22 -81 37t-92 15q-68 0 -68 -21q0 -12 20 -20t60 -18l41 -12
q63 -20 96 -43.5t45.5 -54.5t12.5 -77q0 -79 -65 -121.5t-197 -42.5q-63 0 -130.5 11z" />
    <glyph glyph-name="uni0E24" unicode="&#xe24;" horiz-adv-x="672" 
d="M412 304q0 72 -72 72q-51 0 -88 -22l34 -61v-109q0 -19 8.5 -27.5t28.5 -8.5h41v-148h-168q-65 0 -100 38t-35 103v158l-51 91q63 77 146 118.5t185 41.5q142 0 219 -61t77 -168v-517h-225v500z" />
    <glyph glyph-name="uni0E25" unicode="&#xe25;" horiz-adv-x="653" 
d="M71 29.5q-56 44.5 -56 132.5t59 137t161 49q39 0 84 -7.5t74 -19.5v9q0 28 -35 45t-95 17q-50 0 -100.5 -10.5t-88.5 -29.5v158q35 18 102 29t141 11q151 0 226 -60t75 -165v-325h-225v178q-16 9 -41.5 15t-47.5 6q-28 0 -42 -10t-14 -33q0 -19 13 -27t38 -8q24 0 47 9
v-129q-47 -16 -122 -16q-97 0 -153 44.5z" />
    <glyph glyph-name="uni0E26" unicode="&#xe26;" horiz-adv-x="675" 
d="M415 304q0 72 -72 72q-42 0 -82 -22l47 -61v-152q0 -65 -35 -103t-100 -38h-163v148h36q20 0 28.5 8.5t8.5 27.5v115l-70 91q56 75 142 117.5t189 42.5q142 0 219 -61t77 -168v-517h-225v500z" />
    <glyph glyph-name="uni0E27" unicode="&#xe27;" horiz-adv-x="554" 
d="M107.5 -2.5q-55.5 12.5 -92.5 33.5v172q33 -22 75 -33t86 -11q60 0 95 26.5t35 82.5q0 55 -35 81.5t-95 26.5q-45 0 -86 -10.5t-70 -31.5v172q35 21 90.5 32.5t117.5 11.5q148 0 229.5 -74t81.5 -208t-81.5 -208.5t-229.5 -74.5q-65 0 -120.5 12.5z" />
    <glyph glyph-name="uni0E28" unicode="&#xe28;" horiz-adv-x="689" 
d="M35 314q0 120 81.5 178t221.5 58q19 0 43 -2t38 -6l26 33h239l-96 -113q28 -27 40.5 -63.5t12.5 -84.5v-314h-225v295q0 37 -19.5 59t-58.5 22t-58.5 -22t-19.5 -59v-32q22 15 60 15h67v-148h-79q-26 0 -37 -13t-11 -39v-78h-225v314z" />
    <glyph glyph-name="uni0E29" unicode="&#xe29;" horiz-adv-x="681" 
d="M177 15.5q-68 30.5 -105 84t-37 122.5v313h225v-287q0 -46 16.5 -67.5t58.5 -21.5q41 0 58 21.5t17 67.5v6h-78v148h78v133h225v-133h41v-148h-41v-32q0 -69 -37.5 -122.5t-105.5 -84t-157 -30.5q-90 0 -158 30.5z" />
    <glyph glyph-name="uni0E2A" unicode="&#xe2a;" horiz-adv-x="670" 
d="M71 29.5q-56 44.5 -56 132.5t59 137t161 49q39 0 84 -7.5t74 -19.5v9q0 28 -35 45t-95 17q-50 0 -100.5 -10.5t-88.5 -29.5v158q35 18 100.5 29t139.5 11q46 0 86 -11l26 36h239l-98 -116q29 -23 40 -56.5t11 -77.5v-325h-225v178q-16 9 -41.5 15t-47.5 6q-28 0 -42 -10
t-14 -33q0 -19 13 -27t38 -8q24 0 47 9v-129q-47 -16 -122 -16q-97 0 -153 44.5z" />
    <glyph glyph-name="uni0E2B" unicode="&#xe2b;" horiz-adv-x="658" 
d="M35 535h225v-127l119 127h254l-132 -142q70 -25 96 -66.5t26 -114.5v-212h-225v187q0 31 -8.5 45t-32.5 21l-97 -93v-160h-225v535z" />
    <glyph glyph-name="uni0E2C" unicode="&#xe2c;" horiz-adv-x="701" 
d="M35 535h220v-278l58 74h65l57 -74v121q0 44 -18 66t-65 22v100l97 148h252l-116 -164q42 -24 56 -57t14 -95v-398h-198l-112 144l-112 -144h-198v535z" />
    <glyph glyph-name="uni0E2D" unicode="&#xe2d;" horiz-adv-x="637" 
d="M137.5 -2q-74.5 13 -122.5 32v285h291v-124h-78v-29q7 -2 24.5 -4.5t32.5 -2.5q52 0 78 29t26 84q0 109 -173 109q-51 0 -102.5 -9.5t-89.5 -25.5v171q43 17 108 27t133 10q106 0 186.5 -34t125.5 -97.5t45 -150.5q0 -88 -40 -151.5t-116 -97.5t-181 -34q-73 0 -147.5 13
z" />
    <glyph glyph-name="uni0E2E" unicode="&#xe2e;" horiz-adv-x="665" 
d="M137.5 -2q-74.5 13 -122.5 32v285h291v-124h-78v-29q7 -2 24.5 -4.5t32.5 -2.5q52 0 78 29t26 84q0 109 -173 109q-51 0 -102.5 -9.5t-89.5 -25.5v171q43 17 108 27t133 10q62 0 115 -14l31 39h239l-103 -121q38 -31 56.5 -79t18.5 -107q0 -88 -40 -151.5t-116 -97.5
t-181 -34q-73 0 -147.5 13z" />
    <glyph glyph-name="uni0E2F" unicode="&#xe2f;" horiz-adv-x="638" 
d="M378 214q-30 -12 -70 -19.5t-78 -7.5q-98 0 -156.5 47.5t-58.5 134.5q0 88 56 134.5t148 46.5q75 0 122 -16v-129q-23 9 -47 9q-22 0 -34 -10t-12 -28q0 -21 12 -30.5t39 -9.5q42 0 79 21v178h225v-535h-225v214z" />
    <glyph glyph-name="uni0E30" unicode="&#xe30;" horiz-adv-x="369" 
d="M44 320q-29 25 -29 72v120h200v-50q0 -9 5.5 -14t15.5 -5h118v-148h-224q-57 0 -86 25zM44 56q-29 25 -29 72v120h200v-50q0 -9 5.5 -14t15.5 -5h118v-148h-224q-57 0 -86 25z" />
    <glyph glyph-name="uni0E31" unicode="&#xe31;" 
d="M-333 608q-29 25 -29 72v120h200v-60q0 -9 5.5 -14t15.5 -5h198v-138h-304q-57 0 -86 25z" />
    <glyph glyph-name="uni0E32" unicode="&#xe32;" horiz-adv-x="412" 
d="M152 306q0 32 -17.5 51t-55.5 19q-45 0 -84 -22v166q22 12 66 21t81 9q113 0 174 -56.5t61 -166.5v-327h-225v306z" />
    <glyph glyph-name="uni0E33" unicode="&#xe33;" horiz-adv-x="420" 
d="M-214 586q-31 18 -49 48.5t-18 66.5t18 67t49 49t67 18t66.5 -18t48.5 -49t18 -67t-18 -66.5t-48.5 -48.5t-66.5 -18t-67 18zM-124 676q10 10 10 24t-9.5 24t-23.5 10t-23.5 -10t-9.5 -24t9.5 -24t23.5 -10q13 0 23 10zM160 306q0 32 -17.5 51t-55.5 19q-45 0 -84 -22
v166q22 12 66 21t81 9q113 0 174 -56.5t61 -166.5v-327h-225v306z" />
    <glyph glyph-name="uni0E34" unicode="&#xe34;" 
d="M-544 721h509v-138h-509v138z" />
    <glyph glyph-name="uni0E35" unicode="&#xe35;" 
d="M-544 721h304v102h205v-240h-509v138z" />
    <glyph glyph-name="uni0E36" unicode="&#xe36;" 
d="M-544 721h276q5 49 40.5 83t85.5 34q57 0 92 -37t35 -91q0 -55 -38 -91t-94 -36h-397v138zM-118 686q10 10 10 24t-10 24t-24 10t-24 -10t-10 -24t10 -24t24 -10t24 10z" />
    <glyph glyph-name="uni0E37" unicode="&#xe37;" 
d="M-544 721h162v102h153v-102h41v102h153v-240h-509v138z" />
    <glyph glyph-name="uni0E38" unicode="&#xe38;" 
d="M-235 -206q0 19 -8.5 27.5t-28.5 8.5h-26v138h138q65 0 95 -33t30 -98v-127h-200v84z" />
    <glyph glyph-name="uni0E39" unicode="&#xe39;" 
d="M-351 -261q-50 33 -50 89v16q0 13 -4.5 18t-16.5 5h-32v101h152q35 0 48.5 -15t13.5 -48v-52q0 -11 6 -17t17 -6q21 0 21 23v115h160v-134q0 -56 -45 -92t-128 -36q-92 0 -142 33z" />
    <glyph glyph-name="uni0E3A" unicode="&#xe3a;" 
d="M-210.5 -214.5q-31.5 31.5 -31.5 75.5t31.5 76t75.5 32t76 -32t32 -76t-32 -75.5t-76 -31.5t-75.5 31.5z" />
    <glyph glyph-name="uni0E3F" unicode="&#xe3f;" horiz-adv-x="680" 
d="M199 0h-164v699h164v103h167v-103h45q105 0 169 -51.5t64 -145.5q0 -40 -17.5 -76t-50.5 -59q48 -23 68.5 -58t20.5 -91q0 -66 -32 -115.5t-86 -76t-120 -26.5h-61v-103h-167v103zM343 434q31 0 45.5 12.5t14.5 41.5q0 27 -14.5 39t-45.5 12h-78v-105h78zM356 160
q36 0 52 14t16 45t-16 45.5t-52 14.5h-91v-119h91z" />
    <glyph glyph-name="uni0E40" unicode="&#xe40;" horiz-adv-x="338" 
d="M70 38q-35 38 -35 103v394h225v-351q0 -19 8.5 -27.5t28.5 -8.5h31v-148h-158q-65 0 -100 38z" />
    <glyph glyph-name="uni0E41" unicode="&#xe41;" horiz-adv-x="649" 
d="M70 38q-35 38 -35 103v394h225v-351q0 -19 8.5 -27.5t28.5 -8.5h28v-148h-155q-65 0 -100 38zM384 38q-35 38 -35 103v394h225v-351q0 -19 8.5 -27.5t28.5 -8.5h28v-148h-155q-65 0 -100 38z" />
    <glyph glyph-name="uni0E42" unicode="&#xe42;" horiz-adv-x="373" 
d="M108 38q-35 38 -35 103v343q0 57 -24 89.5t-79 49.5v129h418v-148h-133q24 -25 33.5 -53t9.5 -69v-298q0 -19 8.5 -27.5t28.5 -8.5h41v-148h-168q-65 0 -100 38z" />
    <glyph glyph-name="uni0E43" unicode="&#xe43;" horiz-adv-x="335" 
d="M49 38q-35 38 -35 103v202q0 44 17.5 75t49.5 66q3 4 14 17t16.5 24t5.5 20q0 22 -11.5 33t-38.5 11q-29 0 -55 -12t-47 -33v175q34 20 82 31.5t102 11.5q101 0 151 -42t50 -113q0 -38 -14 -68t-43 -72q-27 -39 -40.5 -67.5t-13.5 -63.5v-152q0 -19 8.5 -27.5t28.5 -8.5
h41v-148h-168q-65 0 -100 38z" />
    <glyph glyph-name="uni0E44" unicode="&#xe44;" horiz-adv-x="373" 
d="M95 38q-35 38 -35 103v298q0 113 58 165h-148v148h418v-129q-56 -21 -79.5 -67.5t-23.5 -114.5v-257q0 -19 8.5 -27.5t28.5 -8.5h41v-148h-168q-65 0 -100 38z" />
    <glyph glyph-name="uni0E45" unicode="&#xe45;" horiz-adv-x="412" 
d="M152 306q0 32 -17.5 51t-55.5 19q-45 0 -84 -22v166q22 12 66 21t81 9q113 0 174 -56.5t61 -166.5v-523h-225v502z" />
    <glyph glyph-name="uni0E46" unicode="&#xe46;" horiz-adv-x="684" 
d="M424 344q0 32 -26 32q-15 0 -22.5 -10.5t-12.5 -30.5h-71q-4 20 -10.5 30.5t-20.5 10.5q-27 0 -27 -38q0 -23 15 -33t50 -10t65 14v-168q-52 -16 -110 -16q-113 0 -176 53t-63 155q0 103 54 160t151 57q35 0 65 -11.5t47 -28.5q36 40 116 40q59 0 105 -22.5t71 -62.5
t25 -90v-375h-225v344z" />
    <glyph glyph-name="uni0E47" unicode="&#xe47;" 
d="M-487 614q-40 35 -40 93q0 77 44 115.5t120 38.5h275v-110h-260q-36 0 -36 -27q0 -14 8 -21t22 -7q32 0 32 36h110q0 -18 10.5 -25t30.5 -7h66v-117h-63q-36 0 -64 11t-38 29q-11 -19 -41.5 -31.5t-67.5 -12.5q-68 0 -108 35z" />
    <glyph glyph-name="uni0E48" unicode="&#xe48;" 
d="M-261 777h225v-194h-225v194z" />
    <glyph glyph-name="uni0E49" unicode="&#xe49;" 
d="M-323 650q0 17 -17 17h-50v148h123q80 0 80 -69v-25h191v-138h-327v67z" />
    <glyph glyph-name="uni0E4A" unicode="&#xe4a;" 
d="M-541 683q0 61 33 101t86 40q33 0 51.5 -10t30.5 -29q15 17 34 26t48 9q46 0 68 -24.5t22 -73.5v-24h6q11 0 14 5t3 17v92h109v-117q0 -48 -33.5 -80t-84.5 -32h-109v79q0 22 -16 22q-18 0 -18 -20v-20h-80v19q0 21 -15 21q-10 0 -15.5 -11t-5.5 -30q0 -13 6.5 -30.5
t14.5 -29.5h-126q-23 39 -23 100z" />
    <glyph glyph-name="uni0E4B" unicode="&#xe4b;" 
d="M-295 628h-41v115h41v45h215v-45h42v-115h-42v-45h-215v45z" />
    <glyph glyph-name="uni0E4C" unicode="&#xe4c;" 
d="M-352 693q0 47 29 72t86 25h234v-138h-128q-10 0 -15.5 -5t-5.5 -14v-50h-200v110z" />
    <glyph glyph-name="uni0E4D" unicode="&#xe4d;" 
d="M-214 586q-31 18 -49 48.5t-18 66.5t18 67t49 49t67 18t66.5 -18t48.5 -49t18 -67t-18 -66.5t-48.5 -48.5t-66.5 -18t-67 18zM-124 676q10 10 10 24t-9.5 24t-23.5 10t-23.5 -10t-9.5 -24t9.5 -24t23.5 -10q13 0 23 10z" />
    <glyph glyph-name="uni0E4E" unicode="&#xe4e;" 
d="M-289 610q-33 26 -33 69q0 41 21 64.5t58 27.5q-10 17 -10 41q0 38 29.5 58.5t76.5 20.5q49 0 75 -16v-77q-19 18 -41 18t-22 -16q0 -14 24 -21v-76q-28 10 -48 10q-14 0 -22 -6.5t-8 -18.5q0 -24 32 -24q13 0 27.5 4.5t25.5 11.5v-77q-15 -10 -42 -14.5t-52 -4.5
q-58 0 -91 26z" />
    <glyph glyph-name="uni0E4F" unicode="&#xe4f;" horiz-adv-x="540" 
d="M142.5 19.5q-58.5 34.5 -93 93t-34.5 127.5t34.5 127.5t93 93t127.5 34.5t127.5 -34.5t93 -93t34.5 -127.5t-34.5 -127.5t-93 -93t-127.5 -34.5t-127.5 34.5zM361 149q37 37 37 91t-37 91t-91 37t-91 -37t-37 -91t37 -91t91 -37t91 37zM193.5 162.5
q-31.5 30.5 -31.5 77.5t31.5 77.5t77.5 30.5t77.5 -30.5t31.5 -77.5t-31.5 -77.5t-77.5 -30.5t-77.5 30.5zM286.5 224q6.5 6 6.5 16t-6.5 16t-15.5 6t-15.5 -6t-6.5 -16t6.5 -16t15.5 -6t15.5 6z" />
    <glyph glyph-name="uni0E50" unicode="&#xe50;" horiz-adv-x="566" 
d="M145 17q-61 32 -95.5 90t-34.5 133t34.5 133t95.5 90t138 32t138 -32t95.5 -90t34.5 -133t-34.5 -133t-95.5 -90t-138 -32t-138 32zM342.5 178q23.5 23 23.5 62q0 38 -23.5 61.5t-59.5 23.5t-59.5 -23.5t-23.5 -61.5q0 -39 23.5 -62t59.5 -23t59.5 23z" />
    <glyph glyph-name="uni0E51" unicode="&#xe51;" horiz-adv-x="580" 
d="M227 76q62 14 91.5 37.5t37.5 52.5t8 76q0 44 -22.5 69t-63.5 25q-67 0 -67 -42q0 -19 12 -31t34 -12q30 0 52 12v-140q-19 -12 -48.5 -19t-59.5 -7q-83 0 -134.5 47.5t-51.5 133.5q0 65 34 114t94 76t137 27q141 0 213 -66.5t72 -180.5q0 -264 -338 -340v168z" />
    <glyph glyph-name="uni0E52" unicode="&#xe52;" horiz-adv-x="718" 
d="M207 13.5q-76 28.5 -124 87t-48 143.5v306h154v-302q0 -38 25 -68.5t66 -47.5t88 -17q78 0 118 24.5t40 71.5v100q0 31 -22 31q-13 0 -18.5 -9t-5.5 -27v-21h-92v21q0 36 -21 36q-25 0 -25 -40q0 -23 16.5 -34.5t43.5 -11.5q40 0 65 11v-117q-21 -8 -39.5 -11t-47.5 -3
q-86 0 -132 47t-46 131q0 91 41 136t108 45q56 0 84 -49h1q13 21 40 35t61 14q72 0 109 -45.5t37 -122.5v-116q0 -72 -44.5 -123t-116.5 -77t-154 -26q-85 0 -161 28.5z" />
    <glyph glyph-name="uni0E53" unicode="&#xe53;" horiz-adv-x="635" 
d="M80 49.5q-65 64.5 -65 186.5q0 82 26.5 140.5t72.5 88.5t103 30q62 0 101 -39q18 18 47.5 28.5t65.5 10.5q88 0 128.5 -46.5t40.5 -121.5v-327h-182v304q0 29 -24 29q-27 0 -27 -37v-92h-116v92q0 17 -6 27t-18 10q-19 0 -28 -23.5t-9 -78.5q0 -48 20 -71t71 -23
q21 0 50 3.5t42 9.5v-151q-22 -6 -56 -10t-63 -4q-109 0 -174 64.5z" />
    <glyph glyph-name="uni0E54" unicode="&#xe54;" horiz-adv-x="615" 
d="M82.5 60q-67.5 60 -67.5 182q0 84 38 145.5t108.5 94.5t165.5 33q42 0 64 3.5t34.5 13.5t20.5 32h174q-16 -67 -39 -107.5t-70.5 -62.5t-128.5 -22q-78 0 -122.5 -43.5t-44.5 -109.5q0 -42 13 -64t34 -22h2q-7 10 -12 28.5t-5 34.5q0 75 43.5 115t130.5 40q85 0 135 -23
v-121q-33 21 -70 21q-28 0 -43.5 -13.5t-15.5 -34.5q0 -47 62 -47h86v-133h-298q-127 0 -194.5 60z" />
    <glyph glyph-name="uni0E55" unicode="&#xe55;" horiz-adv-x="615" 
d="M82.5 60q-67.5 60 -67.5 182q0 92 43.5 156t121.5 91q-3 12 -3 25q0 54 33 85t86 31q60 0 87.5 -30t28.5 -80q22 4 30.5 13t9.5 31h168q-16 -67 -39 -107.5t-70.5 -62.5t-128.5 -22q-78 0 -122.5 -41.5t-44.5 -106.5q0 -42 13 -66.5t34 -24.5h2q-7 10 -12 28.5t-5 34.5
q0 155 174 155q81 0 135 -23v-121q-33 21 -70 21q-28 0 -43.5 -13.5t-15.5 -34.5q0 -47 62 -47h86v-133h-298q-127 0 -194.5 60zM315 496q7 7 7 18q0 26 -26 26t-26 -26q0 -11 7 -18t19 -7t19 7z" />
    <glyph glyph-name="uni0E56" unicode="&#xe56;" horiz-adv-x="617" 
d="M187 -0.5q-52 14.5 -85 43.5v158q39 -35 88 -52.5t100 -17.5q55 0 83.5 28.5t28.5 77.5q0 51 -26.5 77.5t-73.5 26.5q-79 0 -107 -84h-128l-72 294h153l25 -115q27 27 71 43t95 16q140 0 201.5 -69.5t61.5 -188.5q0 -72 -33 -129t-101 -90t-170 -33q-59 0 -111 14.5z" />
    <glyph glyph-name="uni0E57" unicode="&#xe57;" horiz-adv-x="794" 
d="M76 49.5q-61 64.5 -61 186.5q0 125 49 192t135 67q62 0 101 -39q18 18 47.5 28.5t65.5 10.5q86 0 119 -45t33 -123v-169q20 0 27 9.5t7 28.5v354h160v-346q0 -109 -64.5 -156.5t-165.5 -47.5h-124v304q0 29 -22 29q-15 0 -20 -9.5t-5 -27.5v-102h-119v102q0 37 -22 37
q-18 0 -26.5 -23.5t-8.5 -78.5q0 -47 22 -70.5t69 -23.5q21 0 47.5 3.5t39.5 9.5v-151q-22 -6 -56 -10t-63 -4q-104 0 -165 64.5z" />
    <glyph glyph-name="uni0E58" unicode="&#xe58;" horiz-adv-x="643" 
d="M72 49q-57 64 -57 187q0 84 38.5 147t109.5 97.5t164 34.5q44 0 66.5 3.5t34.5 13.5t18 32h174q-16 -67 -39 -107.5t-70.5 -62.5t-128.5 -22q-95 0 -134 -38.5t-39 -118.5q0 -59 9.5 -78t25.5 -19q12 0 19.5 9.5t7.5 27.5v43h128v-41q0 -39 23 -39q16 0 22 13.5t6 49.5
q0 26 -9 37.5t-27 11.5q-24 0 -47 -11v121q18 5 43.5 9t47.5 4q86 0 128 -42.5t42 -129.5q0 -94 -49 -145t-132 -51q-30 0 -61 12t-51 32q-41 -44 -115 -44q-91 0 -148 64z" />
    <glyph glyph-name="uni0E59" unicode="&#xe59;" horiz-adv-x="753" 
d="M63.5 49q-48.5 64 -48.5 187q0 83 25.5 141t70 88t101.5 30q58 0 101 -43q21 21 44 32t57 11q35 0 61.5 -14t42.5 -40l43 109h197l-138 -327h-95l-21 72q-9 28 -33 28q-14 0 -14 -16q0 -10 4 -21l98 -286h-184l-98 286q-8 21 -15.5 29t-22.5 8q-21 0 -35 -21t-14 -71
q0 -48 12 -71t40 -23q17 0 27.5 3t26.5 10v-151q-56 -14 -99 -14q-85 0 -133.5 64z" />
    <glyph glyph-name="uni0E5A" unicode="&#xe5a;" horiz-adv-x="973" 
d="M378 214q-30 -12 -70 -19.5t-78 -7.5q-98 0 -156.5 47.5t-58.5 134.5q0 88 56 134.5t148 46.5q75 0 122 -16v-129q-23 9 -47 9q-22 0 -34 -10t-12 -28q0 -21 12 -30.5t39 -9.5q42 0 79 21v178h225v-171q4 -13 15 -20.5t26 -7.5q21 0 37 5t32 16v178h225v-535h-225v214
q-16 -11 -39 -17.5t-47 -6.5q-8 0 -24 2v-192h-225v214z" />
    <glyph glyph-name="uni0E5B" unicode="&#xe5b;" horiz-adv-x="1137" 
d="M91 50.5q-76 65.5 -76 187.5q0 74 28.5 132.5t82 91.5t125.5 33q106 0 168 -51t62 -145q0 -92 -51.5 -135t-128.5 -43q-52 0 -89 22v102q12 -10 31 -15t39 -5q73 0 73 74q0 34 -25 53t-74 19q-50 0 -80 -33.5t-30 -99.5q0 -70 38 -104.5t109 -34.5q108 0 159 45t51 149
v121h140l51 -134h2l24 120h95l29 -96h2l19 76h89l30 -73h2l24 34h112v-126h-71l-27 -71h-80l-28 39h-2l-19 -64h-97l-28 82h-2l-23 -103h-98l-36 112h-2q-18 -114 -102.5 -169.5t-213.5 -55.5q-126 0 -202 65.5z" />
    <glyph glyph-name="uni1E0C" unicode="&#x1e0c;" horiz-adv-x="705" 
d="M35 699h268q116 0 203.5 -42t135.5 -120t48 -184q0 -174 -103.5 -263.5t-283.5 -89.5h-268v699zM319 220q130 0 130 133q0 61 -34 93.5t-96 32.5h-47v-259h47zM258 -194.5q-26 25.5 -26 61.5t26 62t62 26t61.5 -25.5t25.5 -62.5t-25.5 -62t-61.5 -25t-62 25.5z" />
    <glyph glyph-name="uni1E0D" unicode="&#x1e0d;" horiz-adv-x="674" 
d="M135.5 16.5q-57.5 31.5 -89 89.5t-31.5 134q0 75 31.5 133t89.5 90t135 32q42 0 80.5 -12.5t62.5 -32.5v289h225v-739h-217v40q-27 -25 -67.5 -40t-83.5 -15q-78 0 -135.5 31.5zM381 171q22 12 33 33v72q-11 21 -33 33t-48 12q-40 0 -62.5 -21t-22.5 -61t22.5 -60
t62.5 -20q26 0 48 12zM294 -194.5q-26 25.5 -26 61.5t26 62t62 26t61.5 -25.5t25.5 -62.5t-25.5 -62t-61.5 -25t-62 25.5z" />
    <glyph glyph-name="uni1E0E" unicode="&#x1e0e;" horiz-adv-x="705" 
d="M35 699h268q116 0 203.5 -42t135.5 -120t48 -184q0 -174 -103.5 -263.5t-283.5 -89.5h-268v699zM319 220q130 0 130 133q0 61 -34 93.5t-96 32.5h-47v-259h47zM129 -49h367v-143h-367v143z" />
    <glyph glyph-name="uni1E0F" unicode="&#x1e0f;" horiz-adv-x="674" 
d="M135.5 16.5q-57.5 31.5 -89 89.5t-31.5 134q0 75 31.5 133t89.5 90t135 32q42 0 80.5 -12.5t62.5 -32.5v289h225v-739h-217v40q-27 -25 -67.5 -40t-83.5 -15q-78 0 -135.5 31.5zM381 171q22 12 33 33v72q-11 21 -33 33t-48 12q-40 0 -62.5 -21t-22.5 -61t22.5 -60
t62.5 -20q26 0 48 12zM185 -49h367v-143h-367v143z" />
    <glyph glyph-name="uni1E20" unicode="&#x1e20;" horiz-adv-x="687" 
d="M210 885h367v-143h-367v143zM196.5 28.5q-87.5 43.5 -134.5 126t-47 194.5q0 113 47 195t134.5 126t205.5 44q78 0 136 -13t109 -42v-222q-43 32 -97.5 46t-126.5 14q-77 0 -122.5 -38.5t-45.5 -109.5q0 -77 37 -116.5t120 -39.5q30 0 52 8v66h-77v136h285v-359
q-103 -59 -270 -59q-118 0 -205.5 43.5z" />
    <glyph glyph-name="uni1E21" unicode="&#x1e21;" horiz-adv-x="674" 
d="M171 660h367v-143h-367v143zM205.5 -221q-49.5 9 -86.5 25v143q80 -34 184 -34q111 0 111 90v27q-24 -20 -62.5 -32.5t-80.5 -12.5q-77 0 -135 32t-89.5 90t-31.5 133q0 76 31.5 134t89 89.5t135.5 31.5q43 0 83.5 -15t67.5 -40v40h217v-442q0 -127 -82 -197.5
t-254 -70.5q-48 0 -97.5 9zM381 171q22 12 33 33v72q-11 21 -33 33t-48 12q-40 0 -62.5 -20t-22.5 -60t22.5 -61t62.5 -21q26 0 48 12z" />
    <glyph glyph-name="uni1E24" unicode="&#x1e24;" horiz-adv-x="736" 
d="M35 699h237v-234h192v234h237v-699h-237v245h-192v-245h-237v699zM307 -194.5q-26 25.5 -26 61.5t26 62t62 26t61.5 -25.5t25.5 -62.5t-25.5 -62t-61.5 -25t-62 25.5z" />
    <glyph glyph-name="uni1E25" unicode="&#x1e25;" horiz-adv-x="638" 
d="M35 739h225v-296q65 52 146 52q105 0 153.5 -52.5t48.5 -145.5v-297h-225v264q0 28 -11.5 42.5t-37.5 14.5q-49 0 -74 -45v-276h-225v739zM258 -194.5q-26 25.5 -26 61.5t26 62t62 26t61.5 -25.5t25.5 -62.5t-25.5 -62t-61.5 -25t-62 25.5z" />
    <glyph glyph-name="uni1E2A" unicode="&#x1e2a;" horiz-adv-x="736" 
d="M35 699h237v-234h192v234h237v-699h-237v245h-192v-245h-237v699zM216 -192.5q-53 51.5 -53 143.5h167q0 -58 38 -58t38 58h167q0 -92 -53 -143.5t-152 -51.5t-152 51.5z" />
    <glyph glyph-name="uni1E2B" unicode="&#x1e2b;" horiz-adv-x="638" 
d="M35 739h225v-296q65 52 146 52q105 0 153.5 -52.5t48.5 -145.5v-297h-225v264q0 28 -11.5 42.5t-37.5 14.5q-49 0 -74 -45v-276h-225v739zM173 -192.5q-53 51.5 -53 143.5h167q0 -58 38 -58t38 58h167q0 -92 -53 -143.5t-152 -51.5t-152 51.5z" />
    <glyph glyph-name="uni1E36" unicode="&#x1e36;" horiz-adv-x="528" 
d="M35 699h237v-500h261v-199h-498v699zM213 -194.5q-26 25.5 -26 61.5t26 62t62 26t61.5 -25.5t25.5 -62.5t-25.5 -62t-61.5 -25t-62 25.5z" />
    <glyph glyph-name="uni1E37" unicode="&#x1e37;" horiz-adv-x="295" 
d="M35 739h225v-739h-225v739zM86 -194.5q-26 25.5 -26 61.5t26 62t62 26t61.5 -25.5t25.5 -62.5t-25.5 -62t-61.5 -25t-62 25.5z" />
    <glyph glyph-name="uni1E38" unicode="&#x1e38;" horiz-adv-x="549" 
d="M-5 895h367v-143h-367v143zM56 699h237v-500h261v-199h-498v699zM232 -194.5q-26 25.5 -26 61.5t26 62t62 26t61.5 -25.5t25.5 -62.5t-25.5 -62t-61.5 -25t-62 25.5z" />
    <glyph glyph-name="uni1E39" unicode="&#x1e39;" horiz-adv-x="295" 
d="M-36 904h367v-143h-367v143zM35 739h225v-739h-225v739zM86 -194.5q-26 25.5 -26 61.5t26 62t62 26t61.5 -25.5t25.5 -62.5t-25.5 -62t-61.5 -25t-62 25.5z" />
    <glyph glyph-name="uni1E3A" unicode="&#x1e3a;" horiz-adv-x="528" 
d="M35 699h237v-500h261v-199h-498v699zM99 -49h367v-143h-367v143z" />
    <glyph glyph-name="uni1E3B" unicode="&#x1e3b;" horiz-adv-x="295" 
d="M35 739h225v-739h-225v739zM-36 -49h367v-143h-367v143z" />
    <glyph glyph-name="uni1E42" unicode="&#x1e42;" horiz-adv-x="842" 
d="M35 699h209l177 -370l177 370h209v-699h-219v259l-129 -259h-76l-129 259v-259h-219v699zM360 -194.5q-26 25.5 -26 61.5t26 62t62 26t61.5 -25.5t25.5 -62.5t-25.5 -62t-61.5 -25t-62 25.5z" />
    <glyph glyph-name="uni1E43" unicode="&#x1e43;" horiz-adv-x="885" 
d="M35 480h207v-40q57 55 143 55q51 0 82.5 -13.5t53.5 -40.5q30 25 70 39.5t83 14.5q99 0 140 -51t41 -147v-297h-215v264q0 29 -9.5 43t-34.5 14q-21 0 -38 -10v-311h-215v275q0 23 -9 34.5t-30 11.5q-34 0 -54 -38v-283h-215v480zM389 -194.5q-26 25.5 -26 61.5t26 62
t62 26t61.5 -25.5t25.5 -62.5t-25.5 -62t-61.5 -25t-62 25.5z" />
    <glyph glyph-name="uni1E44" unicode="&#x1e44;" horiz-adv-x="714" 
d="M296 767.5q-26 25.5 -26 61.5t26 62t62 26t61.5 -25.5t25.5 -62.5t-25.5 -62t-61.5 -25t-62 25.5zM35 699h209l208 -325v325h227v-699h-209l-208 326v-326h-227v699z" />
    <glyph glyph-name="uni1E45" unicode="&#x1e45;" horiz-adv-x="638" 
d="M260 542.5q-26 25.5 -26 61.5t26 62t62 26t61.5 -25.5t25.5 -62.5t-25.5 -62t-61.5 -25t-62 25.5zM35 480h217v-40q30 26 70 40.5t84 14.5q105 0 153.5 -52.5t48.5 -145.5v-297h-225v264q0 28 -11.5 42.5t-37.5 14.5q-49 0 -74 -45v-276h-225v480z" />
    <glyph glyph-name="uni1E46" unicode="&#x1e46;" horiz-adv-x="714" 
d="M35 699h209l208 -325v325h227v-699h-209l-208 326v-326h-227v699zM296 -194.5q-26 25.5 -26 61.5t26 62t62 26t61.5 -25.5t25.5 -62.5t-25.5 -62t-61.5 -25t-62 25.5z" />
    <glyph glyph-name="uni1E47" unicode="&#x1e47;" horiz-adv-x="638" 
d="M35 480h217v-40q30 26 70 40.5t84 14.5q105 0 153.5 -52.5t48.5 -145.5v-297h-225v264q0 28 -11.5 42.5t-37.5 14.5q-49 0 -74 -45v-276h-225v480zM268 -194.5q-26 25.5 -26 61.5t26 62t62 26t61.5 -25.5t25.5 -62.5t-25.5 -62t-61.5 -25t-62 25.5z" />
    <glyph glyph-name="uni1E48" unicode="&#x1e48;" horiz-adv-x="714" 
d="M35 699h209l208 -325v325h227v-699h-209l-208 326v-326h-227v699zM174 -49h367v-143h-367v143z" />
    <glyph glyph-name="uni1E49" unicode="&#x1e49;" horiz-adv-x="638" 
d="M35 480h217v-40q30 26 70 40.5t84 14.5q105 0 153.5 -52.5t48.5 -145.5v-297h-225v264q0 28 -11.5 42.5t-37.5 14.5q-49 0 -74 -45v-276h-225v480zM150 -49h367v-143h-367v143z" />
    <glyph glyph-name="uni1E5A" unicode="&#x1e5a;" horiz-adv-x="668" 
d="M35 699h336q130 0 206 -65t76 -189q0 -78 -31 -132.5t-88 -85.5l110 -227h-239l-92 191h-45v-191h-233v699zM321 368q91 0 91 77t-91 77h-53v-154h53zM261 -194.5q-26 25.5 -26 61.5t26 62t62 26t61.5 -25.5t25.5 -62.5t-25.5 -62t-61.5 -25t-62 25.5z" />
    <glyph glyph-name="uni1E5B" unicode="&#x1e5b;" horiz-adv-x="426" 
d="M35 480h217v-43q28 26 76 42t103 16v-174q-59 0 -106.5 -15.5t-64.5 -43.5v-262h-225v480zM81 -194.5q-26 25.5 -26 61.5t26 62t62 26t61.5 -25.5t25.5 -62.5t-25.5 -62t-61.5 -25t-62 25.5z" />
    <glyph glyph-name="uni1E5C" unicode="&#x1e5c;" horiz-adv-x="668" 
d="M125 885h367v-143h-367v143zM35 699h336q130 0 206 -65t76 -189q0 -78 -31 -132.5t-88 -85.5l110 -227h-239l-92 191h-45v-191h-233v699zM321 368q91 0 91 77t-91 77h-53v-154h53zM261 -194.5q-26 25.5 -26 61.5t26 62t62 26t61.5 -25.5t25.5 -62.5t-25.5 -62t-61.5 -25
t-62 25.5z" />
    <glyph glyph-name="uni1E5D" unicode="&#x1e5d;" horiz-adv-x="426" 
d="M35 660h367v-143h-367v143zM35 480h217v-43q28 26 76 42t103 16v-174q-59 0 -106.5 -15.5t-64.5 -43.5v-262h-225v480zM81 -194.5q-26 25.5 -26 61.5t26 62t62 26t61.5 -25.5t25.5 -62.5t-25.5 -62t-61.5 -25t-62 25.5z" />
    <glyph glyph-name="uni1E5E" unicode="&#x1e5e;" horiz-adv-x="668" 
d="M35 699h336q130 0 206 -65t76 -189q0 -78 -31 -132.5t-88 -85.5l110 -227h-239l-92 191h-45v-191h-233v699zM321 368q91 0 91 77t-91 77h-53v-154h53zM140 -49h367v-143h-367v143z" />
    <glyph glyph-name="uni1E5F" unicode="&#x1e5f;" horiz-adv-x="426" 
d="M35 480h217v-43q28 26 76 42t103 16v-174q-59 0 -106.5 -15.5t-64.5 -43.5v-262h-225v480zM35 -49h367v-143h-367v143z" />
    <glyph glyph-name="uni1E60" unicode="&#x1e60;" horiz-adv-x="580" 
d="M227 767.5q-26 25.5 -26 61.5t26 62t62 26t61.5 -25.5t25.5 -62.5t-25.5 -62t-61.5 -25t-62 25.5zM129 -1q-70 14 -114 38v206q56 -32 118.5 -48t115.5 -16q30 0 43 6t13 19q0 18 -20 30.5t-85 41.5q-96 42 -139.5 93.5t-43.5 125.5q0 64 35.5 113.5t100 77.5t147.5 28
q68 0 121 -11t101 -34v-199q-90 50 -178 50q-71 0 -71 -31q0 -15 16.5 -25t59.5 -27l37 -15q71 -30 109 -59.5t54 -67t16 -94.5q0 -101 -74 -158.5t-223 -57.5q-69 0 -139 14z" />
    <glyph glyph-name="uni1E61" unicode="&#x1e61;" horiz-adv-x="528" 
d="M193 542.5q-26 25.5 -26 61.5t26 62t62 26t61.5 -25.5t25.5 -62.5t-25.5 -62t-61.5 -25t-62 25.5zM130.5 -4q-67.5 11 -107.5 32v152q42 -24 103 -41t109 -17q23 0 33 2t10 9q0 5 -9 8t-24 6q-36 7 -64 15q-91 28 -128.5 64.5t-37.5 103.5q0 84 66 124.5t182 40.5
q54 0 119.5 -12t96.5 -31v-152q-30 21 -85 36.5t-98 15.5q-20 0 -33 -3t-13 -8t11 -9t35 -8q47 -9 53 -11q66 -17 101.5 -39.5t49 -52.5t13.5 -76q0 -73 -65 -116.5t-187 -43.5q-63 0 -130.5 11z" />
    <glyph glyph-name="uni1E62" unicode="&#x1e62;" horiz-adv-x="580" 
d="M129 -1q-70 14 -114 38v206q56 -32 118.5 -48t115.5 -16q30 0 43 6t13 19q0 18 -20 30.5t-85 41.5q-96 42 -139.5 93.5t-43.5 125.5q0 64 35.5 113.5t100 77.5t147.5 28q68 0 121 -11t101 -34v-199q-90 50 -178 50q-71 0 -71 -31q0 -15 16.5 -25t59.5 -27l37 -15
q71 -30 109 -59.5t54 -67t16 -94.5q0 -101 -74 -158.5t-223 -57.5q-69 0 -139 14zM221 -194.5q-26 25.5 -26 61.5t26 62t62 26t61.5 -25.5t25.5 -62.5t-25.5 -62t-61.5 -25t-62 25.5z" />
    <glyph glyph-name="uni1E63" unicode="&#x1e63;" horiz-adv-x="528" 
d="M130.5 -4q-67.5 11 -107.5 32v152q42 -24 103 -41t109 -17q23 0 33 2t10 9q0 5 -9 8t-24 6q-36 7 -64 15q-91 28 -128.5 64.5t-37.5 103.5q0 84 66 124.5t182 40.5q54 0 119.5 -12t96.5 -31v-152q-30 21 -85 36.5t-98 15.5q-20 0 -33 -3t-13 -8t11 -9t35 -8q47 -9 53 -11
q66 -17 101.5 -39.5t49 -52.5t13.5 -76q0 -73 -65 -116.5t-187 -43.5q-63 0 -130.5 11zM209 -194.5q-26 25.5 -26 61.5t26 62t62 26t61.5 -25.5t25.5 -62.5t-25.5 -62t-61.5 -25t-62 25.5z" />
    <glyph glyph-name="uni1E6C" unicode="&#x1e6c;" horiz-adv-x="595" 
d="M179 500h-179v199h595v-199h-179v-500h-237v500zM236 -194.5q-26 25.5 -26 61.5t26 62t62 26t61.5 -25.5t25.5 -62.5t-25.5 -62t-61.5 -25t-62 25.5z" />
    <glyph glyph-name="uni1E6D" unicode="&#x1e6d;" horiz-adv-x="404" 
d="M110 40q-50 55 -50 147v145h-65v148h65v144h225v-144h104v-148h-104v-112q0 -33 12 -47t41 -14q37 0 71 21v-166q-31 -15 -65 -22t-86 -7q-98 0 -148 55zM176 -194.5q-26 25.5 -26 61.5t26 62t62 26t61.5 -25.5t25.5 -62.5t-25.5 -62t-61.5 -25t-62 25.5z" />
    <glyph glyph-name="uni1E6E" unicode="&#x1e6e;" horiz-adv-x="595" 
d="M179 500h-179v199h595v-199h-179v-500h-237v500zM96 -49h367v-143h-367v143z" />
    <glyph glyph-name="uni1E6F" unicode="&#x1e6f;" horiz-adv-x="404" 
d="M110 40q-50 55 -50 147v145h-65v148h65v144h225v-144h104v-148h-104v-112q0 -33 12 -47t41 -14q37 0 71 21v-166q-31 -15 -65 -22t-86 -7q-98 0 -148 55zM27 -49h367v-143h-367v143z" />
    <glyph glyph-name="Wgrave" unicode="&#x1e80;" horiz-adv-x="988" 
d="M305 923h217l68 -181h-190zM15 699h246l76 -316l78 316h168l68 -317l76 317h246l-179 -699h-215l-85 318l-85 -318h-215z" />
    <glyph glyph-name="wgrave" unicode="&#x1e81;" horiz-adv-x="883" 
d="M252 698h217l68 -181h-190zM15 480h225l57 -225l57 225h175l57 -225l57 225h225l-164 -480h-201l-62 215l-61 -215h-201z" />
    <glyph glyph-name="Wacute" unicode="&#x1e82;" horiz-adv-x="988" 
d="M468 923h217l-95 -181h-190zM15 699h246l76 -316l78 316h168l68 -317l76 317h246l-179 -699h-215l-85 318l-85 -318h-215z" />
    <glyph glyph-name="wacute" unicode="&#x1e83;" horiz-adv-x="883" 
d="M417 698h217l-95 -181h-190zM15 480h225l57 -225l57 225h175l57 -225l57 225h225l-164 -480h-201l-62 215l-61 -215h-201z" />
    <glyph glyph-name="Wdieresis" unicode="&#x1e84;" horiz-adv-x="988" 
d="M316 767.5q-26 25.5 -26 61.5t26 62t62 26t61.5 -25.5t25.5 -62.5t-25.5 -62t-61.5 -25t-62 25.5zM551 767.5q-26 25.5 -26 61.5q0 37 26 62.5t62 25.5q35 0 60.5 -25.5t25.5 -62.5q0 -36 -25 -61.5t-61 -25.5t-62 25.5zM15 699h246l76 -316l78 316h168l68 -317l76 317
h246l-179 -699h-215l-85 318l-85 -318h-215z" />
    <glyph glyph-name="wdieresis" unicode="&#x1e85;" horiz-adv-x="883" 
d="M263 542.5q-26 25.5 -26 61.5t26 62t62 26t61.5 -25.5t25.5 -62.5t-25.5 -62t-61.5 -25t-62 25.5zM498 542.5q-26 25.5 -26 61.5q0 37 26 62.5t62 25.5q35 0 60.5 -25.5t25.5 -62.5q0 -36 -25 -61.5t-61 -25.5t-62 25.5zM15 480h225l57 -225l57 225h175l57 -225l57 225
h225l-164 -480h-201l-62 215l-61 -215h-201z" />
    <glyph glyph-name="uni1E8E" unicode="&#x1e8e;" horiz-adv-x="783" 
d="M271 767.5q-26 25.5 -26 61.5t26 62t62 26t61.5 -25.5t25.5 -62.5t-25.5 -62t-61.5 -25t-62 25.5zM268 267l-253 432h253l119 -221l129 221h252l-263 -432v-267h-237v267z" />
    <glyph glyph-name="uni1E8F" unicode="&#x1e8f;" horiz-adv-x="659" 
d="M271 542.5q-26 25.5 -26 61.5t26 62t62 26t61.5 -25.5t25.5 -62.5t-25.5 -62t-61.5 -25t-62 25.5zM126.5 -192q-41.5 6 -60.5 15v166q31 -13 71 -13q29 0 45.5 12t25.5 36l5 14l-208 442h225l102 -274l97 274h225l-186 -480q-39 -101 -101.5 -149.5t-161.5 -48.5
q-37 0 -78.5 6z" />
    <glyph glyph-name="uni1E92" unicode="&#x1e92;" horiz-adv-x="612" 
d="M15 152l267 348h-261v199h551v-153l-266 -347h291v-199h-582v152zM221 -194.5q-26 25.5 -26 61.5t26 62t62 26t61.5 -25.5t25.5 -62.5t-25.5 -62t-61.5 -25t-62 25.5z" />
    <glyph glyph-name="uni1E93" unicode="&#x1e93;" horiz-adv-x="545" 
d="M15 113l201 219h-196v148h502v-112l-199 -220h207v-148h-515v113zM185 -194.5q-26 25.5 -26 61.5t26 62t62 26t61.5 -25.5t25.5 -62.5t-25.5 -62t-61.5 -25t-62 25.5z" />
    <glyph glyph-name="uni1E97" unicode="&#x1e97;" horiz-adv-x="404" 
d="M-3 682.5q-26 25.5 -26 61.5t26 62t62 26t61.5 -25.5t25.5 -62.5t-25.5 -62t-61.5 -25t-62 25.5zM232 682.5q-26 25.5 -26 61.5q0 37 26 62.5t62 25.5q35 0 60.5 -25.5t25.5 -62.5q0 -36 -25 -61.5t-61 -25.5t-62 25.5zM110 40q-50 55 -50 147v145h-65v148h65v144h225
v-144h104v-148h-104v-112q0 -33 12 -47t41 -14q37 0 71 21v-166q-31 -15 -65 -22t-86 -7q-98 0 -148 55z" />
    <glyph glyph-name="uni1E9E" unicode="&#x1e9e;" horiz-adv-x="675" 
d="M346.5 -10.5q-33.5 4.5 -54.5 13.5v179q11 -9 28.5 -14t34.5 -5q32 0 48 13t16 43q0 58 -74 58h-53v107l89 106q0 27 -13.5 44.5t-41.5 17.5q-60 0 -60 -70v-482h-236v450q0 126 75.5 195t217.5 69q97 0 161.5 -32.5t97.5 -84t40 -112.5l-90 -107q128 -49 128 -184
q0 -101 -64 -155t-182 -54q-34 0 -67.5 4.5z" />
    <glyph glyph-name="uni1EA0" unicode="&#x1ea0;" horiz-adv-x="814" 
d="M295 699h224l280 -699h-243l-45 122h-208l-45 -122h-243zM459 296l-52 161l-52 -161h104zM346 -194.5q-26 25.5 -26 61.5t26 62t62 26t61.5 -25.5t25.5 -62.5t-25.5 -62t-61.5 -25t-62 25.5z" />
    <glyph glyph-name="uni1EA1" unicode="&#x1ea1;" horiz-adv-x="619" 
d="M71 26.5q-56 41.5 -56 121.5q0 81 54.5 123t161.5 42q32 0 70 -7.5t63 -17.5v8q0 26 -33 41t-87 15q-87 0 -159 -36v143q33 16 87 26t119 10q144 0 221 -53t77 -150v-292h-212v35q-23 -21 -65.5 -35.5t-90.5 -14.5q-94 0 -150 41.5zM333.5 117q19.5 8 30.5 20v32
q-33 19 -71 19q-21 0 -33 -11t-12 -29q0 -17 11.5 -28t33.5 -11q21 0 40.5 8zM263 -194.5q-26 25.5 -26 61.5t26 62t62 26t61.5 -25.5t25.5 -62.5t-25.5 -62t-61.5 -25t-62 25.5z" />
    <glyph glyph-name="uni1EA2" unicode="&#x1ea2;" horiz-adv-x="814" 
d="M314 816q42 0 59 9t17 29q0 17 -14 24.5t-45 7.5q-28 0 -57 -9v85q26 8 67.5 13.5t73.5 5.5q87 0 132 -27.5t45 -76.5q0 -37 -24 -59.5t-67 -35.5v-40h-187v74zM295 699h224l280 -699h-243l-45 122h-208l-45 -122h-243zM459 296l-52 161l-52 -161h104z" />
    <glyph glyph-name="uni1EA3" unicode="&#x1ea3;" horiz-adv-x="619" 
d="M226 591q42 0 59 9t17 29q0 17 -14 24.5t-45 7.5q-28 0 -57 -9v85q26 8 67.5 13.5t73.5 5.5q87 0 132 -27.5t45 -76.5q0 -37 -24 -59.5t-67 -35.5v-40h-187v74zM71 26.5q-56 41.5 -56 121.5q0 81 54.5 123t161.5 42q32 0 70 -7.5t63 -17.5v8q0 26 -33 41t-87 15
q-87 0 -159 -36v143q33 16 87 26t119 10q144 0 221 -53t77 -150v-292h-212v35q-23 -21 -65.5 -35.5t-90.5 -14.5q-94 0 -150 41.5zM333.5 117q19.5 8 30.5 20v32q-33 19 -71 19q-21 0 -33 -11t-12 -29q0 -17 11.5 -28t33.5 -11q21 0 40.5 8z" />
    <glyph glyph-name="uni1EA4" unicode="&#x1ea4;" horiz-adv-x="814" 
d="M594 1024h207l-84 -149h-180zM325 903h142l165 -161h-192l-44 50l-44 -50h-192zM295 699h224l280 -699h-243l-45 122h-208l-45 -122h-243zM459 296l-52 161l-52 -161h104z" />
    <glyph glyph-name="uni1EA5" unicode="&#x1ea5;" horiz-adv-x="619" 
d="M513 799h207l-84 -149h-180zM244 678h142l165 -161h-192l-44 50l-44 -50h-192zM71 26.5q-56 41.5 -56 121.5q0 81 54.5 123t161.5 42q32 0 70 -7.5t63 -17.5v8q0 26 -33 41t-87 15q-87 0 -159 -36v143q33 16 87 26t119 10q144 0 221 -53t77 -150v-292h-212v35
q-23 -21 -65.5 -35.5t-90.5 -14.5q-94 0 -150 41.5zM333.5 117q19.5 8 30.5 20v32q-33 19 -71 19q-21 0 -33 -11t-12 -29q0 -17 11.5 -28t33.5 -11q21 0 40.5 8z" />
    <glyph glyph-name="uni1EA6" unicode="&#x1ea6;" horiz-adv-x="814" 
d="M8 1024h207l57 -149h-180zM342 903h142l165 -161h-192l-44 50l-44 -50h-192zM295 699h224l280 -699h-243l-45 122h-208l-45 -122h-243zM459 296l-52 161l-52 -161h104z" />
    <glyph glyph-name="uni1EA7" unicode="&#x1ea7;" horiz-adv-x="619" 
d="M-85 799h207l57 -149h-180zM249 678h142l165 -161h-192l-44 50l-44 -50h-192zM71 26.5q-56 41.5 -56 121.5q0 81 54.5 123t161.5 42q32 0 70 -7.5t63 -17.5v8q0 26 -33 41t-87 15q-87 0 -159 -36v143q33 16 87 26t119 10q144 0 221 -53t77 -150v-292h-212v35
q-23 -21 -65.5 -35.5t-90.5 -14.5q-94 0 -150 41.5zM333.5 117q19.5 8 30.5 20v32q-33 19 -71 19q-21 0 -33 -11t-12 -29q0 -17 11.5 -28t33.5 -11q21 0 40.5 8z" />
    <glyph glyph-name="uni1EA8" unicode="&#x1ea8;" horiz-adv-x="814" 
d="M532 915q46 0 46 21q0 20 -38 20q-20 0 -32 -6v69q18 5 47.5 9t51.5 4q59 0 89.5 -20.5t30.5 -56.5q0 -46 -58 -66v-26h-137v52zM333 903h142l165 -161h-192l-44 50l-44 -50h-192zM295 699h224l280 -699h-243l-45 122h-208l-45 -122h-243zM459 296l-52 161l-52 -161h104z
" />
    <glyph glyph-name="uni1EA9" unicode="&#x1ea9;" horiz-adv-x="619" 
d="M439 690q46 0 46 21q0 20 -38 20q-20 0 -32 -6v69q18 5 47.5 9t51.5 4q59 0 89.5 -20.5t30.5 -56.5q0 -46 -58 -66v-26h-137v52zM240 678h142l165 -161h-192l-44 50l-44 -50h-192zM71 26.5q-56 41.5 -56 121.5q0 81 54.5 123t161.5 42q32 0 70 -7.5t63 -17.5v8
q0 26 -33 41t-87 15q-87 0 -159 -36v143q33 16 87 26t119 10q144 0 221 -53t77 -150v-292h-212v35q-23 -21 -65.5 -35.5t-90.5 -14.5q-94 0 -150 41.5zM333.5 117q19.5 8 30.5 20v32q-33 19 -71 19q-21 0 -33 -11t-12 -29q0 -17 11.5 -28t33.5 -11q21 0 40.5 8z" />
    <glyph glyph-name="uni1EAA" unicode="&#x1eaa;" horiz-adv-x="814" 
d="M462.5 919.5q-19.5 5.5 -48.5 15.5q-49 19 -77 19q-52 0 -88 -39v113q29 32 88 32q19 0 37.5 -5t46.5 -15q29 -10 46.5 -15t34.5 -5q52 0 88 39v-113q-29 -32 -88 -32q-20 0 -39.5 5.5zM337 903h142l165 -161h-192l-44 50l-44 -50h-192zM295 699h224l280 -699h-243
l-45 122h-208l-45 -122h-243zM459 296l-52 161l-52 -161h104z" />
    <glyph glyph-name="uni1EAB" unicode="&#x1eab;" horiz-adv-x="619" 
d="M370.5 694.5q-19.5 5.5 -48.5 15.5q-49 19 -77 19q-52 0 -88 -39v113q29 32 88 32q19 0 37.5 -5t46.5 -15q29 -10 46.5 -15t34.5 -5q52 0 88 39v-113q-29 -32 -88 -32q-20 0 -39.5 5.5zM245 678h142l165 -161h-192l-44 50l-44 -50h-192zM71 26.5q-56 41.5 -56 121.5
q0 81 54.5 123t161.5 42q32 0 70 -7.5t63 -17.5v8q0 26 -33 41t-87 15q-87 0 -159 -36v143q33 16 87 26t119 10q144 0 221 -53t77 -150v-292h-212v35q-23 -21 -65.5 -35.5t-90.5 -14.5q-94 0 -150 41.5zM333.5 117q19.5 8 30.5 20v32q-33 19 -71 19q-21 0 -33 -11t-12 -29
q0 -17 11.5 -28t33.5 -11q21 0 40.5 8z" />
    <glyph glyph-name="uni1EAC" unicode="&#x1eac;" horiz-adv-x="814" 
d="M306 933h202l165 -191h-207l-59 80l-59 -80h-207zM295 699h224l280 -699h-243l-45 122h-208l-45 -122h-243zM459 296l-52 161l-52 -161h104zM347 -194.5q-26 25.5 -26 61.5t26 62t62 26t61.5 -25.5t25.5 -62.5t-25.5 -62t-61.5 -25t-62 25.5z" />
    <glyph glyph-name="uni1EAD" unicode="&#x1ead;" horiz-adv-x="619" 
d="M212 708h202l165 -191h-207l-59 80l-59 -80h-207zM71 26.5q-56 41.5 -56 121.5q0 81 54.5 123t161.5 42q32 0 70 -7.5t63 -17.5v8q0 26 -33 41t-87 15q-87 0 -159 -36v143q33 16 87 26t119 10q144 0 221 -53t77 -150v-292h-212v35q-23 -21 -65.5 -35.5t-90.5 -14.5
q-94 0 -150 41.5zM333.5 117q19.5 8 30.5 20v32q-33 19 -71 19q-21 0 -33 -11t-12 -29q0 -17 11.5 -28t33.5 -11q21 0 40.5 8zM263 -194.5q-26 25.5 -26 61.5t26 62t62 26t61.5 -25.5t25.5 -62.5t-25.5 -62t-61.5 -25t-62 25.5z" />
    <glyph glyph-name="uni1EAE" unicode="&#x1eae;" horiz-adv-x="814" 
d="M379 1063h186l-79 -142h-161zM271 786q-53 44 -53 118h139q0 -25 13 -39t38 -14t38 14t13 39h139q0 -74 -53 -118t-137 -44t-137 44zM295 699h224l280 -699h-243l-45 122h-208l-45 -122h-243zM459 296l-52 161l-52 -161h104z" />
    <glyph glyph-name="uni1EAF" unicode="&#x1eaf;" horiz-adv-x="619" 
d="M290 838h186l-79 -142h-161zM182 561q-53 44 -53 118h139q0 -25 13 -39t38 -14t38 14t13 39h139q0 -74 -53 -118t-137 -44t-137 44zM71 26.5q-56 41.5 -56 121.5q0 81 54.5 123t161.5 42q32 0 70 -7.5t63 -17.5v8q0 26 -33 41t-87 15q-87 0 -159 -36v143q33 16 87 26
t119 10q144 0 221 -53t77 -150v-292h-212v35q-23 -21 -65.5 -35.5t-90.5 -14.5q-94 0 -150 41.5zM333.5 117q19.5 8 30.5 20v32q-33 19 -71 19q-21 0 -33 -11t-12 -29q0 -17 11.5 -28t33.5 -11q21 0 40.5 8z" />
    <glyph glyph-name="uni1EB0" unicode="&#x1eb0;" horiz-adv-x="814" 
d="M250 1063h186l54 -142h-161zM270 786q-53 44 -53 118h139q0 -25 13 -39t38 -14t38 14t13 39h139q0 -74 -53 -118t-137 -44t-137 44zM295 699h224l280 -699h-243l-45 122h-208l-45 -122h-243zM459 296l-52 161l-52 -161h104z" />
    <glyph glyph-name="uni1EB1" unicode="&#x1eb1;" horiz-adv-x="619" 
d="M172 838h186l54 -142h-161zM192 561q-53 44 -53 118h139q0 -25 13 -39t38 -14t38 14t13 39h139q0 -74 -53 -118t-137 -44t-137 44zM71 26.5q-56 41.5 -56 121.5q0 81 54.5 123t161.5 42q32 0 70 -7.5t63 -17.5v8q0 26 -33 41t-87 15q-87 0 -159 -36v143q33 16 87 26
t119 10q144 0 221 -53t77 -150v-292h-212v35q-23 -21 -65.5 -35.5t-90.5 -14.5q-94 0 -150 41.5zM333.5 117q19.5 8 30.5 20v32q-33 19 -71 19q-21 0 -33 -11t-12 -29q0 -17 11.5 -28t33.5 -11q21 0 40.5 8z" />
    <glyph glyph-name="uni1EB2" unicode="&#x1eb2;" horiz-adv-x="814" 
d="M343 968q46 0 46 21q0 20 -38 20q-20 0 -32 -6v69q18 5 47.5 9t51.5 4q59 0 89.5 -20.5t30.5 -56.5q0 -46 -58 -66v-21h-137v47zM271 786q-53 44 -53 118h139q0 -25 13 -39t38 -14t38 14t13 39h139q0 -74 -53 -118t-137 -44t-137 44zM295 699h224l280 -699h-243l-45 122
h-208l-45 -122h-243zM459 296l-52 161l-52 -161h104z" />
    <glyph glyph-name="uni1EB3" unicode="&#x1eb3;" horiz-adv-x="619" 
d="M260 743q46 0 46 21q0 20 -38 20q-20 0 -32 -6v69q18 5 47.5 9t51.5 4q59 0 89.5 -20.5t30.5 -56.5q0 -46 -58 -66v-21h-137v47zM188 561q-53 44 -53 118h139q0 -25 13 -39t38 -14t38 14t13 39h139q0 -74 -53 -118t-137 -44t-137 44zM71 26.5q-56 41.5 -56 121.5
q0 81 54.5 123t161.5 42q32 0 70 -7.5t63 -17.5v8q0 26 -33 41t-87 15q-87 0 -159 -36v143q33 16 87 26t119 10q144 0 221 -53t77 -150v-292h-212v35q-23 -21 -65.5 -35.5t-90.5 -14.5q-94 0 -150 41.5zM333.5 117q19.5 8 30.5 20v32q-33 19 -71 19q-21 0 -33 -11t-12 -29
q0 -17 11.5 -28t33.5 -11q21 0 40.5 8z" />
    <glyph glyph-name="uni1EB4" unicode="&#x1eb4;" horiz-adv-x="814" 
d="M449.5 924.5q-19.5 5.5 -48.5 15.5q-49 19 -77 19q-52 0 -88 -39v113q29 32 88 32q19 0 37.5 -5t46.5 -15q29 -10 46.5 -15t34.5 -5q52 0 88 39v-113q-29 -32 -88 -32q-20 0 -39.5 5.5zM270 786q-53 44 -53 118h139q0 -25 13 -39t38 -14t38 14t13 39h139q0 -74 -53 -118
t-137 -44t-137 44zM295 699h224l280 -699h-243l-45 122h-208l-45 -122h-243zM459 296l-52 161l-52 -161h104z" />
    <glyph glyph-name="uni1EB5" unicode="&#x1eb5;" horiz-adv-x="619" 
d="M364.5 699.5q-19.5 5.5 -48.5 15.5q-49 19 -77 19q-52 0 -88 -39v113q29 32 88 32q19 0 37.5 -5t46.5 -15q29 -10 46.5 -15t34.5 -5q52 0 88 39v-113q-29 -32 -88 -32q-20 0 -39.5 5.5zM185 561q-53 44 -53 118h139q0 -25 13 -39t38 -14t38 14t13 39h139q0 -74 -53 -118
t-137 -44t-137 44zM71 26.5q-56 41.5 -56 121.5q0 81 54.5 123t161.5 42q32 0 70 -7.5t63 -17.5v8q0 26 -33 41t-87 15q-87 0 -159 -36v143q33 16 87 26t119 10q144 0 221 -53t77 -150v-292h-212v35q-23 -21 -65.5 -35.5t-90.5 -14.5q-94 0 -150 41.5zM333.5 117
q19.5 8 30.5 20v32q-33 19 -71 19q-21 0 -33 -11t-12 -29q0 -17 11.5 -28t33.5 -11q21 0 40.5 8z" />
    <glyph glyph-name="uni1EB6" unicode="&#x1eb6;" horiz-adv-x="814" 
d="M256 793.5q-53 51.5 -53 143.5h167q0 -58 38 -58t38 58h167q0 -92 -53 -143.5t-152 -51.5t-152 51.5zM295 699h224l280 -699h-243l-45 122h-208l-45 -122h-243zM459 296l-52 161l-52 -161h104zM347 -194.5q-26 25.5 -26 61.5t26 62t62 26t61.5 -25.5t25.5 -62.5
t-25.5 -62t-61.5 -25t-62 25.5z" />
    <glyph glyph-name="uni1EB7" unicode="&#x1eb7;" horiz-adv-x="619" 
d="M173 568.5q-53 51.5 -53 143.5h167q0 -58 38 -58t38 58h167q0 -92 -53 -143.5t-152 -51.5t-152 51.5zM71 26.5q-56 41.5 -56 121.5q0 81 54.5 123t161.5 42q32 0 70 -7.5t63 -17.5v8q0 26 -33 41t-87 15q-87 0 -159 -36v143q33 16 87 26t119 10q144 0 221 -53t77 -150
v-292h-212v35q-23 -21 -65.5 -35.5t-90.5 -14.5q-94 0 -150 41.5zM333.5 117q19.5 8 30.5 20v32q-33 19 -71 19q-21 0 -33 -11t-12 -29q0 -17 11.5 -28t33.5 -11q21 0 40.5 8zM263 -194.5q-26 25.5 -26 61.5t26 62t62 26t61.5 -25.5t25.5 -62.5t-25.5 -62t-61.5 -25
t-62 25.5z" />
    <glyph glyph-name="uni1EB8" unicode="&#x1eb8;" horiz-adv-x="568" 
d="M35 699h518v-199h-281v-61h199v-179h-199v-61h281v-199h-518v699zM217 -194.5q-26 25.5 -26 61.5t26 62t62 26t61.5 -25.5t25.5 -62.5t-25.5 -62t-61.5 -25t-62 25.5z" />
    <glyph glyph-name="uni1EB9" unicode="&#x1eb9;" horiz-adv-x="600" 
d="M97.5 51q-82.5 66 -82.5 187q0 119 74.5 188t214.5 69q89 0 152.5 -33t96 -90t32.5 -128v-65h-356q29 -52 131 -52q47 0 98.5 7.5t87.5 21.5v-135q-40 -16 -98.5 -26t-119.5 -10q-148 0 -230.5 66zM373 302q-12 50 -73 50q-59 0 -71 -50h144zM254 -194.5
q-26 25.5 -26 61.5t26 62t62 26t61.5 -25.5t25.5 -62.5t-25.5 -62t-61.5 -25t-62 25.5z" />
    <glyph glyph-name="uni1EBA" unicode="&#x1eba;" horiz-adv-x="568" 
d="M182 816q42 0 59 9t17 29q0 17 -14 24.5t-45 7.5q-28 0 -57 -9v85q26 8 67.5 13.5t73.5 5.5q87 0 132 -27.5t45 -76.5q0 -37 -24 -59.5t-67 -35.5v-40h-187v74zM35 699h518v-199h-281v-61h199v-179h-199v-61h281v-199h-518v699z" />
    <glyph glyph-name="uni1EBB" unicode="&#x1ebb;" horiz-adv-x="600" 
d="M198 591q42 0 59 9t17 29q0 17 -14 24.5t-45 7.5q-28 0 -57 -9v85q26 8 67.5 13.5t73.5 5.5q87 0 132 -27.5t45 -76.5q0 -37 -24 -59.5t-67 -35.5v-40h-187v74zM97.5 51q-82.5 66 -82.5 187q0 119 74.5 188t214.5 69q89 0 152.5 -33t96 -90t32.5 -128v-65h-356
q29 -52 131 -52q47 0 98.5 7.5t87.5 21.5v-135q-40 -16 -98.5 -26t-119.5 -10q-148 0 -230.5 66zM373 302q-12 50 -73 50q-59 0 -71 -50h144z" />
    <glyph glyph-name="uni1EBC" unicode="&#x1ebc;" horiz-adv-x="568" 
d="M358 748.5q-25 6.5 -59 19.5q-32 12 -53 18t-42 6q-65 0 -110 -49v153q36 40 110 40q23 0 46 -6.5t58 -18.5q32 -12 55 -18.5t45 -6.5q65 0 110 49v-153q-36 -40 -110 -40q-25 0 -50 6.5zM35 699h518v-199h-281v-61h199v-179h-199v-61h281v-199h-518v699z" />
    <glyph glyph-name="uni1EBD" unicode="&#x1ebd;" horiz-adv-x="600" 
d="M364 523.5q-25 6.5 -59 19.5q-32 12 -53 18t-42 6q-65 0 -110 -49v153q36 40 110 40q23 0 46 -6.5t58 -18.5q32 -12 55 -18.5t45 -6.5q65 0 110 49v-153q-36 -40 -110 -40q-25 0 -50 6.5zM97.5 51q-82.5 66 -82.5 187q0 119 74.5 188t214.5 69q89 0 152.5 -33t96 -90
t32.5 -128v-65h-356q29 -52 131 -52q47 0 98.5 7.5t87.5 21.5v-135q-40 -16 -98.5 -26t-119.5 -10q-148 0 -230.5 66zM373 302q-12 50 -73 50q-59 0 -71 -50h144z" />
    <glyph glyph-name="uni1EBE" unicode="&#x1ebe;" horiz-adv-x="568" 
d="M495 1024h207l-84 -149h-180zM226 903h142l165 -161h-192l-44 50l-44 -50h-192zM35 699h518v-199h-281v-61h199v-179h-199v-61h281v-199h-518v699z" />
    <glyph glyph-name="uni1EBF" unicode="&#x1ebf;" horiz-adv-x="600" 
d="M500 799h207l-84 -149h-180zM231 678h142l165 -161h-192l-44 50l-44 -50h-192zM97.5 51q-82.5 66 -82.5 187q0 119 74.5 188t214.5 69q89 0 152.5 -33t96 -90t32.5 -128v-65h-356q29 -52 131 -52q47 0 98.5 7.5t87.5 21.5v-135q-40 -16 -98.5 -26t-119.5 -10
q-148 0 -230.5 66zM373 302q-12 50 -73 50q-59 0 -71 -50h144z" />
    <glyph glyph-name="uni1EC0" unicode="&#x1ec0;" horiz-adv-x="568" 
d="M-108 1024h207l57 -149h-180zM226 903h142l165 -161h-192l-44 50l-44 -50h-192zM35 699h518v-199h-281v-61h199v-179h-199v-61h281v-199h-518v699z" />
    <glyph glyph-name="uni1EC1" unicode="&#x1ec1;" horiz-adv-x="600" 
d="M-99 799h207l57 -149h-180zM235 678h142l165 -161h-192l-44 50l-44 -50h-192zM97.5 51q-82.5 66 -82.5 187q0 119 74.5 188t214.5 69q89 0 152.5 -33t96 -90t32.5 -128v-65h-356q29 -52 131 -52q47 0 98.5 7.5t87.5 21.5v-135q-40 -16 -98.5 -26t-119.5 -10
q-148 0 -230.5 66zM373 302q-12 50 -73 50q-59 0 -71 -50h144z" />
    <glyph glyph-name="uni1EC2" unicode="&#x1ec2;" horiz-adv-x="568" 
d="M409 915q46 0 46 21q0 20 -38 20q-20 0 -32 -6v69q18 5 47.5 9t51.5 4q59 0 89.5 -20.5t30.5 -56.5q0 -46 -58 -66v-26h-137v52zM210 903h142l165 -161h-192l-44 50l-44 -50h-192zM35 699h518v-199h-281v-61h199v-179h-199v-61h281v-199h-518v699z" />
    <glyph glyph-name="uni1EC3" unicode="&#x1ec3;" horiz-adv-x="600" 
d="M421 699q46 0 46 21q0 20 -38 20q-20 0 -32 -6v69q18 5 47.5 9t51.5 4q59 0 89.5 -20.5t30.5 -56.5q0 -46 -58 -66v-26h-137v52zM222 687h142l165 -161h-192l-44 50l-44 -50h-192zM97.5 51q-82.5 66 -82.5 187q0 119 74.5 188t214.5 69q89 0 152.5 -33t96 -90t32.5 -128
v-65h-356q29 -52 131 -52q47 0 98.5 7.5t87.5 21.5v-135q-40 -16 -98.5 -26t-119.5 -10q-148 0 -230.5 66zM373 302q-12 50 -73 50q-59 0 -71 -50h144z" />
    <glyph glyph-name="uni1EC4" unicode="&#x1ec4;" horiz-adv-x="568" 
d="M342.5 919.5q-19.5 5.5 -48.5 15.5q-49 19 -77 19q-52 0 -88 -39v113q29 32 88 32q19 0 37.5 -5t46.5 -15q29 -10 46.5 -15t34.5 -5q52 0 88 39v-113q-29 -32 -88 -32q-20 0 -39.5 5.5zM217 903h142l165 -161h-192l-44 50l-44 -50h-192zM35 699h518v-199h-281v-61h199
v-179h-199v-61h281v-199h-518v699z" />
    <glyph glyph-name="uni1EC5" unicode="&#x1ec5;" horiz-adv-x="600" 
d="M360.5 694.5q-19.5 5.5 -48.5 15.5q-49 19 -77 19q-52 0 -88 -39v113q29 32 88 32q19 0 37.5 -5t46.5 -15q29 -10 46.5 -15t34.5 -5q52 0 88 39v-113q-29 -32 -88 -32q-20 0 -39.5 5.5zM235 678h142l165 -161h-192l-44 50l-44 -50h-192zM97.5 51q-82.5 66 -82.5 187
q0 119 74.5 188t214.5 69q89 0 152.5 -33t96 -90t32.5 -128v-65h-356q29 -52 131 -52q47 0 98.5 7.5t87.5 21.5v-135q-40 -16 -98.5 -26t-119.5 -10q-148 0 -230.5 66zM373 302q-12 50 -73 50q-59 0 -71 -50h144z" />
    <glyph glyph-name="uni1EC6" unicode="&#x1ec6;" horiz-adv-x="568" 
d="M200 933h202l165 -191h-207l-59 80l-59 -80h-207zM35 699h518v-199h-281v-61h199v-179h-199v-61h281v-199h-518v699zM237 -194.5q-26 25.5 -26 61.5t26 62t62 26t61.5 -25.5t25.5 -62.5t-25.5 -62t-61.5 -25t-62 25.5z" />
    <glyph glyph-name="uni1EC7" unicode="&#x1ec7;" horiz-adv-x="600" 
d="M213 708h202l165 -191h-207l-59 80l-59 -80h-207zM97.5 51q-82.5 66 -82.5 187q0 119 74.5 188t214.5 69q89 0 152.5 -33t96 -90t32.5 -128v-65h-356q29 -52 131 -52q47 0 98.5 7.5t87.5 21.5v-135q-40 -16 -98.5 -26t-119.5 -10q-148 0 -230.5 66zM373 302
q-12 50 -73 50q-59 0 -71 -50h144zM239 -194.5q-26 25.5 -26 61.5t26 62t62 26t61.5 -25.5t25.5 -62.5t-25.5 -62t-61.5 -25t-62 25.5z" />
    <glyph glyph-name="uni1EC8" unicode="&#x1ec8;" horiz-adv-x="307" 
d="M60 816q42 0 59 9t17 29q0 17 -14 24.5t-45 7.5q-28 0 -57 -9v85q26 8 67.5 13.5t73.5 5.5q87 0 132 -27.5t45 -76.5q0 -37 -24 -59.5t-67 -35.5v-40h-187v74zM35 699h237v-699h-237v699z" />
    <glyph glyph-name="uni1EC9" unicode="&#x1ec9;" horiz-adv-x="295" 
d="M54 591q42 0 59 9t17 29q0 17 -14 24.5t-45 7.5q-28 0 -57 -9v85q26 8 67.5 13.5t73.5 5.5q87 0 132 -27.5t45 -76.5q0 -37 -24 -59.5t-67 -35.5v-40h-187v74zM35 480h225v-480h-225v480z" />
    <glyph glyph-name="uni1ECA" unicode="&#x1eca;" horiz-adv-x="307" 
d="M35 699h237v-699h-237v699zM92 -194.5q-26 25.5 -26 61.5t26 62t62 26t61.5 -25.5t25.5 -62.5t-25.5 -62t-61.5 -25t-62 25.5z" />
    <glyph glyph-name="uni1ECB" unicode="&#x1ecb;" horiz-adv-x="302" 
d="M68 556.5q-33 32.5 -33 81.5q0 48 33.5 81t82.5 33q48 0 82 -33t34 -81q0 -49 -33.5 -81.5t-82.5 -32.5q-50 0 -83 32.5zM39 480h225v-480h-225v480zM90 -194.5q-26 25.5 -26 61.5t26 62t62 26t61.5 -25.5t25.5 -62.5t-25.5 -62t-61.5 -25t-62 25.5z" />
    <glyph glyph-name="uni1ECC" unicode="&#x1ecc;" horiz-adv-x="789" 
d="M65 539q50 83 136.5 129t193.5 46q106 0 192.5 -46t136.5 -129t50 -190t-50 -189.5t-136.5 -128.5t-192.5 -46q-107 0 -193.5 46t-136.5 128.5t-50 189.5t50 190zM295.5 246q39.5 -38 99.5 -38t99 38t39 103t-39 103t-99 38q-61 0 -100 -38t-39 -103t39.5 -103zM333 -71
q26 26 62 26t61.5 -25.5t25.5 -62.5t-25.5 -62t-61.5 -25t-62 25.5t-26 61.5t26 62z" />
    <glyph glyph-name="uni1ECD" unicode="&#x1ecd;" horiz-adv-x="652" 
d="M161.5 18q-70.5 33 -108.5 91t-38 131t38 131t108.5 91t164.5 33t164.5 -33t108.5 -91t38 -131t-38 -131t-108.5 -91t-164.5 -33t-164.5 33zM385 181q22 22 22 59t-22 59t-59 22t-59 -22t-22 -59t22 -59t59 -22t59 22zM265 -194.5q-26 25.5 -26 61.5t26 62t62 26
t61.5 -25.5t25.5 -62.5t-25.5 -62t-61.5 -25t-62 25.5z" />
    <glyph glyph-name="uni1ECE" unicode="&#x1ece;" horiz-adv-x="789" 
d="M279 816q42 0 59 9t17 29q0 17 -14 24.5t-45 7.5q-28 0 -57 -9v85q26 8 67.5 13.5t73.5 5.5q87 0 132 -27.5t45 -76.5q0 -37 -24 -59.5t-67 -35.5v-40h-187v74zM201.5 31q-86.5 46 -136.5 128.5t-50 189.5t50 190t136.5 129t193.5 46q106 0 192.5 -46t136.5 -129t50 -190
t-50 -189.5t-136.5 -128.5t-192.5 -46q-107 0 -193.5 46zM494 246q39 38 39 103t-39 103t-99 38q-61 0 -100 -38t-39 -103t39.5 -103t99.5 -38t99 38z" />
    <glyph glyph-name="uni1ECF" unicode="&#x1ecf;" horiz-adv-x="652" 
d="M231 591q42 0 59 9t17 29q0 17 -14 24.5t-45 7.5q-28 0 -57 -9v85q26 8 67.5 13.5t73.5 5.5q87 0 132 -27.5t45 -76.5q0 -37 -24 -59.5t-67 -35.5v-40h-187v74zM161.5 18q-70.5 33 -108.5 91t-38 131t38 131t108.5 91t164.5 33t164.5 -33t108.5 -91t38 -131t-38 -131
t-108.5 -91t-164.5 -33t-164.5 33zM385 181q22 22 22 59t-22 59t-59 22t-59 -22t-22 -59t22 -59t59 -22t59 22z" />
    <glyph glyph-name="uni1ED0" unicode="&#x1ed0;" horiz-adv-x="789" 
d="M589 1024h207l-84 -149h-180zM320 903h142l165 -161h-192l-44 50l-44 -50h-192zM201.5 31q-86.5 46 -136.5 128.5t-50 189.5t50 190t136.5 129t193.5 46q106 0 192.5 -46t136.5 -129t50 -190t-50 -189.5t-136.5 -128.5t-192.5 -46q-107 0 -193.5 46zM494 246
q39 38 39 103t-39 103t-99 38q-61 0 -100 -38t-39 -103t39.5 -103t99.5 -38t99 38z" />
    <glyph glyph-name="uni1ED1" unicode="&#x1ed1;" horiz-adv-x="652" 
d="M518 799h207l-84 -149h-180zM249 678h142l165 -161h-192l-44 50l-44 -50h-192zM161.5 18q-70.5 33 -108.5 91t-38 131t38 131t108.5 91t164.5 33t164.5 -33t108.5 -91t38 -131t-38 -131t-108.5 -91t-164.5 -33t-164.5 33zM385 181q22 22 22 59t-22 59t-59 22t-59 -22
t-22 -59t22 -59t59 -22t59 22z" />
    <glyph glyph-name="uni1ED2" unicode="&#x1ed2;" horiz-adv-x="789" 
d="M-7 1024h207l57 -149h-180zM323 903h142l165 -161h-192l-44 50l-44 -50h-192zM201.5 31q-86.5 46 -136.5 128.5t-50 189.5t50 190t136.5 129t193.5 46q106 0 192.5 -46t136.5 -129t50 -190t-50 -189.5t-136.5 -128.5t-192.5 -46q-107 0 -193.5 46zM494 246q39 38 39 103
t-39 103t-99 38q-61 0 -100 -38t-39 -103t39.5 -103t99.5 -38t99 38z" />
    <glyph glyph-name="uni1ED3" unicode="&#x1ed3;" horiz-adv-x="652" 
d="M-75 799h207l57 -149h-180zM259 678h142l165 -161h-192l-44 50l-44 -50h-192zM161.5 18q-70.5 33 -108.5 91t-38 131t38 131t108.5 91t164.5 33t164.5 -33t108.5 -91t38 -131t-38 -131t-108.5 -91t-164.5 -33t-164.5 33zM385 181q22 22 22 59t-22 59t-59 22t-59 -22
t-22 -59t22 -59t59 -22t59 22z" />
    <glyph glyph-name="uni1ED4" unicode="&#x1ed4;" horiz-adv-x="789" 
d="M529 915q46 0 46 21q0 20 -38 20q-20 0 -32 -6v69q18 5 47.5 9t51.5 4q59 0 89.5 -20.5t30.5 -56.5q0 -46 -58 -66v-26h-137v52zM330 903h142l165 -161h-192l-44 50l-44 -50h-192zM201.5 31q-86.5 46 -136.5 128.5t-50 189.5t50 190t136.5 129t193.5 46q106 0 192.5 -46
t136.5 -129t50 -190t-50 -189.5t-136.5 -128.5t-192.5 -46q-107 0 -193.5 46zM494 246q39 38 39 103t-39 103t-99 38q-61 0 -100 -38t-39 -103t39.5 -103t99.5 -38t99 38z" />
    <glyph glyph-name="uni1ED5" unicode="&#x1ed5;" horiz-adv-x="652" 
d="M454 690q46 0 46 21q0 20 -38 20q-20 0 -32 -6v69q18 5 47.5 9t51.5 4q59 0 89.5 -20.5t30.5 -56.5q0 -46 -58 -66v-26h-137v52zM255 678h142l165 -161h-192l-44 50l-44 -50h-192zM161.5 18q-70.5 33 -108.5 91t-38 131t38 131t108.5 91t164.5 33t164.5 -33t108.5 -91
t38 -131t-38 -131t-108.5 -91t-164.5 -33t-164.5 33zM385 181q22 22 22 59t-22 59t-59 22t-59 -22t-22 -59t22 -59t59 -22t59 22z" />
    <glyph glyph-name="uni1ED6" unicode="&#x1ed6;" horiz-adv-x="789" 
d="M436.5 924.5q-19.5 5.5 -48.5 15.5q-49 19 -77 19q-52 0 -88 -39v113q29 32 88 32q19 0 37.5 -5t46.5 -15q29 -10 46.5 -15t34.5 -5q52 0 88 39v-113q-29 -32 -88 -32q-20 0 -39.5 5.5zM257 786q-53 44 -53 118h139q0 -25 13 -39t38 -14t38 14t13 39h139q0 -74 -53 -118
t-137 -44t-137 44zM201.5 31q-86.5 46 -136.5 128.5t-50 189.5t50 190t136.5 129t193.5 46q106 0 192.5 -46t136.5 -129t50 -190t-50 -189.5t-136.5 -128.5t-192.5 -46q-107 0 -193.5 46zM494 246q39 38 39 103t-39 103t-99 38q-61 0 -100 -38t-39 -103t39.5 -103t99.5 -38
t99 38z" />
    <glyph glyph-name="uni1ED7" unicode="&#x1ed7;" horiz-adv-x="652" 
d="M368.5 699.5q-19.5 5.5 -48.5 15.5q-49 19 -77 19q-52 0 -88 -39v113q29 32 88 32q19 0 37.5 -5t46.5 -15q29 -10 46.5 -15t34.5 -5q52 0 88 39v-113q-29 -32 -88 -32q-20 0 -39.5 5.5zM189 561q-53 44 -53 118h139q0 -25 13 -39t38 -14t38 14t13 39h139q0 -74 -53 -118
t-137 -44t-137 44zM161.5 18q-70.5 33 -108.5 91t-38 131t38 131t108.5 91t164.5 33t164.5 -33t108.5 -91t38 -131t-38 -131t-108.5 -91t-164.5 -33t-164.5 33zM385 181q22 22 22 59t-22 59t-59 22t-59 -22t-22 -59t22 -59t59 -22t59 22z" />
    <glyph glyph-name="uni1ED8" unicode="&#x1ed8;" horiz-adv-x="789" 
d="M293 933h202l165 -191h-207l-59 80l-59 -80h-207zM201.5 31q-86.5 46 -136.5 128.5t-50 189.5t50 190t136.5 129t193.5 46q106 0 192.5 -46t136.5 -129t50 -190t-50 -189.5t-136.5 -128.5t-192.5 -46q-107 0 -193.5 46zM494 246q39 38 39 103t-39 103t-99 38
q-61 0 -100 -38t-39 -103t39.5 -103t99.5 -38t99 38zM333 -194.5q-26 25.5 -26 61.5t26 62t62 26t61.5 -25.5t25.5 -62.5t-25.5 -62t-61.5 -25t-62 25.5z" />
    <glyph glyph-name="uni1ED9" unicode="&#x1ed9;" horiz-adv-x="652" 
d="M225 708h202l165 -191h-207l-59 80l-59 -80h-207zM161.5 18q-70.5 33 -108.5 91t-38 131t38 131t108.5 91t164.5 33t164.5 -33t108.5 -91t38 -131t-38 -131t-108.5 -91t-164.5 -33t-164.5 33zM385 181q22 22 22 59t-22 59t-59 22t-59 -22t-22 -59t22 -59t59 -22t59 22z
M265 -194.5q-26 25.5 -26 61.5t26 62t62 26t61.5 -25.5t25.5 -62.5t-25.5 -62t-61.5 -25t-62 25.5z" />
    <glyph glyph-name="uni1EDA" unicode="&#x1eda;" horiz-adv-x="919" 
d="M372 923h217l-95 -181h-190zM201.5 31q-86.5 46 -136.5 128.5t-50 189.5t50 190t136.5 129t193.5 46q71 0 133.5 -21t112.5 -60q57 0 80.5 21t23.5 61v32h179v-47q0 -84 -45.5 -140.5t-130.5 -69.5q26 -70 26 -141q0 -107 -50 -189.5t-136.5 -128.5t-192.5 -46
q-107 0 -193.5 46zM494 246q39 38 39 103t-39 103t-99 38q-61 0 -100 -38t-39 -103t39.5 -103t99.5 -38t99 38z" />
    <glyph glyph-name="uni1EDB" unicode="&#x1edb;" horiz-adv-x="748" 
d="M280 698h217l-95 -181h-190zM161.5 18q-70.5 33 -108.5 91t-38 131t38 131t108.5 91t164.5 33q114 0 195 -49q53 18 53 80v32h179v-47q0 -71 -32.5 -122.5t-94.5 -75.5q11 -36 11 -73q0 -73 -38 -131t-108.5 -91t-164.5 -33t-164.5 33zM385 181q22 22 22 59t-22 59
t-59 22t-59 -22t-22 -59t22 -59t59 -22t59 22z" />
    <glyph glyph-name="uni1EDC" unicode="&#x1edc;" horiz-adv-x="919" 
d="M196 923h217l68 -181h-190zM201.5 31q-86.5 46 -136.5 128.5t-50 189.5t50 190t136.5 129t193.5 46q71 0 133.5 -21t112.5 -60q57 0 80.5 21t23.5 61v32h179v-47q0 -84 -45.5 -140.5t-130.5 -69.5q26 -70 26 -141q0 -107 -50 -189.5t-136.5 -128.5t-192.5 -46
q-107 0 -193.5 46zM494 246q39 38 39 103t-39 103t-99 38q-61 0 -100 -38t-39 -103t39.5 -103t99.5 -38t99 38z" />
    <glyph glyph-name="uni1EDD" unicode="&#x1edd;" horiz-adv-x="748" 
d="M121 698h217l68 -181h-190zM161.5 18q-70.5 33 -108.5 91t-38 131t38 131t108.5 91t164.5 33q114 0 195 -49q53 18 53 80v32h179v-47q0 -71 -32.5 -122.5t-94.5 -75.5q11 -36 11 -73q0 -73 -38 -131t-108.5 -91t-164.5 -33t-164.5 33zM385 181q22 22 22 59t-22 59t-59 22
t-59 -22t-22 -59t22 -59t59 -22t59 22z" />
    <glyph glyph-name="uni1EDE" unicode="&#x1ede;" horiz-adv-x="919" 
d="M296 816q42 0 59 9t17 29q0 17 -14 24.5t-45 7.5q-28 0 -57 -9v85q26 8 67.5 13.5t73.5 5.5q87 0 132 -27.5t45 -76.5q0 -37 -24 -59.5t-67 -35.5v-40h-187v74zM201.5 31q-86.5 46 -136.5 128.5t-50 189.5t50 190t136.5 129t193.5 46q71 0 133.5 -21t112.5 -60
q57 0 80.5 21t23.5 61v32h179v-47q0 -84 -45.5 -140.5t-130.5 -69.5q26 -70 26 -141q0 -107 -50 -189.5t-136.5 -128.5t-192.5 -46q-107 0 -193.5 46zM494 246q39 38 39 103t-39 103t-99 38q-61 0 -100 -38t-39 -103t39.5 -103t99.5 -38t99 38z" />
    <glyph glyph-name="uni1EDF" unicode="&#x1edf;" horiz-adv-x="748" 
d="M219 591q42 0 59 9t17 29q0 17 -14 24.5t-45 7.5q-28 0 -57 -9v85q26 8 67.5 13.5t73.5 5.5q87 0 132 -27.5t45 -76.5q0 -37 -24 -59.5t-67 -35.5v-40h-187v74zM161.5 18q-70.5 33 -108.5 91t-38 131t38 131t108.5 91t164.5 33q114 0 195 -49q53 18 53 80v32h179v-47
q0 -71 -32.5 -122.5t-94.5 -75.5q11 -36 11 -73q0 -73 -38 -131t-108.5 -91t-164.5 -33t-164.5 33zM385 181q22 22 22 59t-22 59t-59 22t-59 -22t-22 -59t22 -59t59 -22t59 22z" />
    <glyph glyph-name="uni1EE0" unicode="&#x1ee0;" horiz-adv-x="919" 
d="M471 748.5q-25 6.5 -59 19.5q-32 12 -53 18t-42 6q-65 0 -110 -49v153q36 40 110 40q23 0 46 -6.5t58 -18.5q32 -12 55 -18.5t45 -6.5q65 0 110 49v-153q-36 -40 -110 -40q-25 0 -50 6.5zM201.5 31q-86.5 46 -136.5 128.5t-50 189.5t50 190t136.5 129t193.5 46
q71 0 133.5 -21t112.5 -60q57 0 80.5 21t23.5 61v32h179v-47q0 -84 -45.5 -140.5t-130.5 -69.5q26 -70 26 -141q0 -107 -50 -189.5t-136.5 -128.5t-192.5 -46q-107 0 -193.5 46zM494 246q39 38 39 103t-39 103t-99 38q-61 0 -100 -38t-39 -103t39.5 -103t99.5 -38t99 38z
" />
    <glyph glyph-name="uni1EE1" unicode="&#x1ee1;" horiz-adv-x="748" 
d="M374 523.5q-25 6.5 -59 19.5q-32 12 -53 18t-42 6q-65 0 -110 -49v153q36 40 110 40q23 0 46 -6.5t58 -18.5q32 -12 55 -18.5t45 -6.5q65 0 110 49v-153q-36 -40 -110 -40q-25 0 -50 6.5zM161.5 18q-70.5 33 -108.5 91t-38 131t38 131t108.5 91t164.5 33q114 0 195 -49
q53 18 53 80v32h179v-47q0 -71 -32.5 -122.5t-94.5 -75.5q11 -36 11 -73q0 -73 -38 -131t-108.5 -91t-164.5 -33t-164.5 33zM385 181q22 22 22 59t-22 59t-59 22t-59 -22t-22 -59t22 -59t59 -22t59 22z" />
    <glyph glyph-name="uni1EE2" unicode="&#x1ee2;" horiz-adv-x="919" 
d="M65 539q50 83 136.5 129t193.5 46q71 0 133.5 -21t112.5 -60q57 0 80.5 21t23.5 61v32h179v-47q0 -84 -45.5 -140.5t-130.5 -69.5q26 -70 26 -141q0 -107 -50 -189.5t-136.5 -128.5t-192.5 -46q-107 0 -193.5 46t-136.5 128.5t-50 189.5t50 190zM295.5 246
q39.5 -38 99.5 -38t99 38t39 103t-39 103t-99 38q-61 0 -100 -38t-39 -103t39.5 -103zM340 -71q26 26 62 26t61.5 -25.5t25.5 -62.5t-25.5 -62t-61.5 -25t-62 25.5t-26 61.5t26 62z" />
    <glyph glyph-name="uni1EE3" unicode="&#x1ee3;" horiz-adv-x="748" 
d="M161.5 18q-70.5 33 -108.5 91t-38 131t38 131t108.5 91t164.5 33q114 0 195 -49q53 18 53 80v32h179v-47q0 -71 -32.5 -122.5t-94.5 -75.5q11 -36 11 -73q0 -73 -38 -131t-108.5 -91t-164.5 -33t-164.5 33zM385 181q22 22 22 59t-22 59t-59 22t-59 -22t-22 -59t22 -59
t59 -22t59 22zM266 -194.5q-26 25.5 -26 61.5t26 62t62 26t61.5 -25.5t25.5 -62.5t-25.5 -62t-61.5 -25t-62 25.5z" />
    <glyph glyph-name="uni1EE4" unicode="&#x1ee4;" horiz-adv-x="734" 
d="M178 28q-76 43 -112 117t-36 170v384h237v-377q0 -59 24 -89t76 -30t75.5 30t23.5 89v377h238v-384q0 -96 -36 -170t-112 -117t-189 -43t-189 43zM306 -194.5q-26 25.5 -26 61.5t26 62t62 26t61.5 -25.5t25.5 -62.5t-25.5 -62t-61.5 -25t-62 25.5z" />
    <glyph glyph-name="uni1EE5" unicode="&#x1ee5;" horiz-adv-x="638" 
d="M80.5 42q-50.5 57 -50.5 151v287h225v-259q0 -62 53 -62q48 0 70 45v276h225v-480h-217v40q-30 -26 -70 -40.5t-84 -14.5q-101 0 -151.5 57zM254 -194.5q-26 25.5 -26 61.5t26 62t62 26t61.5 -25.5t25.5 -62.5t-25.5 -62t-61.5 -25t-62 25.5z" />
    <glyph glyph-name="uni1EE6" unicode="&#x1ee6;" horiz-adv-x="734" 
d="M267 816q42 0 59 9t17 29q0 17 -14 24.5t-45 7.5q-28 0 -57 -9v85q26 8 67.5 13.5t73.5 5.5q87 0 132 -27.5t45 -76.5q0 -37 -24 -59.5t-67 -35.5v-40h-187v74zM178 28q-76 43 -112 117t-36 170v384h237v-377q0 -59 24 -89t76 -30t75.5 30t23.5 89v377h238v-384
q0 -96 -36 -170t-112 -117t-189 -43t-189 43z" />
    <glyph glyph-name="uni1EE7" unicode="&#x1ee7;" horiz-adv-x="638" 
d="M218 591q42 0 59 9t17 29q0 17 -14 24.5t-45 7.5q-28 0 -57 -9v85q26 8 67.5 13.5t73.5 5.5q87 0 132 -27.5t45 -76.5q0 -37 -24 -59.5t-67 -35.5v-40h-187v74zM80.5 42q-50.5 57 -50.5 151v287h225v-259q0 -62 53 -62q48 0 70 45v276h225v-480h-217v40
q-30 -26 -70 -40.5t-84 -14.5q-101 0 -151.5 57z" />
    <glyph glyph-name="uni1EE8" unicode="&#x1ee8;" horiz-adv-x="952" 
d="M337 923h217l-95 -181h-190zM178 28q-76 43 -112 117t-36 170v384h237v-377q0 -59 24 -89t76 -30t75.5 30t23.5 89v377h238v-60q43 0 58.5 18.5t15.5 57.5v32h179v-47q0 -98 -61.5 -156t-191.5 -58v-171q0 -96 -36 -170t-112 -117t-189 -43t-189 43z" />
    <glyph glyph-name="uni1EE9" unicode="&#x1ee9;" horiz-adv-x="816" 
d="M240 707h217l-95 -181h-190zM80.5 42q-50.5 57 -50.5 151v287h225v-259q0 -62 53 -62q48 0 70 45v276h225v-40q28 4 38.5 21.5t10.5 55.5v41h179v-47q0 -93 -55.5 -150.5t-172.5 -63.5v-297h-217v40q-30 -26 -70 -40.5t-84 -14.5q-101 0 -151.5 57z" />
    <glyph glyph-name="uni1EEA" unicode="&#x1eea;" horiz-adv-x="952" 
d="M178 923h217l68 -181h-190zM178 28q-76 43 -112 117t-36 170v384h237v-377q0 -59 24 -89t76 -30t75.5 30t23.5 89v377h238v-60q43 0 58.5 18.5t15.5 57.5v32h179v-47q0 -98 -61.5 -156t-191.5 -58v-171q0 -96 -36 -170t-112 -117t-189 -43t-189 43z" />
    <glyph glyph-name="uni1EEB" unicode="&#x1eeb;" horiz-adv-x="816" 
d="M105 747h217l68 -181h-190zM80.5 42q-50.5 57 -50.5 151v287h225v-259q0 -62 53 -62q48 0 70 45v276h225v-40q28 4 38.5 21.5t10.5 55.5v41h179v-47q0 -93 -55.5 -150.5t-172.5 -63.5v-297h-217v40q-30 -26 -70 -40.5t-84 -14.5q-101 0 -151.5 57z" />
    <glyph glyph-name="uni1EEC" unicode="&#x1eec;" horiz-adv-x="952" 
d="M280 816q42 0 59 9t17 29q0 17 -14 24.5t-45 7.5q-28 0 -57 -9v85q26 8 67.5 13.5t73.5 5.5q87 0 132 -27.5t45 -76.5q0 -37 -24 -59.5t-67 -35.5v-40h-187v74zM178 28q-76 43 -112 117t-36 170v384h237v-377q0 -59 24 -89t76 -30t75.5 30t23.5 89v377h238v-60
q43 0 58.5 18.5t15.5 57.5v32h179v-47q0 -98 -61.5 -156t-191.5 -58v-171q0 -96 -36 -170t-112 -117t-189 -43t-189 43z" />
    <glyph glyph-name="uni1EED" unicode="&#x1eed;" horiz-adv-x="816" 
d="M178 630q42 0 59 9t17 29q0 17 -14 24.5t-45 7.5q-28 0 -57 -9v85q26 8 67.5 13.5t73.5 5.5q87 0 132 -27.5t45 -76.5q0 -37 -24 -59.5t-67 -35.5v-40h-187v74zM80.5 42q-50.5 57 -50.5 151v287h225v-259q0 -62 53 -62q48 0 70 45v276h225v-40q28 4 38.5 21.5t10.5 55.5
v41h179v-47q0 -93 -55.5 -150.5t-172.5 -63.5v-297h-217v40q-30 -26 -70 -40.5t-84 -14.5q-101 0 -151.5 57z" />
    <glyph glyph-name="uni1EEE" unicode="&#x1eee;" horiz-adv-x="952" 
d="M441 748.5q-25 6.5 -59 19.5q-32 12 -53 18t-42 6q-65 0 -110 -49v153q36 40 110 40q23 0 46 -6.5t58 -18.5q32 -12 55 -18.5t45 -6.5q65 0 110 49v-153q-36 -40 -110 -40q-25 0 -50 6.5zM178 28q-76 43 -112 117t-36 170v384h237v-377q0 -59 24 -89t76 -30t75.5 30
t23.5 89v377h238v-60q43 0 58.5 18.5t15.5 57.5v32h179v-47q0 -98 -61.5 -156t-191.5 -58v-171q0 -96 -36 -170t-112 -117t-189 -43t-189 43z" />
    <glyph glyph-name="uni1EEF" unicode="&#x1eef;" horiz-adv-x="816" 
d="M325 570.5q-25 6.5 -59 19.5q-32 12 -53 18t-42 6q-65 0 -110 -49v153q36 40 110 40q23 0 46 -6.5t58 -18.5q32 -12 55 -18.5t45 -6.5q65 0 110 49v-153q-36 -40 -110 -40q-25 0 -50 6.5zM80.5 42q-50.5 57 -50.5 151v287h225v-259q0 -62 53 -62q48 0 70 45v276h225v-40
q28 4 38.5 21.5t10.5 55.5v41h179v-47q0 -93 -55.5 -150.5t-172.5 -63.5v-297h-217v40q-30 -26 -70 -40.5t-84 -14.5q-101 0 -151.5 57z" />
    <glyph glyph-name="uni1EF0" unicode="&#x1ef0;" horiz-adv-x="952" 
d="M178 28q-76 43 -112 117t-36 170v384h237v-377q0 -59 24 -89t76 -30t75.5 30t23.5 89v377h238v-60q43 0 58.5 18.5t15.5 57.5v32h179v-47q0 -98 -61.5 -156t-191.5 -58v-171q0 -96 -36 -170t-112 -117t-189 -43t-189 43zM308 -194.5q-26 25.5 -26 61.5t26 62t62 26
t61.5 -25.5t25.5 -62.5t-25.5 -62t-61.5 -25t-62 25.5z" />
    <glyph glyph-name="uni1EF1" unicode="&#x1ef1;" horiz-adv-x="816" 
d="M80.5 42q-50.5 57 -50.5 151v287h225v-259q0 -62 53 -62q48 0 70 45v276h225v-40q28 4 38.5 21.5t10.5 55.5v41h179v-47q0 -93 -55.5 -150.5t-172.5 -63.5v-297h-217v40q-30 -26 -70 -40.5t-84 -14.5q-101 0 -151.5 57zM213 -194.5q-26 25.5 -26 61.5t26 62t62 26
t61.5 -25.5t25.5 -62.5t-25.5 -62t-61.5 -25t-62 25.5z" />
    <glyph glyph-name="Ygrave" unicode="&#x1ef2;" horiz-adv-x="783" 
d="M193 923h217l68 -181h-190zM268 267l-253 432h253l119 -221l129 221h252l-263 -432v-267h-237v267z" />
    <glyph glyph-name="ygrave" unicode="&#x1ef3;" horiz-adv-x="659" 
d="M144 698h217l68 -181h-190zM126.5 -192q-41.5 6 -60.5 15v166q31 -13 71 -13q29 0 45.5 12t25.5 36l5 14l-208 442h225l102 -274l97 274h225l-186 -480q-39 -101 -101.5 -149.5t-161.5 -48.5q-37 0 -78.5 6z" />
    <glyph glyph-name="uni1EF4" unicode="&#x1ef4;" horiz-adv-x="783" 
d="M268 267l-253 432h253l119 -221l129 221h252l-263 -432v-267h-237v267zM326 -194.5q-26 25.5 -26 61.5t26 62t62 26t61.5 -25.5t25.5 -62.5t-25.5 -62t-61.5 -25t-62 25.5z" />
    <glyph glyph-name="uni1EF5" unicode="&#x1ef5;" horiz-adv-x="659" 
d="M126.5 -192q-41.5 6 -60.5 15v166q31 -13 71 -13q29 0 45.5 12t25.5 36l5 14l-208 442h225l102 -274l97 274h225l-186 -480q-39 -101 -101.5 -149.5t-161.5 -48.5q-37 0 -78.5 6zM496 -184.5q-26 25.5 -26 61.5t26 62t62 26t61.5 -25.5t25.5 -62.5t-25.5 -62t-61.5 -25
t-62 25.5z" />
    <glyph glyph-name="uni1EF6" unicode="&#x1ef6;" horiz-adv-x="783" 
d="M293 816q42 0 59 9t17 29q0 17 -14 24.5t-45 7.5q-28 0 -57 -9v85q26 8 67.5 13.5t73.5 5.5q87 0 132 -27.5t45 -76.5q0 -37 -24 -59.5t-67 -35.5v-40h-187v74zM268 267l-253 432h253l119 -221l129 221h252l-263 -432v-267h-237v267z" />
    <glyph glyph-name="uni1EF7" unicode="&#x1ef7;" horiz-adv-x="659" 
d="M238 591q42 0 59 9t17 29q0 17 -14 24.5t-45 7.5q-28 0 -57 -9v85q26 8 67.5 13.5t73.5 5.5q87 0 132 -27.5t45 -76.5q0 -37 -24 -59.5t-67 -35.5v-40h-187v74zM126.5 -192q-41.5 6 -60.5 15v166q31 -13 71 -13q29 0 45.5 12t25.5 36l5 14l-208 442h225l102 -274l97 274
h225l-186 -480q-39 -101 -101.5 -149.5t-161.5 -48.5q-37 0 -78.5 6z" />
    <glyph glyph-name="uni1EF8" unicode="&#x1ef8;" horiz-adv-x="783" 
d="M439 748.5q-25 6.5 -59 19.5q-32 12 -53 18t-42 6q-65 0 -110 -49v153q36 40 110 40q23 0 46 -6.5t58 -18.5q32 -12 55 -18.5t45 -6.5q65 0 110 49v-153q-36 -40 -110 -40q-25 0 -50 6.5zM268 267l-253 432h253l119 -221l129 221h252l-263 -432v-267h-237v267z" />
    <glyph glyph-name="uni1EF9" unicode="&#x1ef9;" horiz-adv-x="659" 
d="M396 523.5q-25 6.5 -59 19.5q-32 12 -53 18t-42 6q-65 0 -110 -49v153q36 40 110 40q23 0 46 -6.5t58 -18.5q32 -12 55 -18.5t45 -6.5q65 0 110 49v-153q-36 -40 -110 -40q-25 0 -50 6.5zM126.5 -192q-41.5 6 -60.5 15v166q31 -13 71 -13q29 0 45.5 12t25.5 36l5 14
l-208 442h225l102 -274l97 274h225l-186 -480q-39 -101 -101.5 -149.5t-161.5 -48.5q-37 0 -78.5 6z" />
    <glyph glyph-name="uni2007" unicode="&#x2007;" 
 />
    <glyph glyph-name="uni2010" unicode="&#x2010;" horiz-adv-x="430" 
d="M15 376h400v-179h-400v179z" />
    <glyph glyph-name="figuredash" unicode="&#x2012;" horiz-adv-x="704" 
d="M15 376h674v-179h-674v179z" />
    <glyph glyph-name="endash" unicode="&#x2013;" horiz-adv-x="674" 
d="M15 396h644v-179h-644v179z" />
    <glyph glyph-name="emdash" unicode="&#x2014;" horiz-adv-x="802" 
d="M15 396h772v-179h-772v179z" />
    <glyph glyph-name="uni2015" unicode="&#x2015;" horiz-adv-x="960" 
d="M15 376h930v-179h-930v179z" />
    <glyph glyph-name="quoteleft" unicode="&#x2018;" horiz-adv-x="300" 
d="M100 714h185l-62 -203h-208z" />
    <glyph glyph-name="quoteright" unicode="&#x2019;" horiz-adv-x="305" 
d="M77 714h213l-85 -203h-190z" />
    <glyph glyph-name="quotesinglbase" unicode="&#x201a;" horiz-adv-x="305" 
d="M77 71h213l-85 -203h-190z" />
    <glyph glyph-name="quotedblleft" unicode="&#x201c;" horiz-adv-x="500" 
d="M100 714h170l-62 -203h-193zM315 714h170l-62 -203h-193z" />
    <glyph glyph-name="quotedblright" unicode="&#x201d;" horiz-adv-x="500" 
d="M77 714h193l-85 -203h-170zM292 714h193l-85 -203h-170z" />
    <glyph glyph-name="quotedblbase" unicode="&#x201e;" horiz-adv-x="500" 
d="M77 71h193l-85 -203h-170zM292 71h193l-85 -203h-170z" />
    <glyph glyph-name="dagger" unicode="&#x2020;" horiz-adv-x="545" 
d="M154 345h-139v199h139v155h237v-155h139v-199h-139v-415h-237v415z" />
    <glyph glyph-name="daggerdbl" unicode="&#x2021;" horiz-adv-x="545" 
d="M154 123h-139v199h139v58h-139v199h139v120h237v-120h139v-199h-139v-58h139v-199h-139v-123h-237v123z" />
    <glyph glyph-name="bullet" unicode="&#x2022;" horiz-adv-x="258" 
d="M48 217q-33 33 -33 81t33 81t81 33t81 -33t33 -81t-33 -81t-81 -33t-81 33z" />
    <glyph glyph-name="ellipsis" unicode="&#x2026;" horiz-adv-x="584" 
d="M37 22q-22 22 -22 53q0 32 22 54.5t53 22.5q32 0 54.5 -22.5t22.5 -54.5q0 -31 -22.5 -53t-54.5 -22q-31 0 -53 22zM238 22q-22 22 -22 53q0 32 22 54.5t53 22.5q32 0 54.5 -22.5t22.5 -54.5q0 -31 -22.5 -53t-54.5 -22q-31 0 -53 22zM439 22q-22 22 -22 53q0 32 22 54.5
t53 22.5q32 0 54.5 -22.5t22.5 -54.5q0 -31 -22.5 -53t-54.5 -22q-31 0 -53 22z" />
    <glyph glyph-name="perthousand" unicode="&#x2030;" horiz-adv-x="1301" 
d="M106 371.5q-42 24.5 -66.5 66.5t-24.5 92t24.5 92.5t66.5 67t92 24.5t92.5 -24.5t67 -67t24.5 -92.5t-24.5 -92t-67 -66.5t-92.5 -24.5t-92 24.5zM531 699h230l-387 -699h-230zM236 489.5q15 15.5 15 37.5q0 23 -15.5 38.5t-37.5 15.5t-37.5 -15.5t-15.5 -38.5
q0 -22 15.5 -37.5t37.5 -15.5q23 0 38 15.5zM613 9.5q-42 24.5 -66.5 66.5t-24.5 92t24.5 92.5t66.5 67t92 24.5t92.5 -24.5t67 -67t24.5 -92.5t-24.5 -92t-67 -66.5t-92.5 -24.5t-92 24.5zM1010 9.5q-42 24.5 -66.5 66.5t-24.5 92t24.5 92.5t66.5 67t92 24.5t92.5 -24.5
t67 -67t24.5 -92.5t-24.5 -92t-67 -66.5t-92.5 -24.5t-92 24.5zM743 127.5q15 15.5 15 37.5q0 23 -15.5 38.5t-37.5 15.5t-37.5 -15.5t-15.5 -38.5q0 -22 15.5 -37.5t37.5 -15.5q23 0 38 15.5zM1140 127.5q15 15.5 15 37.5q0 23 -15.5 38.5t-37.5 15.5t-37.5 -15.5
t-15.5 -38.5q0 -22 15.5 -37.5t37.5 -15.5q23 0 38 15.5z" />
    <glyph glyph-name="minute" unicode="&#x2032;" horiz-adv-x="192" 
d="M15 699h162v-217h-162v217z" />
    <glyph glyph-name="second" unicode="&#x2033;" horiz-adv-x="382" 
d="M15 699h162v-217h-162v217zM205 699h162v-217h-162v217z" />
    <glyph glyph-name="guilsinglleft" unicode="&#x2039;" horiz-adv-x="419" 
d="M15 306v42l256 240l133 -120l-150 -141l150 -141l-133 -120z" />
    <glyph glyph-name="guilsinglright" unicode="&#x203a;" horiz-adv-x="419" 
d="M15 186l150 141l-150 141l133 120l256 -240v-42l-256 -240z" />
    <glyph glyph-name="fraction" unicode="&#x2044;" horiz-adv-x="285" 
d="M220 714h230l-385 -729h-230z" />
    <glyph glyph-name="uni2070" unicode="&#x2070;" horiz-adv-x="416" 
d="M67 406q-52 46 -52 128q0 83 51.5 129t142.5 46q90 0 141 -46t51 -129q0 -82 -51.5 -128t-140.5 -46q-90 0 -142 46zM256 533q0 81 -47 81q-26 0 -37.5 -20.5t-11.5 -60.5q0 -78 49 -78q47 0 47 78z" />
    <glyph glyph-name="uni2074" unicode="&#x2074;" horiz-adv-x="331" 
d="M132 419h-137v95l140 185h158v-177h43v-103h-43v-49h-161v49zM187 522v69l-55 -69h55z" />
    <glyph glyph-name="uni2075" unicode="&#x2075;" horiz-adv-x="348" 
d="M74 367.5q-36 7.5 -59 18.5v97q46 -29 102 -29q50 0 50 31q0 14 -12 22t-33 8q-35 0 -65 -10l-39 23l12 171h282v-97h-157l-2 -21q29 6 63 6q57 0 87 -28t30 -78q0 -59 -51.5 -90t-136.5 -31q-35 0 -71 7.5z" />
    <glyph glyph-name="uni2076" unicode="&#x2076;" horiz-adv-x="367" 
d="M60 403.5q-45 43.5 -45 117.5q0 88 54.5 138t143.5 50q26 0 53 -3t39 -8v-94q-23 12 -74 12q-26 0 -47 -9t-27 -27q11 7 30 11t37 4q61 0 94.5 -29t33.5 -83t-41.5 -88.5t-122.5 -34.5q-83 0 -128 43.5zM208.5 453q8.5 9 8.5 24q0 17 -8.5 26t-24.5 9q-15 0 -24 -9.5
t-9 -25.5q0 -14 9 -23.5t24 -9.5q16 0 24.5 9z" />
    <glyph glyph-name="uni2077" unicode="&#x2077;" horiz-adv-x="312" 
d="M130 576h-125v123h302v-80l-113 -249h-159z" />
    <glyph glyph-name="uni2078" unicode="&#x2078;" horiz-adv-x="384" 
d="M60 388.5q-45 28.5 -45 77.5q0 26 11 45.5t30 28.5q-30 25 -30 66q0 51 43.5 77t122.5 26t122.5 -26t43.5 -77q0 -41 -30 -66q19 -9 30 -28.5t11 -45.5q0 -49 -45 -77.5t-132 -28.5t-132 28.5zM212.5 575q8.5 8 8.5 21q0 12 -8.5 20.5t-20.5 8.5t-20.5 -8.5t-8.5 -20.5
q0 -13 8.5 -21t20.5 -8t20.5 8zM215.5 453.5q9.5 9.5 9.5 23.5t-9.5 24t-23.5 10t-24 -10t-10 -24t10 -23.5t24 -9.5t23.5 9.5z" />
    <glyph glyph-name="uni2079" unicode="&#x2079;" horiz-adv-x="367" 
d="M101 363q-27 3 -39 8v94q23 -12 74 -12q26 0 47 9t27 27q-11 -7 -30 -11t-37 -4q-61 0 -94.5 29t-33.5 83t41.5 88.5t122.5 34.5q83 0 128 -43.5t45 -117.5q0 -88 -54.5 -138t-143.5 -50q-26 0 -53 3zM207 566.5q9 9.5 9 25.5q0 14 -9 23.5t-24 9.5q-16 0 -24.5 -9
t-8.5 -24q0 -17 8.5 -26t24.5 -9q15 0 24 9.5z" />
    <glyph glyph-name="uni207D" unicode="&#x207d;" horiz-adv-x="255" 
d="M30.5 438q-15.5 44 -15.5 96q0 103 59 175h166q-59 -76 -59 -175q0 -98 59 -174h-166q-28 34 -43.5 78z" />
    <glyph glyph-name="uni207E" unicode="&#x207e;" horiz-adv-x="255" 
d="M74 534q0 99 -59 175h166q59 -72 59 -175q0 -52 -15.5 -96t-43.5 -78h-166q59 76 59 174z" />
    <glyph glyph-name="uni207F" unicode="&#x207f;" horiz-adv-x="445" 
d="M20 699h156v-24q21 18 49.5 28.5t59.5 10.5q145 0 145 -142v-212h-161v188q0 21 -8.5 31t-27.5 10q-34 0 -52 -32v-197h-161v339z" />
    <glyph glyph-name="uni2080" unicode="&#x2080;" horiz-adv-x="416" 
d="M67 -124q-52 46 -52 128q0 83 51.5 129t142.5 46q90 0 141 -46t51 -129q0 -82 -51.5 -128t-140.5 -46q-90 0 -142 46zM256 3q0 81 -47 81q-26 0 -37.5 -20.5t-11.5 -60.5q0 -78 49 -78q47 0 47 78z" />
    <glyph glyph-name="uni2081" unicode="&#x2081;" horiz-adv-x="236" 
d="M80 13l-65 -46v141l83 61h143v-329h-161v173z" />
    <glyph glyph-name="uni2082" unicode="&#x2082;" horiz-adv-x="346" 
d="M15 -83q75 42 108 67.5t33 44.5q0 13 -9.5 18.5t-31.5 5.5q-50 0 -90 -33v126q21 15 63 24t82 9q73 0 112.5 -32.5t39.5 -79.5q0 -37 -20 -63t-70 -59h99v-105h-316v77z" />
    <glyph glyph-name="uni2083" unicode="&#x2083;" horiz-adv-x="348" 
d="M80 -164q-40 6 -65 17v95q46 -23 92 -23q51 0 51 24q0 12 -11.5 16.5t-41.5 4.5h-41v71h39q24 0 35 5t11 16q0 22 -42 22q-47 0 -87 -26v97q23 10 64.5 17t78.5 7q74 0 117.5 -28t43.5 -76q0 -40 -29 -70q38 -24 38 -70q0 -48 -45 -76.5t-127 -28.5q-41 0 -81 6z" />
    <glyph glyph-name="uni2084" unicode="&#x2084;" horiz-adv-x="331" 
d="M132 -111h-137v95l140 185h158v-177h43v-103h-43v-49h-161v49zM187 -8v69l-55 -69h55z" />
    <glyph glyph-name="uni2085" unicode="&#x2085;" horiz-adv-x="348" 
d="M74 -162.5q-36 7.5 -59 18.5v97q46 -29 102 -29q50 0 50 31q0 14 -12 22t-33 8q-35 0 -65 -10l-39 23l12 171h282v-97h-157l-2 -21q29 6 63 6q57 0 87 -28t30 -78q0 -59 -51.5 -90t-136.5 -31q-35 0 -71 7.5z" />
    <glyph glyph-name="uni2086" unicode="&#x2086;" horiz-adv-x="367" 
d="M60 -126.5q-45 43.5 -45 117.5q0 88 54.5 138t143.5 50q26 0 53 -3t39 -8v-94q-23 12 -74 12q-26 0 -47 -9t-27 -27q11 7 30 11t37 4q61 0 94.5 -29t33.5 -83t-41.5 -88.5t-122.5 -34.5q-83 0 -128 43.5zM208.5 -77q8.5 9 8.5 24q0 17 -8.5 26t-24.5 9q-15 0 -24 -9.5
t-9 -25.5q0 -14 9 -23.5t24 -9.5q16 0 24.5 9z" />
    <glyph glyph-name="uni2087" unicode="&#x2087;" horiz-adv-x="312" 
d="M130 46h-125v123h302v-80l-113 -249h-159z" />
    <glyph glyph-name="uni2088" unicode="&#x2088;" horiz-adv-x="384" 
d="M60 -141.5q-45 28.5 -45 77.5q0 26 11 45.5t30 28.5q-30 25 -30 66q0 51 43.5 77t122.5 26t122.5 -26t43.5 -77q0 -41 -30 -66q19 -9 30 -28.5t11 -45.5q0 -49 -45 -77.5t-132 -28.5t-132 28.5zM212.5 45q8.5 8 8.5 21q0 12 -8.5 20.5t-20.5 8.5t-20.5 -8.5t-8.5 -20.5
q0 -13 8.5 -21t20.5 -8t20.5 8zM215.5 -76.5q9.5 9.5 9.5 23.5t-9.5 24t-23.5 10t-24 -10t-10 -24t10 -23.5t24 -9.5t23.5 9.5z" />
    <glyph glyph-name="uni2089" unicode="&#x2089;" horiz-adv-x="373" 
d="M101 -167q-27 3 -39 8v94q23 -12 74 -12q26 0 47 9t27 27q-11 -7 -30 -11t-37 -4q-61 0 -94.5 29t-33.5 83t41.5 88.5t122.5 34.5q83 0 128 -43.5t45 -117.5q0 -88 -54.5 -138t-143.5 -50q-26 0 -53 3zM207 36.5q9 9.5 9 25.5q0 14 -9 23.5t-24 9.5q-16 0 -24.5 -9
t-8.5 -24q0 -17 8.5 -26t24.5 -9q15 0 24 9.5z" />
    <glyph glyph-name="uni208D" unicode="&#x208d;" horiz-adv-x="255" 
d="M30.5 -102q-15.5 44 -15.5 96q0 103 59 175h166q-59 -76 -59 -175q0 -98 59 -174h-166q-28 34 -43.5 78z" />
    <glyph glyph-name="uni208E" unicode="&#x208e;" horiz-adv-x="255" 
d="M74 -6q0 99 -59 175h166q59 -72 59 -175q0 -52 -15.5 -96t-43.5 -78h-166q59 76 59 174z" />
    <glyph glyph-name="colonmonetary" unicode="&#x20a1;" horiz-adv-x="671" 
d="M96 105q-81 95 -81 244q0 142 73.5 234.5t205.5 119.5l30 81h137l-26 -71q36 -2 56 -4l28 75h137l-40 -109q26 -13 31 -16v-224q-43 32 -97.5 46t-126.5 14q-78 0 -122.5 -37.5t-44.5 -108.5t45 -108.5t122 -37.5q70 0 126 15.5t106 47.5v-223q-101 -58 -253 -58l-17 1
l-22 -61h-138l30 80q-33 11 -51 20l-36 -100h-138z" />
    <glyph glyph-name="lira" unicode="&#x20a4;" horiz-adv-x="484" 
d="M15 142h62v39h-62v118h62v43h-62v118h62v27q0 72 33 123t90.5 77.5t129.5 26.5q65 0 109 -21v-179q-32 17 -68 17q-33 0 -51 -16t-18 -48v-7h107v-118h-107v-43h107v-118h-107v-39h167v-142h-454v142z" />
    <glyph glyph-name="uni20A6" unicode="&#x20a6;" horiz-adv-x="738" 
d="M77 154h-62v159h62v75h-62v169h62v142h217l140 -315v315h227v-142h62v-169h-62v-75h62v-159h-62v-154h-217l-140 316v-316h-227v154z" />
    <glyph glyph-name="peseta" unicode="&#x20a7;" horiz-adv-x="1508" 
d="M704 40q-50 55 -50 147v145h-65q-30 -69 -97.5 -105t-162.5 -36h-57v-191h-237v699h294q120 0 194.5 -56t85.5 -163h45v144h225v-144h94v-148h-94v-112q0 -33 12 -47t41 -14q37 0 71 21q42 -24 103 -41t109 -17q23 0 33 2t10 9q0 5 -9 8t-24 6q-36 7 -64 15
q-91 28 -128.5 64.5t-37.5 103.5q0 84 66 124.5t182 40.5q54 0 119.5 -12t96.5 -31v-152q-30 21 -85 36.5t-98 15.5q-20 0 -33 -3t-13 -8t11 -9t35 -8q47 -9 53 -11q66 -17 101.5 -39.5t49 -52.5t13.5 -76q0 -73 -65 -116.5t-187 -43.5q-76 0 -141.5 8.5t-96.5 26.5
q-27 -18 -62.5 -26.5t-88.5 -8.5q-98 0 -148 55zM289 370q41 0 61 16.5t20 58.5t-20 58.5t-61 16.5h-17v-150h17z" />
    <glyph glyph-name="dong" unicode="&#x20ab;" horiz-adv-x="674" 
d="M671 528h-32v-528h-217v40q-27 -25 -67.5 -40t-83.5 -15q-78 0 -135.5 31.5t-89 89.5t-31.5 134q0 75 31.5 133t89.5 90t135 32q42 0 80.5 -12.5t62.5 -32.5v78h-126v157h126v54h225v-54h32v-157zM414 276q-11 21 -33 33t-48 12q-40 0 -62.5 -21t-22.5 -61t22.5 -60
t62.5 -20q26 0 48 12t33 33v72zM109 -40h530v-169h-530v169z" />
    <glyph glyph-name="Euro" unicode="&#x20ac;" horiz-adv-x="603" 
d="M173.5 48q-82.5 63 -111.5 178h-57v111h43v26h-43v111h58q29 114 111 177t201 63q67 0 115 -12.5t100 -42.5v-214q-44 32 -86.5 46t-97.5 14q-54 0 -82 -31h100v-111h-135v-26h135v-111h-103q29 -33 85 -33q54 0 97.5 15t94.5 48v-213q-54 -31 -102.5 -44.5t-120.5 -13.5
q-119 0 -201.5 63z" />
    <glyph glyph-name="uni20B1" unicode="&#x20b1;" horiz-adv-x="661" 
d="M46 286h-51v123h51v82h-51v124h51v84h297q73 0 130.5 -21t94.5 -63h98v-124h-44q3 -22 3 -46q0 -14 -2 -36h43v-123h-90q-36 -47 -96 -71t-137 -24h-60v-191h-237v286zM307 370q42 0 64.5 16.5t22.5 58.5t-22.5 58.5t-64.5 16.5h-24v-150h24z" />
    <glyph glyph-name="uni20B2" unicode="&#x20b2;" horiz-adv-x="687" 
d="M304 -6q-136 24 -212.5 117t-76.5 238t76.5 238t212.5 118v97h167v-91q101 -9 176 -52v-222q-43 32 -97.5 46t-126.5 14q-77 0 -122.5 -38.5t-45.5 -109.5q0 -77 37 -116.5t120 -39.5q30 0 52 8v66h-77v136h285v-359q-82 -47 -201 -56v-91h-167v97z" />
    <glyph glyph-name="uni20B5" unicode="&#x20b5;" horiz-adv-x="670" 
d="M361 -13q-107 7 -184.5 52.5t-119.5 124.5t-42 185t42 185t119.5 125t184.5 53v90h167v-99q65 -13 119 -44v-224q-53 38 -119 51v-273q70 15 127 53v-223q-56 -32 -127 -46v-100h-167v90zM361 487q-50 -13 -77.5 -48t-27.5 -90q0 -56 27.5 -91t77.5 -48v277z" />
    <glyph glyph-name="uni20B9" unicode="&#x20b9;" horiz-adv-x="511" 
d="M15 191v146h145q38 0 57 35h-202v145h202q-18 35 -57 35h-145v147h481v-147h-63q8 -13 11 -35h52v-145h-52q-16 -65 -66 -109.5t-126 -65.5l115 -197h-243z" />
    <glyph glyph-name="uni20BA" unicode="&#x20ba;" horiz-adv-x="645" 
d="M78 259l-63 -20v136l63 20v40l-63 -20v136l63 20v128h237v-50l113 38v-136l-113 -38v-40l113 38v-136l-113 -38v-159q50 12 70.5 40t20.5 80v28h224v-34q0 -83 -44 -150t-122.5 -104.5t-176.5 -37.5h-209v259z" />
    <glyph glyph-name="uni20BD" unicode="&#x20bd;" horiz-adv-x="703" 
d="M70 41h-55v149h55v36h-55v169h55v304h336q131 0 206.5 -60t75.5 -179t-75 -176.5t-207 -57.5h-99v-36h83v-149h-83v-41h-237v41zM356 395q44 0 67.5 14t23.5 51t-23 48.5t-68 11.5h-49v-125h49z" />
    <glyph glyph-name="uni210A" unicode="&#x210a;" horiz-adv-x="674" 
d="M205.5 -221q-49.5 9 -86.5 25v143q80 -34 184 -34q111 0 111 90v27q-24 -20 -62.5 -32.5t-80.5 -12.5q-77 0 -135 32t-89.5 90t-31.5 133q0 76 31.5 134t89 89.5t135.5 31.5q43 0 83.5 -15t67.5 -40v40h217v-442q0 -127 -82 -197.5t-254 -70.5q-48 0 -97.5 9zM381 171
q22 12 33 33v72q-11 21 -33 33t-48 12q-40 0 -62.5 -20t-22.5 -60t22.5 -61t62.5 -21q26 0 48 12z" />
    <glyph glyph-name="uni2113" unicode="&#x2113;" horiz-adv-x="472" 
d="M106.5 33.5q-54.5 48.5 -54.5 127.5v93l-57 -21v175q41 11 57 21v147q0 79 52.5 126.5t144.5 47.5q96 0 146 -50t50 -127q0 -91 -52.5 -155.5t-144.5 -103.5v-144q0 -42 29 -42q17 0 23.5 13t6.5 40h170q0 -84 -50.5 -140t-165.5 -56q-100 0 -154.5 48.5zM268 517
q11 15 11 40q0 34 -24 34q-26 0 -26 -31v-71q28 13 39 28z" />
    <glyph glyph-name="uni2117" unicode="&#x2117;" horiz-adv-x="782" 
d="M202.5 31q-86.5 46 -137 129t-50.5 189q0 107 50.5 190t136.5 129t189 46t189 -46t136.5 -129t50.5 -190q0 -106 -50.5 -189t-137 -129t-188.5 -46t-188.5 46zM563 174.5q65 61.5 65 174.5t-64.5 174.5t-172.5 61.5t-172.5 -61.5t-64.5 -174.5t65 -174.5t172 -61.5
t172 61.5zM245 529h206q66 0 106 -36.5t40 -101.5t-39.5 -101t-106.5 -36h-72v-90h-134v365zM424 352q48 0 48 39q0 22 -12.5 30.5t-35.5 8.5h-45v-78h45z" />
    <glyph glyph-name="uni2120" unicode="&#x2120;" horiz-adv-x="769" 
d="M75.5 359q-39.5 7 -60.5 19v102q57 -32 111 -32q28 0 28 13q0 8 -10 14.5t-42 21.5q-47 20 -66.5 45.5t-19.5 62.5q0 47 43.5 78t106.5 31q74 0 121 -22v-99q-46 25 -84 25q-35 0 -35 -16q0 -7 8 -12t23 -11l25 -10q50 -21 67 -44.5t17 -65.5q0 -49 -41.5 -78t-115.5 -29
q-36 0 -75.5 7zM339 699h130l77 -146l78 146h130v-339h-128v104l-56 -104h-48l-55 104v-104h-128v339z" />
    <glyph glyph-name="trademark" unicode="&#x2122;" horiz-adv-x="781" 
d="M101 573h-86v126h318v-126h-86v-213h-146v213zM351 699h130l77 -146l78 146h130v-339h-128v104l-56 -104h-48l-55 104v-104h-128v339z" />
    </font>
</defs>
</svg>
